  0
SECTION
  2
HEADER
  9
$ACADVER
  1
AC1009
  9
$DWGCODEPAGE
  3
dos932
  9
$INSBASE
 10
0.0
 20
0.0
 30
0.0
  9
$EXTMIN
 10
0.0
 20
0.0
 30
0.0
  9
$EXTMAX
 10
420.0
 20
297.0
 30
0.0
  9
$LIMMIN
 10
0.0
 20
0.0
  9
$LIMMAX
 10
420.0
 20
297.0
  9
$ORTHOMODE
 70
     0
  9
$REGENMODE
 70
     1
  9
$FILLMODE
 70
     1
  9
$QTEXTMODE
 70
     0
  9
$MIRRTEXT
 70
     1
  9
$DRAGMODE
 70
     2
  9
$LTSCALE
 40
1.0
  9
$OSMODE
 70
    37
  9
$ATTMODE
 70
     1
  9
$TEXTSIZE
 40
3.5
  9
$TRACEWID
 40
1.0
  9
$TEXTSTYLE
  7
STANDARD
  9
$CLAYER
  8
0
  9
$CELTYPE
  6
BYLAYER
  9
$CECOLOR
 62
   256
  9
$DIMSCALE
 40
1.0
  9
$DIMASZ
 40
3.0
  9
$DIMEXO
 40
0.01
  9
$DIMDLI
 40
3.75
  9
$DIMRND
 40
0.0
  9
$DIMDLE
 40
0.0
  9
$DIMEXE
 40
1.0
  9
$DIMTP
 40
0.0
  9
$DIMTM
 40
0.0
  9
$DIMTXT
 40
3.5
  9
$DIMCEN
 40
2.5
  9
$DIMTSZ
 40
0.0
  9
$DIMTOL
 70
     0
  9
$DIMLIM
 70
     0
  9
$DIMTIH
 70
     1
  9
$DIMTOH
 70
     1
  9
$DIMSE1
 70
     0
  9
$DIMSE2
 70
     0
  9
$DIMTAD
 70
     1
  9
$DIMZIN
 70
     0
  9
$DIMBLK
  1

  9
$DIMASO
 70
     1
  9
$DIMSHO
 70
     1
  9
$DIMPOST
  1

  9
$DIMAPOST
  1

  9
$DIMALT
 70
     0
  9
$DIMALTD
 70
     3
  9
$DIMALTF
 40
0.0393700787
  9
$DIMLFAC
 40
1.0
  9
$DIMTOFL
 70
     1
  9
$DIMTVP
 40
0.0
  9
$DIMTIX
 70
     0
  9
$DIMSOXD
 70
     0
  9
$DIMSAH
 70
     0
  9
$DIMBLK1
  1

  9
$DIMBLK2
  1

  9
$DIMSTYLE
  2
ISO-25
  9
$DIMCLRD
 70
     0
  9
$DIMCLRE
 70
     0
  9
$DIMCLRT
 70
     0
  9
$DIMTFAC
 40
1.0
  9
$DIMGAP
 40
1.524
  9
$LUNITS
 70
     2
  9
$LUPREC
 70
     4
  9
$SKETCHINC
 40
1.0
  9
$FILLETRAD
 40
10.0
  9
$AUNITS
 70
     0
  9
$AUPREC
 70
     2
  9
$MENU
  1
.
  9
$ELEVATION
 40
0.0
  9
$PELEVATION
 40
0.0
  9
$THICKNESS
 40
0.0
  9
$LIMCHECK
 70
     0
  9
$CHAMFERA
 40
0.0
  9
$CHAMFERB
 40
0.0
  9
$SKPOLY
 70
     0
  9
$TDCREATE
 40
2460356.600139224
  9
$TDUPDATE
 40
2460356.600142153
  9
$TDINDWG
 40
0.0000000116
  9
$TDUSRTIMER
 40
0.0000000116
  9
$USRTIMER
 70
     1
  9
$ANGBASE
 50
0.0
  9
$ANGDIR
 70
     0
  9
$PDMODE
 70
     0
  9
$PDSIZE
 40
-1.0
  9
$PLINEWID
 40
0.0
  9
$COORDS
 70
     1
  9
$SPLFRAME
 70
     0
  9
$SPLINETYPE
 70
     6
  9
$SPLINESEGS
 70
     8
  9
$ATTDIA
 70
     0
  9
$ATTREQ
 70
     1
  9
$HANDLING
 70
     1
  9
$HANDSEED
  5
45C
  9
$SURFTAB1
 70
     6
  9
$SURFTAB2
 70
     6
  9
$SURFTYPE
 70
     6
  9
$SURFU
 70
     6
  9
$SURFV
 70
     6
  9
$UCSNAME
  2

  9
$UCSORG
 10
0.0
 20
0.0
 30
0.0
  9
$UCSXDIR
 10
1.0
 20
0.0
 30
0.0
  9
$UCSYDIR
 10
0.0
 20
1.0
 30
0.0
  9
$PUCSNAME
  2

  9
$PUCSORG
 10
0.0
 20
0.0
 30
0.0
  9
$PUCSXDIR
 10
1.0
 20
0.0
 30
0.0
  9
$PUCSYDIR
 10
0.0
 20
1.0
 30
0.0
  9
$USERI1
 70
     0
  9
$USERI2
 70
     0
  9
$USERI3
 70
     0
  9
$USERI4
 70
     0
  9
$USERI5
 70
     0
  9
$USERR1
 40
0.0
  9
$USERR2
 40
0.0
  9
$USERR3
 40
0.0
  9
$USERR4
 40
0.0
  9
$USERR5
 40
0.0
  9
$WORLDVIEW
 70
     1
  9
$SHADEDGE
 70
     3
  9
$SHADEDIF
 70
    70
  9
$TILEMODE
 70
     1
  9
$MAXACTVP
 70
    64
  9
$PLIMCHECK
 70
     0
  9
$PEXTMIN
 10
1.0000000000E+20
 20
1.0000000000E+20
 30
1.0000000000E+20
  9
$PEXTMAX
 10
-1.0000000000E+20
 20
-1.0000000000E+20
 30
-1.0000000000E+20
  9
$PLIMMIN
 10
0.0
 20
0.0
  9
$PLIMMAX
 10
420.0
 20
297.0
  9
$UNITMODE
 70
     0
  9
$VISRETAIN
 70
     1
  9
$PLINEGEN
 70
     0
  9
$PSLTSCALE
 70
     1
  0
ENDSEC
  0
SECTION
  2
TABLES
  0
TABLE
  2
VPORT
 70
     1
  0
VPORT
  2
*ACTIVE
 70
     0
 10
0.0
 20
0.0
 11
1.0
 21
1.0
 12
210.0
 22
148.5
 13
0.0
 23
0.0
 14
10.0
 24
10.0
 15
10.0
 25
10.0
 16
0.0
 26
0.0
 36
1.0
 17
0.0
 27
0.0
 37
0.0
 40
297.0
 41
1.4141414141
 42
50.0
 43
0.0
 44
0.0
 50
0.0
 51
0.0
 71
     0
 72
  2000
 73
     1
 74
     3
 75
     0
 76
     0
 77
     0
 78
     0
  0
ENDTAB
  0
TABLE
  2
LTYPE
 70
     6
  0
LTYPE
  2
CONTINUOUS
 70
     0
  3
Solid line
 72
    65
 73
     0
 40
0.0
  0
LTYPE
  2
HIDDEN
 70
     0
  3
Hidden __ __ __ __ __ __ __ __ __ __ __ __ __ __
 72
    65
 73
     2
 40
1.905
 49
1.27
 49
-0.635
  0
LTYPE
  2
PHANTOM
 70
     0
  3
Phantom ______  __  __  ______  __  __  ______
 72
    65
 73
     6
 40
12.7
 49
6.35
 49
-1.27
 49
1.27
 49
-1.27
 49
1.27
 49
-1.27
  0
LTYPE
  2
CENTER
 70
     0
  3
Center ____ _ ____ _ ____ _ ____ _ ____ _ ____
 72
    65
 73
     4
 40
10.16
 49
6.35
 49
-1.27
 49
1.27
 49
-1.27
  0
LTYPE
  2
CENTERX2
 70
     0
  3
Center (2x) ________  __  ________  __  _____
 72
    65
 73
     4
 40
20.32
 49
12.7
 49
-2.54
 49
2.54
 49
-2.54
  0
LTYPE
  2
DOT2
 70
     0
  3
Dot (.5x) ........................................
 72
    65
 73
     2
 40
0.635
 49
0.0
 49
-0.635
  0
ENDTAB
  0
TABLE
  2
LAYER
 70
     4
  0
LAYER
  2
0
 70
     0
 62
     7
  6
CONTINUOUS
  0
LAYER
  2
DIM
 70
     0
 62
     7
  6
CONTINUOUS
  0
LAYER
  2
TXT
 70
     0
 62
     7
  6
CONTINUOUS
  0
LAYER
  2
FRAME
 70
     0
 62
     7
  6
CONTINUOUS
  0
ENDTAB
  0
TABLE
  2
STYLE
 70
     1
  0
STYLE
  2
STANDARD
 70
     0
 40
0.0
 41
1.0
 50
0.0
 71
     0
 42
3.5
  3
txt
  4
bigfont
  0
ENDTAB
  0
TABLE
  2
VIEW
 70
     0
  0
ENDTAB
  0
TABLE
  2
UCS
 70
     0
  0
ENDTAB
  0
TABLE
  2
APPID
 70
     1
  0
APPID
  2
ACAD
 70
     0
  0
ENDTAB
  0
TABLE
  2
DIMSTYLE
 70
     8
  0
DIMSTYLE
  2
ISO-25
 70
     0
  3

  4

  5

  6

  7

 40
1.0
 41
2.5
 42
0.625
 43
3.75
 44
1.25
 45
0.0
 46
0.0
 47
0.0
 48
0.0
140
2.5
141
2.5
142
0.0
143
0.0393700787
144
1.0
145
0.0
146
1.0
147
0.625
 71
     0
 72
     0
 73
     0
 74
     0
 75
     0
 76
     0
 77
     1
 78
     8
170
     0
171
     3
172
     1
173
     0
174
     0
175
     0
176
     0
177
     0
178
     0
  0
DIMSTYLE
  2
SLDDIMSTYLE0
 70
     0
  3

  4

  5

  6
OPEN30
  7
OPEN30
 40
1.0
 41
3.0
 42
0.0625
 43
0.38
 44
0.0
 45
0.000000001
 46
0.0
 47
0.0
 48
0.0
140
3.5
141
0.09
142
0.0
143
25.4
144
1.0
145
0.0
146
1.0
147
0.875
 71
     0
 72
     0
 73
     0
 74
     0
 75
     0
 76
     0
 77
     3
 78
    12
170
     0
171
     2
172
     0
173
     1
174
     0
175
     0
176
     0
177
     0
178
     0
  0
DIMSTYLE
  2
SLDDIMSTYLE1
 70
     0
  3

  4

  5

  6
OPEN30
  7
OPEN30
 40
1.0
 41
3.0
 42
0.0625
 43
0.38
 44
0.0
 45
0.000000001
 46
0.0
 47
0.0
 48
0.0
140
3.5
141
0.09
142
0.0
143
25.4
144
1.0
145
0.0
146
1.0
147
0.875
 71
     0
 72
     0
 73
     0
 74
     0
 75
     0
 76
     0
 77
     3
 78
    12
170
     0
171
     2
172
     1
173
     1
174
     0
175
     0
176
     0
177
     0
178
     0
  0
DIMSTYLE
  2
SLDDIMSTYLE2
 70
     0
  3

  4

  5

  6
OPEN30
  7
OPEN30
 40
1.0
 41
3.0
 42
0.0625
 43
0.38
 44
0.0
 45
0.000000001
 46
0.0
 47
0.0
 48
0.0
140
3.5
141
0.0
142
0.0
143
25.4
144
1.0
145
0.0
146
1.0
147
0.875
 71
     0
 72
     0
 73
     0
 74
     0
 75
     0
 76
     0
 77
     3
 78
    12
170
     0
171
     2
172
     1
173
     1
174
     0
175
     0
176
     0
177
     0
178
     0
  0
DIMSTYLE
  2
SLDDIMSTYLE3
 70
     0
  3

  4

  5

  6
OPEN30
  7
OPEN30
 40
1.0
 41
3.0
 42
0.0625
 43
0.38
 44
0.0
 45
0.000000001
 46
0.0
 47
0.0
 48
0.0
140
3.5
141
0.0
142
0.0
143
25.4
144
1.0
145
0.0
146
1.0
147
0.875
 71
     0
 72
     0
 73
     0
 74
     0
 75
     0
 76
     0
 77
     3
 78
    12
170
     0
171
     2
172
     1
173
     1
174
     0
175
     0
176
     0
177
     0
178
     0
  0
DIMSTYLE
  2
SLDDIMSTYLE4
 70
     0
  3

  4

  5

  6
OPEN30
  7
OPEN30
 40
1.0
 41
3.0
 42
0.0625
 43
0.38
 44
0.0
 45
0.000000001
 46
0.0
 47
0.018
 48
0.0
140
3.5
141
0.09
142
0.0
143
25.4
144
1.0
145
0.0
146
1.0
147
0.875
 71
     1
 72
     0
 73
     0
 74
     0
 75
     0
 76
     0
 77
     3
 78
    12
170
     0
171
     2
172
     1
173
     1
174
     0
175
     0
176
     0
177
     0
178
     0
  0
DIMSTYLE
  2
SLDDIMSTYLE5
 70
     0
  3

  4

  5

  6
OPEN30
  7
OPEN30
 40
1.0
 41
3.0
 42
0.0625
 43
0.38
 44
0.0
 45
0.0
 46
0.0
 47
0.0
 48
0.0
140
3.5
141
0.09
142
0.0
143
25.4
144
1.0
145
0.0
146
1.0
147
0.875
 71
     0
 72
     0
 73
     0
 74
     0
 75
     0
 76
     0
 77
     3
 78
    12
170
     0
171
     2
172
     0
173
     1
174
     0
175
     0
176
     0
177
     0
178
     0
  0
DIMSTYLE
  2
SLDDIMSTYLE6
 70
     0
  3

  4

  5

  6
OPEN30
  7
OPEN30
 40
1.0
 41
3.0
 42
0.0625
 43
0.38
 44
0.0
 45
0.000000001
 46
0.0
 47
0.039
 48
0.0
140
3.5
141
0.0
142
0.0
143
25.4
144
1.0
145
0.0
146
1.0
147
0.875
 71
     1
 72
     0
 73
     0
 74
     0
 75
     0
 76
     0
 77
     3
 78
    12
170
     0
171
     2
172
     1
173
     1
174
     0
175
     0
176
     0
177
     0
178
     0
  0
ENDTAB
  0
ENDSEC
  0
SECTION
  2
BLOCKS
  0
BLOCK
  8
0
  2
$MODEL_SPACE
 70
     0
 10
0.0
 20
0.0
 30
0.0
  3
$MODEL_SPACE
  1

  0
ENDBLK
  5
21
  8
0
  0
BLOCK
 67
     1
  8
0
  2
$PAPER_SPACE
 70
     0
 10
0.0
 20
0.0
 30
0.0
  3
$PAPER_SPACE
  1

  0
ENDBLK
  5
1D
 67
     1
  8
0
  0
BLOCK
  8
0
  2
_OPEN30
 70
     0
 10
0.0
 20
0.0
 30
0.0
  3
_OPEN30
  1

  0
LINE
  5
117
  8
0
  6
BYBLOCK
 62
     0
 10
-1.0
 20
0.267949
 30
0.0
 11
0.0
 21
0.0
 31
0.0
  0
LINE
  5
118
  8
0
  6
BYBLOCK
 62
     0
 10
0.0
 20
0.0
 30
0.0
 11
-1.0
 21
-0.267949
 31
0.0
  0
LINE
  5
119
  8
0
  6
BYBLOCK
 62
     0
 10
0.0
 20
0.0
 30
0.0
 11
-1.0
 21
0.0
 31
0.0
  0
ENDBLK
  5
116
  8
0
  0
BLOCK
  8
0
  2
_D
 70
     0
 10
0.0
 20
0.0
 30
0.0
  3
_D
  1

  0
INSERT
  5
11D
  8
DIM
  2
_OPEN30
 10
88.6543234524
 20
275.5310261855
 30
0.0
 41
3.0
 42
3.0
 50
180.0
  0
INSERT
  5
11E
  8
DIM
  2
_OPEN30
 10
209.1443234524
 20
275.5310261855
 30
0.0
 41
3.0
 42
3.0
 50
0.0
  0
LINE
  5
11F
  8
DIM
 10
88.6543234524
 20
229.124068545
 30
0.0
 11
88.6543234524
 21
276.5310261855
 31
0.0
  0
LINE
  5
120
  8
DIM
 10
209.1443234524
 20
258.624068545
 30
0.0
 11
209.1443234524
 21
276.5310261855
 31
0.0
  0
LINE
  5
121
  8
DIM
 10
88.6543234524
 20
275.5310261855
 30
0.0
 11
209.1443234524
 21
275.5310261855
 31
0.0
  0
TEXT
  5
122
  8
DIM
 10
143.8073098251
 20
276.7674361694
 30
0.0
 40
3.5
  1
120.5
 41
0.7
 11
143.8073098251
 21
275.5310259527
 31
0.0
 73
     1
  0
ENDBLK
  5
11C
  8
0
  0
BLOCK
  8
0
  2
_D_1
 70
     0
 10
0.0
 20
0.0
 30
0.0
  3
_D_1
  1

  0
INSERT
  5
127
  8
DIM
  2
_OPEN30
 10
118.6543234524
 20
261.9137703761
 30
0.0
 41
3.0
 42
3.0
 50
180.0
  0
INSERT
  5
128
  8
DIM
  2
_OPEN30
 10
156.6543234524
 20
261.9137703761
 30
0.0
 41
3.0
 42
3.0
 50
0.0
  0
LINE
  5
129
  8
DIM
 10
118.6543234524
 20
258.874068545
 30
0.0
 11
118.6543234524
 21
262.9137703761
 31
0.0
  0
LINE
  5
12A
  8
DIM
 10
156.6543234524
 20
236.2389805266
 30
0.0
 11
156.6543234524
 21
262.9137703761
 31
0.0
  0
LINE
  5
12B
  8
DIM
 10
118.6543234524
 20
261.9137703761
 30
0.0
 11
156.6543234524
 21
261.9137703761
 31
0.0
  0
TEXT
  5
12C
  8
DIM
 10
135.6175179549
 20
263.15018036
 30
0.0
 40
3.5
  1
38
 50
0.0
 41
0.7
 11
135.6175179549
 21
261.9137701432
 31
0.0
 73
     1
  0
ENDBLK
  5
126
  8
0
  0
BLOCK
  8
0
  2
_D_2
 70
     0
 10
0.0
 20
0.0
 30
0.0
  3
_D_2
  1

  0
INSERT
  5
132
  8
DIM
  2
_OPEN30
 10
153.6543234524
 20
193.3416268642
 30
0.0
 41
3.0
 42
3.0
 50
0.0
  0
INSERT
  5
133
  8
DIM
  2
_OPEN30
 10
159.6543234524
 20
193.3416268642
 30
0.0
 41
3.0
 42
3.0
 50
180.0
  0
LINE
  5
134
  8
DIM
 10
153.6543234524
 20
229.104068545
 30
0.0
 11
153.6543234524
 21
192.3416268642
 31
0.0
  0
LINE
  5
135
  8
DIM
 10
159.6543234524
 20
229.104068545
 30
0.0
 11
159.6543234524
 21
192.3416268642
 31
0.0
  0
LINE
  5
136
  8
DIM
 10
153.6543234524
 20
193.3416268642
 30
0.0
 11
147.3043234524
 21
193.3416268642
 31
0.0
  0
LINE
  5
137
  8
DIM
 10
153.6543234524
 20
193.3416268642
 30
0.0
 11
159.6543234524
 21
193.3416268642
 31
0.0
  0
LINE
  5
138
  8
DIM
 10
159.6543234524
 20
193.3416268642
 30
0.0
 11
166.0043234524
 21
193.3416268642
 31
0.0
  0
TEXT
  5
139
  8
DIM
 10
155.6359207036
 20
194.5780368481
 30
0.0
 40
3.5
  1
6
 50
0.0
 41
0.7
 11
155.6359207036
 21
193.3416266314
 31
0.0
 73
     1
  0
ENDBLK
  5
131
  8
0
  0
BLOCK
  8
0
  2
_D_3
 70
     0
 10
0.0
 20
0.0
 30
0.0
  3
_D_3
  1

  0
INSERT
  5
13E
  8
DIM
  2
_OPEN30
 10
171.1443234524
 20
193.3416268642
 30
0.0
 41
3.0
 42
3.0
 50
180.0
  0
INSERT
  5
13F
  8
DIM
  2
_OPEN30
 10
191.1443234524
 20
193.3416268642
 30
0.0
 41
3.0
 42
3.0
 50
0.0
  0
LINE
  5
140
  8
DIM
 10
171.1443234524
 20
229.104068545
 30
0.0
 11
171.1443234524
 21
192.3416268642
 31
0.0
  0
LINE
  5
141
  8
DIM
 10
191.1443234524
 20
229.104068545
 30
0.0
 11
191.1443234524
 21
192.3416268642
 31
0.0
  0
LINE
  5
142
  8
DIM
 10
171.1443234524
 20
193.3416268642
 30
0.0
 11
191.1443234524
 21
193.3416268642
 31
0.0
  0
TEXT
  5
143
  8
DIM
 10
179.1075179549
 20
194.5780368481
 30
0.0
 40
3.5
  1
20
 50
0.0
 41
0.7
 11
179.1075179549
 21
193.3416266314
 31
0.0
 73
     1
  0
ENDBLK
  5
13D
  8
0
  0
BLOCK
  8
0
  2
_D_4
 70
     0
 10
0.0
 20
0.0
 30
0.0
  3
_D_4
  1

  0
INSERT
  5
148
  8
DIM
  2
_OPEN30
 10
209.1443234524
 20
261.9137703761
 30
0.0
 41
3.0
 42
3.0
 50
0.0
  0
INSERT
  5
149
  8
DIM
  2
_OPEN30
 10
181.1443234524
 20
261.9137703761
 30
0.0
 41
3.0
 42
3.0
 50
180.0
  0
LINE
  5
14A
  8
DIM
 10
209.1443234524
 20
258.624068545
 30
0.0
 11
209.1443234524
 21
262.9137703761
 31
0.0
  0
LINE
  5
14B
  8
DIM
 10
181.1443234524
 20
242.0259628798
 30
0.0
 11
181.1443234524
 21
262.9137703761
 31
0.0
  0
LINE
  5
14C
  8
DIM
 10
209.1443234524
 20
261.9137703761
 30
0.0
 11
181.1443234524
 21
261.9137703761
 31
0.0
  0
TEXT
  5
14D
  8
DIM
 10
193.1075179549
 20
263.15018036
 30
0.0
 40
3.5
  1
28
 50
0.0
 41
0.7
 11
193.1075179549
 21
261.9137701432
 31
0.0
 73
     1
  0
ENDBLK
  5
147
  8
0
  0
BLOCK
  8
0
  2
_D_5
 70
     0
 10
0.0
 20
0.0
 30
0.0
  3
_D_5
  1

  0
INSERT
  5
152
  8
DIM
  2
_OPEN30
 10
239.0501196337
 20
259.114068545
 30
-101.3090930911
 41
3.0
 42
3.0
 50
90.0
  0
INSERT
  5
153
  8
DIM
  2
_OPEN30
 10
239.0501196337
 20
199.114068545
 30
-101.3090930911
 41
3.0
 42
3.0
 50
270.0
  0
LINE
  5
154
  8
DIM
 10
208.6543234524
 20
259.114068545
 30
0.0
 11
240.0501196337
 21
259.114068545
 31
0.0
  0
LINE
  5
155
  8
DIM
 10
208.6543234524
 20
199.114068545
 30
0.0
 11
240.0501196337
 21
199.114068545
 31
0.0
  0
LINE
  5
156
  8
DIM
 10
239.0501196337
 20
259.114068545
 30
0.0
 11
239.0501196337
 21
199.114068545
 31
0.0
  0
TEXT
  5
157
  8
DIM
 10
237.8137096498
 20
227.0772630476
 30
-101.3090930911
 40
3.5
  1
60
 50
90.0
 41
0.7
 11
239.0501198666
 21
227.0772630476
 31
-101.3090930911
 73
     1
  0
ENDBLK
  5
151
  8
0
  0
BLOCK
  8
0
  2
_D_6
 70
     0
 10
0.0
 20
0.0
 30
0.0
  3
_D_6
  1

  0
INSERT
  5
15D
  8
DIM
  2
_OPEN30
 10
124.0119365673
 20
220.6703737548
 30
-101.3090930911
 41
3.0
 42
3.0
 50
302.3955564243
  0
INSERT
  5
15E
  8
DIM
  2
_OPEN30
 10
113.2967103374
 20
237.5577633353
 30
-101.3090930911
 41
3.0
 42
3.0
 50
122.3955564243
  0
LINE
  5
15F
  8
DIM
 10
113.2967103374
 20
237.5577633353
 30
0.0
 11
96.4149003596
 21
264.1637999979
 31
0.0
  0
LINE
  5
160
  8
DIM
 10
113.2967103374
 20
237.5577633353
 30
0.0
 11
124.0119365673
 21
220.6703737548
 31
0.0
  0
TEXT
  5
161
  8
DIM
 10
97.4551538079
 20
264.8238517473
 30
-101.3090930911
 40
3.5
  1
%%c
 50
-57.6044435757
 41
0.7
 11
96.4111667574
 21
264.1614309881
 31
-101.3090930911
 73
     1
  0
TEXT
  5
162
  8
DIM
 10
99.5285128561
 20
261.5562005344
 30
-101.3090930911
 40
3.5
  1
20
 50
-57.6044435757
 41
0.7
 11
98.4845258055
 21
260.8937797752
 31
-101.3090930911
 73
     1
  0
ENDBLK
  5
15C
  8
0
  0
BLOCK
  8
0
  2
_D_7
 70
     0
 10
0.0
 20
0.0
 30
0.0
  3
_D_7
  1

  0
INSERT
  5
168
  8
DIM
  2
_OPEN30
 10
133.2406066623
 20
213.318805264
 30
-101.3090930911
 41
3.0
 42
3.0
 50
312.7212177944
  0
INSERT
  5
169
  8
DIM
  2
_OPEN30
 10
104.0680402424
 20
244.9093318261
 30
-101.3090930911
 41
3.0
 42
3.0
 50
132.7212177944
  0
LINE
  5
16A
  8
DIM
 10
104.0680402424
 20
244.9093318261
 30
0.0
 11
89.9675872574
 21
260.1784969777
 31
0.0
  0
LINE
  5
16B
  8
DIM
 10
104.0680402424
 20
244.9093318261
 30
0.0
 11
133.2406066623
 21
213.318805264
 31
0.0
  0
TEXT
  5
16C
  8
DIM
 10
90.8728131942
 20
261.0144363127
 30
-101.3090930911
 40
3.5
  1
%%c
 50
-47.2787822056
 41
0.7
 11
89.9644678502
 21
260.175616332
 31
-101.3090930911
 73
     1
  0
TEXT
  5
16D
  8
DIM
 10
93.4982970312
 20
258.1713399701
 30
-101.3090930911
 40
3.5
  1
43
 50
-47.2787822056
 41
0.7
 11
92.5899516872
 21
257.3325199894
 31
-101.3090930911
 73
     1
  0
ENDBLK
  5
167
  8
0
  0
BLOCK
  8
0
  2
_D_8
 70
     0
 10
0.0
 20
0.0
 30
0.0
  3
_D_8
  1

  0
INSERT
  5
172
  8
DIM
  2
_OPEN30
 10
146.1443234524
 20
268.1753855752
 30
-101.3090930911
 41
3.0
 42
3.0
 50
180.0
  0
INSERT
  5
173
  8
DIM
  2
_OPEN30
 10
166.1443234524
 20
268.1753855752
 30
-101.3090930911
 41
3.0
 42
3.0
 50
0.0
  0
LINE
  5
174
  8
DIM
 10
146.1443234524
 20
235.774068545
 30
0.0
 11
146.1443234524
 21
269.1753855752
 31
0.0
  0
LINE
  5
175
  8
DIM
 10
166.1443234524
 20
229.124068545
 30
0.0
 11
166.1443234524
 21
269.1753855752
 31
0.0
  0
LINE
  5
176
  8
DIM
 10
146.1443234524
 20
268.1753855752
 30
0.0
 11
166.1443234524
 21
268.1753855752
 31
0.0
  0
TEXT
  5
177
  8
DIM
 10
154.1075179549
 20
269.4117955591
 30
-101.3090930911
 40
3.5
  1
20
 41
0.7
 11
154.1075179549
 21
268.1753853424
 31
-101.3090930911
 73
     1
  0
ENDBLK
  5
171
  8
0
  0
BLOCK
  8
0
  2
_D_9
 70
     0
 10
0.0
 20
0.0
 30
0.0
  3
_D_9
  1

  0
ARC
  5
17D
  8
DIM
 10
218.3489768247
 20
254.6654227565
 30
0.0
 40
6.376210185542507
 50
243.4349488229
 51
296.5650511771
  0
ARC
  5
17E
  8
DIM
 10
218.3489768247
 20
251.8138946409
 30
0.0
 40
6.376210185542456
 50
63.4349488229
 51
116.5650511771
  0
INSERT
  5
17F
  8
DIM
  2
_OPEN30
 10
221.3725875079
 20
231.114068545
 30
-101.3090930911
 41
3.0
 42
3.0
 50
270.0
  0
INSERT
  5
180
  8
DIM
  2
_OPEN30
 10
221.3725875079
 20
227.114068545
 30
-101.3090930911
 41
3.0
 42
3.0
 50
90.0
  0
LINE
  5
181
  8
DIM
 10
157.6643234524
 20
231.114068545
 30
0.0
 11
222.3725875079
 21
231.114068545
 31
0.0
  0
LINE
  5
182
  8
DIM
 10
157.6643234524
 20
227.114068545
 30
0.0
 11
222.3725875079
 21
227.114068545
 31
0.0
  0
LINE
  5
183
  8
DIM
 10
221.3725875079
 20
231.114068545
 30
0.0
 11
221.3725875079
 21
258.1901047172
 31
0.0
  0
LINE
  5
184
  8
DIM
 10
221.3725875079
 20
231.114068545
 30
0.0
 11
221.3725875079
 21
227.114068545
 31
0.0
  0
LINE
  5
185
  8
DIM
 10
221.3725875079
 20
227.114068545
 30
0.0
 11
221.3725875079
 21
220.764068545
 31
0.0
  0
TEXT
  5
186
  8
DIM
 10
220.136177524
 20
238.1051853092
 30
-101.3090930911
 40
3.5
  1
4
 50
90.0
 41
0.7
 11
221.3725877407
 21
238.1051853092
 31
-101.3090930911
 73
     1
  0
TEXT
  5
187
  8
DIM
 10
220.136177524
 20
240.1419908067
 30
-101.3090930911
 40
3.5
  1
 H8 
 50
90.0
 41
0.525
 11
221.3725877407
 21
240.1419908067
 31
-101.3090930911
 73
     1
  0
TEXT
  5
188
  8
DIM
 10
217.4834895857
 20
248.962366991
 30
-101.3090930911
 40
2.45
  1
+
 50
90.0
 41
0.7
 11
218.3489767374
 21
248.962366991
 31
-101.3090930911
 73
     1
  0
TEXT
  5
189
  8
DIM
 10
220.3350174685
 20
248.962366991
 30
-101.3090930911
 40
2.45
  1
 
 50
90.0
 41
0.7
 11
221.2005046202
 21
248.962366991
 31
-101.3090930911
 73
     1
  0
TEXT
  5
18A
  8
DIM
 10
217.4834895857
 20
250.3881309324
 30
-101.3090930911
 40
2.45
  1
0.018
 50
90.0
 41
0.7
 11
218.3489767374
 21
250.3881309324
 31
-101.3090930911
 73
     1
  0
TEXT
  5
18B
  8
DIM
 10
220.3350174685
 20
250.3881309324
 30
-101.3090930911
 40
2.45
  1
0
 50
90.0
 41
0.7
 11
221.2005046202
 21
250.3881309324
 31
-101.3090930911
 73
     1
  0
ENDBLK
  5
17C
  8
0
  0
BLOCK
  8
0
  2
_D_10
 70
     0
 10
0.0
 20
0.0
 30
0.0
  3
_D_10
  1

  0
INSERT
  5
190
  8
DIM
  2
_OPEN30
 10
231.3544784886
 20
236.614068545
 30
-101.3090930911
 41
3.0
 42
3.0
 50
90.0
  0
INSERT
  5
191
  8
DIM
  2
_OPEN30
 10
231.3544784886
 20
221.614068545
 30
-101.3090930911
 41
3.0
 42
3.0
 50
270.0
  0
LINE
  5
192
  8
DIM
 10
183.6543234524
 20
236.614068545
 30
0.0
 11
232.3544784886
 21
236.614068545
 31
0.0
  0
LINE
  5
193
  8
DIM
 10
183.6543234524
 20
221.614068545
 30
0.0
 11
232.3544784886
 21
221.614068545
 31
0.0
  0
LINE
  5
194
  8
DIM
 10
231.3544784886
 20
236.614068545
 30
0.0
 11
231.3544784886
 21
221.614068545
 31
0.0
  0
TEXT
  5
195
  8
DIM
 10
230.1180685047
 20
227.0772630476
 30
-101.3090930911
 40
3.5
  1
15
 50
90.0
 41
0.7
 11
231.3544787214
 21
227.0772630476
 31
-101.3090930911
 73
     1
  0
ENDBLK
  5
18F
  8
0
  0
BLOCK
  8
0
  2
_D_11
 70
     0
 10
0.0
 20
0.0
 30
0.0
  3
_D_11
  1

  0
INSERT
  5
19A
  8
DIM
  2
_OPEN30
 10
166.1443234524
 20
268.1753855752
 30
-101.3090930911
 41
3.0
 42
3.0
 50
180.0
  0
INSERT
  5
19B
  8
DIM
  2
_OPEN30
 10
209.1443234524
 20
268.1753855752
 30
-101.3090930911
 41
3.0
 42
3.0
 50
0.0
  0
LINE
  5
19C
  8
DIM
 10
166.1443234524
 20
235.774068545
 30
0.0
 11
166.1443234524
 21
269.1753855752
 31
0.0
  0
LINE
  5
19D
  8
DIM
 10
209.1443234524
 20
258.624068545
 30
0.0
 11
209.1443234524
 21
269.1753855752
 31
0.0
  0
LINE
  5
19E
  8
DIM
 10
166.1443234524
 20
268.1753855752
 30
0.0
 11
209.1443234524
 21
268.1753855752
 31
0.0
  0
TEXT
  5
19F
  8
DIM
 10
185.6075179549
 20
269.4117955591
 30
-101.3090930911
 40
3.5
  1
43
 41
0.7
 11
185.6075179549
 21
268.1753853424
 31
-101.3090930911
 73
     1
  0
ENDBLK
  5
199
  8
0
  0
BLOCK
  8
0
  2
_D_12
 70
     0
 10
0.0
 20
0.0
 30
0.0
  3
_D_12
  1

  0
ARC
  5
1A5
  8
DIM
 10
118.6543234524
 20
229.114068545
 30
0.0
 40
42.12007676625409
 50
150.0
 51
180.0
  0
INSERT
  5
1A6
  8
DIM
  2
_OPEN30
 10
82.1772669634
 20
250.1741069282
 30
-101.3090930911
 41
3.0
 42
3.0
 50
62.0370043479
  0
INSERT
  5
1A7
  8
DIM
  2
_OPEN30
 10
76.5342466861
 20
229.114068545
 30
-101.3090930911
 41
3.0
 42
3.0
 50
267.9629956521
  0
LINE
  5
1A8
  8
DIM
 10
92.8814074357
 20
243.994068545
 30
0.0
 11
81.3112415597
 21
250.6741069282
 31
0.0
  0
LINE
  5
1A9
  8
DIM
 10
95.024777271
 20
229.114068545
 30
0.0
 11
75.5342466861
 21
229.114068545
 31
0.0
  0
TEXT
  5
1AA
  8
DIM
 10
75.7208450554
 20
236.4007469784
 30
-101.3090930911
 40
3.5
  1
30°
 50
75.0
 41
0.7
 11
76.9151256156
 21
236.0807404668
 31
-101.3090930911
 73
     1
  0
ENDBLK
  5
1A4
  8
0
  0
BLOCK
  8
0
  2
_D_13
 70
     0
 10
0.0
 20
0.0
 30
0.0
  3
_D_13
  1

  0
ARC
  5
1AF
  8
DIM
 10
165.6424979477
 20
188.3508503009
 30
0.0
 40
6.376210185542469
 50
243.4349488229
 51
296.5650511771
  0
ARC
  5
1B0
  8
DIM
 10
165.6424979477
 20
185.4993221853
 30
0.0
 40
6.376210185542469
 50
63.4349488229
 51
116.5650511771
  0
INSERT
  5
1B1
  8
DIM
  2
_OPEN30
 10
168.6661086308
 20
231.114068545
 30
-101.3090930911
 41
3.0
 42
3.0
 50
270.0
  0
INSERT
  5
1B2
  8
DIM
  2
_OPEN30
 10
168.6661086308
 20
227.114068545
 30
-101.3090930911
 41
3.0
 42
3.0
 50
90.0
  0
LINE
  5
1B3
  8
DIM
 10
157.6643234524
 20
231.114068545
 30
0.0
 11
169.6661086308
 21
231.114068545
 31
0.0
  0
LINE
  5
1B4
  8
DIM
 10
157.6643234524
 20
227.114068545
 30
0.0
 11
169.6661086308
 21
227.114068545
 31
0.0
  0
LINE
  5
1B5
  8
DIM
 10
168.6661086308
 20
231.114068545
 30
0.0
 11
168.6661086308
 21
237.464068545
 31
0.0
  0
LINE
  5
1B6
  8
DIM
 10
168.6661086308
 20
231.114068545
 30
0.0
 11
168.6661086308
 21
227.114068545
 31
0.0
  0
LINE
  5
1B7
  8
DIM
 10
168.6661086308
 20
227.114068545
 30
0.0
 11
168.6661086308
 21
171.7906128536
 31
0.0
  0
TEXT
  5
1B8
  8
DIM
 10
167.4296986469
 20
171.7906128536
 30
-101.3090930911
 40
3.5
  1
4
 50
90.0
 41
0.7
 11
168.6661088636
 21
171.7906128536
 31
-101.3090930911
 73
     1
  0
TEXT
  5
1B9
  8
DIM
 10
167.4296986469
 20
173.8274183511
 30
-101.3090930911
 40
3.5
  1
 H8 
 50
90.0
 41
0.525
 11
168.6661088636
 21
173.8274183511
 31
-101.3090930911
 73
     1
  0
TEXT
  5
1BA
  8
DIM
 10
164.7770107086
 20
182.6477945354
 30
-101.3090930911
 40
2.45
  1
+
 50
90.0
 41
0.7
 11
165.6424978603
 21
182.6477945354
 31
-101.3090930911
 73
     1
  0
TEXT
  5
1BB
  8
DIM
 10
167.6285385914
 20
182.6477945354
 30
-101.3090930911
 40
2.45
  1
 
 50
90.0
 41
0.7
 11
168.4940257431
 21
182.6477945354
 31
-101.3090930911
 73
     1
  0
TEXT
  5
1BC
  8
DIM
 10
164.7770107086
 20
184.0735584768
 30
-101.3090930911
 40
2.45
  1
0.018
 50
90.0
 41
0.7
 11
165.6424978603
 21
184.0735584768
 31
-101.3090930911
 73
     1
  0
TEXT
  5
1BD
  8
DIM
 10
167.6285385914
 20
184.0735584768
 30
-101.3090930911
 40
2.45
  1
0
 50
90.0
 41
0.7
 11
168.4940257431
 21
184.0735584768
 31
-101.3090930911
 73
     1
  0
ENDBLK
  5
1AE
  8
0
  0
BLOCK
  8
0
  2
SW_NOTE_0
 70
     0
 10
0.0
 20
0.0
 30
0.0
  3
SW_NOTE_0
  1

  0
LINE
  5
1C1
  8
TXT
 62
     0
 10
-16.5103202928
 20
-34.9154150128
 30
0.0
 11
-8.2366760525
 21
-34.9154150128
 31
0.0
  0
TEXT
  5
1C2
  8
TXT
 62
     0
 10
-16.921202255
 20
-33.641077577
 30
0.0
 40
3.5
  1
2xM4
 41
0.7
 11
-16.921202255
 21
-34.8774877937
 31
0.0
 73
     1
  0
LINE
  5
1C3
  8
TXT
 62
     0
 10
-8.2366760525
 20
-34.9154150128
 30
0.0
 11
0.0
 21
0.0
 31
0.0
  0
INSERT
  5
1C4
  8
TXT
 62
     0
  2
_OPEN30
 10
0.0
 20
0.0
 30
39.9090909091
 41
3.0
 42
3.0
 50
76.7263895779
  0
ENDBLK
  5
1C0
  8
0
  0
BLOCK
  8
0
  2
SW_NOTE_0_1
 70
     0
 10
0.0
 20
0.0
 30
0.0
  3
SW_NOTE_0_1
  1

  0
LINE
  5
1C9
  8
TXT
 62
     0
 10
-79.6543483357
 20
-12.0827371971
 30
0.0
 11
-6.2029179315
 21
-12.0827371971
 31
0.0
  0
TEXT
  5
1CA
  8
TXT
 62
     0
 10
-80.1456259378
 20
-10.8083997613
 30
0.0
 40
3.5
  1
6xφ3.4,6.5深座ぐり深さ5.3(60°等配)
 41
0.7
 11
-80.1456259378
 21
-12.044809978
 31
0.0
 73
     1
  0
LINE
  5
1CB
  8
TXT
 62
     0
 10
-6.2029179315
 20
-12.0827371971
 30
0.0
 11
0.0
 21
0.0
 31
0.0
  0
INSERT
  5
1CC
  8
TXT
 62
     0
  2
_OPEN30
 10
0.0
 20
0.0
 30
39.9090909091
 41
3.0
 42
3.0
 50
62.8253844022
  0
ENDBLK
  5
1C8
  8
0
  0
BLOCK
  8
0
  2
SW_CENTERMARKSYMBOL_0
 70
     0
 10
0.0
 20
0.0
 30
0.0
  3
SW_CENTERMARKSYMBOL_0
  1

  0
ARC
  5
1D1
  8
DIM
 62
     0
 10
-18.6195461814
 20
-10.75
 30
0.0
 40
21.50000000000001
 50
30.0
 51
43.3245998868
  0
ARC
  5
1D2
  8
DIM
 62
     0
 10
-18.6195461814
 20
-10.75
 30
0.0
 40
21.50000000000002
 50
16.6754001132
 51
30.0
  0
ARC
  5
1D3
  8
DIM
 62
     0
 10
-18.6195461814
 20
-10.75
 30
0.0
 40
21.50000000000002
 50
90.0
 51
103.3245998868
  0
ARC
  5
1D4
  8
DIM
 62
     0
 10
-18.6195461814
 20
-10.75
 30
0.0
 40
21.50000000000002
 50
76.6754001132
 51
90.0
  0
ARC
  5
1D5
  8
DIM
 62
     0
 10
-18.6195461814
 20
-10.75
 30
0.0
 40
21.50000000000001
 50
150.0
 51
163.3245998868
  0
ARC
  5
1D6
  8
DIM
 62
     0
 10
-18.6195461814
 20
-10.75
 30
0.0
 40
21.50000000000001
 50
136.6754001132
 51
150.0
  0
ARC
  5
1D7
  8
DIM
 62
     0
 10
-18.6195461814
 20
-10.75
 30
0.0
 40
21.5
 50
210.0
 51
223.3245998868
  0
ARC
  5
1D8
  8
DIM
 62
     0
 10
-18.6195461814
 20
-10.75
 30
0.0
 40
21.5
 50
196.6754001132
 51
210.0
  0
ARC
  5
1D9
  8
DIM
 62
     0
 10
-18.6195461814
 20
-10.75
 30
0.0
 40
21.50000000000001
 50
270.0
 51
283.3245998868
  0
ARC
  5
1DA
  8
DIM
 62
     0
 10
-18.6195461814
 20
-10.75
 30
0.0
 40
21.50000000000001
 50
256.6754001132
 51
270.0
  0
ARC
  5
1DB
  8
DIM
 62
     0
 10
-18.6195461814
 20
-10.75
 30
0.0
 40
21.50000000000001
 50
330.0
 51
343.3245998868
  0
ARC
  5
1DC
  8
DIM
 62
     0
 10
-18.6195461814
 20
-10.75
 30
0.0
 40
21.50000000000001
 50
316.6754001132
 51
330.0
  0
ARC
  5
1DD
  8
DIM
 62
     0
 10
-18.6195461814
 20
-10.75
 30
0.0
 40
21.50000000000002
 50
56.6491997735
 51
63.3508002265
  0
ARC
  5
1DE
  8
DIM
 62
     0
 10
-18.6195461814
 20
-10.75
 30
0.0
 40
21.50000000000002
 50
116.6491997735
 51
123.3508002265
  0
ARC
  5
1DF
  8
DIM
 62
     0
 10
-18.6195461814
 20
-10.75
 30
0.0
 40
21.5
 50
176.6491997735
 51
183.3508002265
  0
ARC
  5
1E0
  8
DIM
 62
     0
 10
-18.6195461814
 20
-10.75
 30
0.0
 40
21.50000000000001
 50
236.6491997735
 51
243.3508002265
  0
ARC
  5
1E1
  8
DIM
 62
     0
 10
-18.6195461814
 20
-10.75
 30
0.0
 40
21.49999999999999
 50
296.6491997735
 51
303.3508002265
  0
ARC
  5
1E2
  8
DIM
 62
     0
 10
-18.6195461814
 20
-10.75
 30
0.0
 40
21.5
 50
356.6491997735
 51
3.3508002265
  0
LINE
  5
1E3
  8
DIM
 62
     0
 10
0.0
 20
0.0
 30
0.0
 11
4.3301270189
 21
2.5
 31
0.0
  0
LINE
  5
1E4
  8
DIM
 62
     0
 10
0.0
 20
0.0
 30
0.0
 11
-4.3301270189
 21
-2.5
 31
0.0
  0
LINE
  5
1E5
  8
DIM
 62
     0
 10
4.3301270189
 20
2.5
 30
0.0
 11
7.1447095812
 21
4.125
 31
0.0
  0
LINE
  5
1E6
  8
DIM
 62
     0
 10
-4.3301270189
 20
-2.5
 30
0.0
 11
-7.1447095812
 21
-4.125
 31
0.0
  0
LINE
  5
1E7
  8
DIM
 62
     0
 10
-18.6195461814
 20
10.75
 30
0.0
 11
-18.6195461814
 21
15.75
 31
0.0
  0
LINE
  5
1E8
  8
DIM
 62
     0
 10
-18.6195461814
 20
10.75
 30
0.0
 11
-18.6195461814
 21
5.75
 31
0.0
  0
LINE
  5
1E9
  8
DIM
 62
     0
 10
-18.6195461814
 20
15.75
 30
0.0
 11
-18.6195461814
 21
19.0
 31
0.0
  0
LINE
  5
1EA
  8
DIM
 62
     0
 10
-18.6195461814
 20
5.75
 30
0.0
 11
-18.6195461814
 21
2.5
 31
0.0
  0
LINE
  5
1EB
  8
DIM
 62
     0
 10
-37.2390923627
 20
0.0
 30
0.0
 11
-41.5692193817
 21
2.5
 31
0.0
  0
LINE
  5
1EC
  8
DIM
 62
     0
 10
-37.2390923627
 20
0.0
 30
0.0
 11
-32.9089653438
 21
-2.5
 31
0.0
  0
LINE
  5
1ED
  8
DIM
 62
     0
 10
-41.5692193817
 20
2.5
 30
0.0
 11
-44.383801944
 21
4.125
 31
0.0
  0
LINE
  5
1EE
  8
DIM
 62
     0
 10
-32.9089653438
 20
-2.5
 30
0.0
 11
-30.0943827815
 21
-4.125
 31
0.0
  0
LINE
  5
1EF
  8
DIM
 62
     0
 10
-18.6195461814
 20
-10.75
 30
0.0
 11
-18.6195461814
 21
-5.75
 31
0.0
  0
LINE
  5
1F0
  8
DIM
 62
     0
 10
-18.6195461814
 20
-10.75
 30
0.0
 11
-23.6195461814
 21
-10.75
 31
0.0
  0
LINE
  5
1F1
  8
DIM
 62
     0
 10
-18.6195461814
 20
-10.75
 30
0.0
 11
-18.6195461814
 21
-15.75
 31
0.0
  0
LINE
  5
1F2
  8
DIM
 62
     0
 10
-18.6195461814
 20
-10.75
 30
0.0
 11
-13.6195461814
 21
-10.75
 31
0.0
  0
LINE
  5
1F3
  8
DIM
 62
     0
 10
-18.6195461814
 20
-0.75
 30
0.0
 11
-18.6195461814
 21
12.8695461814
 31
0.0
  0
LINE
  5
1F4
  8
DIM
 62
     0
 10
-28.6195461814
 20
-10.75
 30
0.0
 11
-53.4736079954
 21
-10.75
 31
0.0
  0
LINE
  5
1F5
  8
DIM
 62
     0
 10
-18.6195461814
 20
-20.75
 30
0.0
 11
-18.6195461814
 21
-34.3695461814
 31
0.0
  0
LINE
  5
1F6
  8
DIM
 62
     0
 10
-8.6195461814
 20
-10.75
 30
0.0
 11
5.0
 21
-10.75
 31
0.0
  0
LINE
  5
1F7
  8
DIM
 62
     0
 10
-37.2390923627
 20
-21.5
 30
0.0
 11
-41.5692193817
 21
-24.0
 31
0.0
  0
LINE
  5
1F8
  8
DIM
 62
     0
 10
-37.2390923627
 20
-21.5
 30
0.0
 11
-32.9089653438
 21
-19.0
 31
0.0
  0
LINE
  5
1F9
  8
DIM
 62
     0
 10
-41.5692193817
 20
-24.0
 30
0.0
 11
-44.383801944
 21
-25.625
 31
0.0
  0
LINE
  5
1FA
  8
DIM
 62
     0
 10
-32.9089653438
 20
-19.0
 30
0.0
 11
-30.0943827815
 21
-17.375
 31
0.0
  0
LINE
  5
1FB
  8
DIM
 62
     0
 10
-18.6195461814
 20
-32.25
 30
0.0
 11
-18.6195461814
 21
-37.25
 31
0.0
  0
LINE
  5
1FC
  8
DIM
 62
     0
 10
-18.6195461814
 20
-32.25
 30
0.0
 11
-18.6195461814
 21
-27.25
 31
0.0
  0
LINE
  5
1FD
  8
DIM
 62
     0
 10
-18.6195461814
 20
-37.25
 30
0.0
 11
-18.6195461814
 21
-40.5
 31
0.0
  0
LINE
  5
1FE
  8
DIM
 62
     0
 10
-18.6195461814
 20
-27.25
 30
0.0
 11
-18.6195461814
 21
-24.0
 31
0.0
  0
LINE
  5
1FF
  8
DIM
 62
     0
 10
0.0
 20
-21.5
 30
0.0
 11
4.3301270189
 21
-24.0
 31
0.0
  0
LINE
  5
200
  8
DIM
 62
     0
 10
0.0
 20
-21.5
 30
0.0
 11
-4.3301270189
 21
-19.0
 31
0.0
  0
LINE
  5
201
  8
DIM
 62
     0
 10
4.3301270189
 20
-24.0
 30
0.0
 11
7.1447095812
 21
-25.625
 31
0.0
  0
LINE
  5
202
  8
DIM
 62
     0
 10
-4.3301270189
 20
-19.0
 30
0.0
 11
-7.1447095812
 21
-17.375
 31
0.0
  0
ENDBLK
  5
1D0
  8
0
  0
BLOCK
  8
0
  2
SW_CENTERMARKSYMBOL_1
 70
     0
 10
0.0
 20
0.0
 30
0.0
  3
SW_CENTERMARKSYMBOL_1
  1

  0
LINE
  5
207
  8
DIM
 62
     0
 10
0.0
 20
0.0
 30
0.0
 11
0.0
 21
5.0
 31
0.0
  0
LINE
  5
208
  8
DIM
 62
     0
 10
0.0
 20
0.0
 30
0.0
 11
-5.0
 21
0.0
 31
0.0
  0
LINE
  5
209
  8
DIM
 62
     0
 10
0.0
 20
0.0
 30
0.0
 11
0.0
 21
-5.0
 31
0.0
  0
LINE
  5
20A
  8
DIM
 62
     0
 10
0.0
 20
0.0
 30
0.0
 11
5.0
 21
0.0
 31
0.0
  0
LINE
  5
20B
  8
DIM
 62
     0
 10
0.0
 20
5.0
 30
0.0
 11
0.0
 21
6.65
 31
0.0
  0
LINE
  5
20C
  8
DIM
 62
     0
 10
-5.0
 20
0.0
 30
0.0
 11
-6.65
 21
0.0
 31
0.0
  0
LINE
  5
20D
  8
DIM
 62
     0
 10
0.0
 20
-5.0
 30
0.0
 11
0.0
 21
-6.65
 31
0.0
  0
LINE
  5
20E
  8
DIM
 62
     0
 10
5.0
 20
0.0
 30
0.0
 11
12.4408429358
 21
0.0
 31
0.0
  0
ENDBLK
  5
206
  8
0
  0
BLOCK
  8
0
  2
SW_CENTERMARKSYMBOL_2
 70
     0
 10
0.0
 20
0.0
 30
0.0
  3
SW_CENTERMARKSYMBOL_2
  1

  0
LINE
  5
213
  8
DIM
 62
     0
 10
0.0
 20
0.0
 30
0.0
 11
0.0
 21
5.0
 31
0.0
  0
LINE
  5
214
  8
DIM
 62
     0
 10
0.0
 20
0.0
 30
0.0
 11
-5.0
 21
0.0
 31
0.0
  0
LINE
  5
215
  8
DIM
 62
     0
 10
0.0
 20
0.0
 30
0.0
 11
0.0
 21
-5.0
 31
0.0
  0
LINE
  5
216
  8
DIM
 62
     0
 10
0.0
 20
0.0
 30
0.0
 11
5.0
 21
0.0
 31
0.0
  0
LINE
  5
217
  8
DIM
 62
     0
 10
0.0
 20
5.0
 30
0.0
 11
0.0
 21
6.65
 31
0.0
  0
LINE
  5
218
  8
DIM
 62
     0
 10
-5.0
 20
0.0
 30
0.0
 11
-6.65
 21
0.0
 31
0.0
  0
LINE
  5
219
  8
DIM
 62
     0
 10
0.0
 20
-5.0
 30
0.0
 11
0.0
 21
-6.65
 31
0.0
  0
LINE
  5
21A
  8
DIM
 62
     0
 10
5.0
 20
0.0
 30
0.0
 11
46.9867227742
 21
0.0
 31
0.0
  0
ENDBLK
  5
212
  8
0
  0
BLOCK
  8
0
  2
_D_14
 70
     0
 10
0.0
 20
0.0
 30
0.0
  3
_D_14
  1

  0
INSERT
  5
29B
  8
DIM
  2
_OPEN30
 10
261.128100573
 20
276.1866692087
 30
-137.0856700409
 41
3.0
 42
3.0
 50
180.0
  0
INSERT
  5
29C
  8
DIM
  2
_OPEN30
 10
346.128100573
 20
276.1866692087
 30
-137.0856700409
 41
3.0
 42
3.0
 50
0.0
  0
LINE
  5
29D
  8
DIM
 10
261.128100573
 20
258.624068545
 30
0.0
 11
261.128100573
 21
277.1866692087
 31
0.0
  0
LINE
  5
29E
  8
DIM
 10
346.128100573
 20
256.124068545
 30
0.0
 11
346.128100573
 21
277.1866692087
 31
0.0
  0
LINE
  5
29F
  8
DIM
 10
261.128100573
 20
276.1866692087
 30
0.0
 11
346.128100573
 21
276.1866692087
 31
0.0
  0
TEXT
  5
2A0
  8
DIM
 10
301.5912950755
 20
277.4230791926
 30
-137.0856700409
 40
3.5
  1
85
 41
0.7
 11
301.5912950755
 21
276.1866689759
 31
-137.0856700409
 73
     1
  0
ENDBLK
  5
29A
  8
0
  0
BLOCK
  8
0
  2
_D_15
 70
     0
 10
0.0
 20
0.0
 30
0.0
  3
_D_15
  1

  0
ARC
  5
2A6
  8
DIM
 10
368.4324457485
 20
245.7151169554
 30
0.0
 40
6.3762101855425
 50
168.4349488229
 51
221.5650511771
  0
ARC
  5
2A7
  8
DIM
 10
365.6780810972
 20
244.9770871714
 30
0.0
 40
6.3762101855425
 50
348.4349488229
 51
41.5650511771
  0
INSERT
  5
2A8
  8
DIM
  2
_OPEN30
 10
294.4629178289
 20
222.77300194
 30
-137.0856700409
 41
3.0
 42
3.0
 50
195.0
  0
INSERT
  5
2A9
  8
DIM
  2
_OPEN30
 10
341.7932833171
 20
235.4551351501
 30
-137.0856700409
 41
3.0
 42
3.0
 50
15.0
  0
LINE
  5
2AA
  8
DIM
 10
341.7932833171
 20
235.4551351501
 30
0.0
 11
372.61753702
 21
243.714469037
 31
0.0
  0
LINE
  5
2AB
  8
DIM
 10
341.7932833171
 20
235.4551351501
 30
0.0
 11
294.4629178289
 21
222.77300194
 31
0.0
  0
TEXT
  5
2AC
  8
DIM
 10
347.1935769737
 20
238.1739329055
 30
-137.0856700409
 40
3.5
  1
%%c
 50
15.0
 41
0.7
 11
347.5135834853
 21
236.9796523452
 31
-137.0856700409
 73
     1
  0
TEXT
  5
2AD
  8
DIM
 10
350.9316428041
 20
239.175544626
 30
-137.0856700409
 40
3.5
  1
49
 50
15.0
 41
0.7
 11
351.2516493158
 21
237.9812640658
 31
-137.0856700409
 73
     1
  0
TEXT
  5
2AE
  8
DIM
 10
354.8664490953
 20
240.2298727941
 30
-137.0856700409
 40
3.5
  1
 H8 
 50
15.0
 41
0.525
 11
355.186455607
 21
239.0355922339
 31
-137.0856700409
 73
     1
  0
TEXT
  5
2AF
  8
DIM
 10
362.6997123151
 20
245.0750539845
 30
-137.0856700409
 40
2.45
  1
+
 50
15.0
 41
0.7
 11
362.9237168732
 21
244.2390575923
 31
-137.0856700409
 73
     1
  0
TEXT
  5
2B0
  8
DIM
 10
363.4377420388
 20
242.3206895581
 30
-137.0856700409
 40
2.45
  1
 
 50
15.0
 41
0.7
 11
363.6617465969
 21
241.484693166
 31
-137.0856700409
 73
     1
  0
TEXT
  5
2B1
  8
DIM
 10
364.0768945282
 20
245.4440688463
 30
-137.0856700409
 40
2.45
  1
0.039
 50
15.0
 41
0.7
 11
364.3008990864
 21
244.6080724542
 31
-137.0856700409
 73
     1
  0
TEXT
  5
2B2
  8
DIM
 10
364.8149242519
 20
242.68970442
 30
-137.0856700409
 40
2.45
  1
0
 50
15.0
 41
0.7
 11
365.0389288101
 21
241.8537080278
 31
-137.0856700409
 73
     1
  0
ENDBLK
  5
2A5
  8
0
  0
BLOCK
  8
0
  2
_D_16
 70
     0
 10
0.0
 20
0.0
 30
0.0
  3
_D_16
  1

  0
ARC
  5
2B7
  8
DIM
 10
318.128100573
 20
229.114068545
 30
0.0
 40
196.1322710867526
 50
274.5780912937
 51
337.9658824508
  0
INSERT
  5
2B8
  8
DIM
  2
_OPEN30
 10
291.6371460577
 20
240.9136163699
 30
-137.0856700409
 41
3.0
 42
3.0
 50
155.9909484399
  0
INSERT
  5
2B9
  8
DIM
  2
_OPEN30
 10
344.6190550882
 20
217.3145207202
 30
-137.0856700409
 41
3.0
 42
3.0
 50
335.9909484399
  0
LINE
  5
2BA
  8
DIM
 10
344.6190550882
 20
217.3145207202
 30
0.0
 11
359.9399633683
 21
210.4903124846
 31
0.0
  0
LINE
  5
2BB
  8
DIM
 10
344.6190550882
 20
217.3145207202
 30
0.0
 11
291.6371460577
 21
240.9136163699
 31
0.0
  0
TEXT
  5
2BC
  8
DIM
 10
353.1853063834
 20
214.8485642036
 30
-137.0856700409
 40
3.5
  1
%%c
 50
335.9909484399
 41
0.7
 11
352.6822346081
 21
213.7191267272
 31
-137.0856700409
 73
     1
  0
TEXT
  5
2BD
  8
DIM
 10
356.7204151162
 20
213.2739631625
 30
-137.0856700409
 40
3.5
  1
58
 50
335.9909484399
 41
0.7
 11
356.2173433409
 21
212.1445256862
 31
-137.0856700409
 73
     1
  0
ENDBLK
  5
2B6
  8
0
  0
BLOCK
  8
0
  2
_D_17
 70
     0
 10
0.0
 20
0.0
 30
0.0
  3
_D_17
  1

  0
ARC
  5
2C2
  8
DIM
 10
318.128100573
 20
229.114068545
 30
0.0
 40
42.49425030505085
 50
270.0
 51
315.0
  0
INSERT
  5
2C3
  8
DIM
  2
_OPEN30
 10
318.128100573
 20
186.61981824
 30
-137.0856700409
 41
3.0
 42
3.0
 50
182.0191275685
  0
INSERT
  5
2C4
  8
DIM
  2
_OPEN30
 10
348.1760731251
 20
199.0660959929
 30
-137.0856700409
 41
3.0
 42
3.0
 50
42.9808724315
  0
LINE
  5
2C5
  8
DIM
 10
318.128100573
 20
195.2861614546
 30
0.0
 11
318.128100573
 21
185.61981824
 31
0.0
  0
LINE
  5
2C6
  8
DIM
 10
343.0606856776
 20
204.1814834404
 30
0.0
 11
348.8831799063
 21
198.3589892117
 31
0.0
  0
TEXT
  5
2C7
  8
DIM
 10
330.1532666974
 20
189.437890879
 30
-137.0856700409
 40
3.5
  1
45°
 50
22.5
 41
0.7
 11
330.6264204029
 21
188.295596786
 31
-137.0856700409
 73
     1
  0
ENDBLK
  5
2C1
  8
0
  0
BLOCK
  8
0
  2
_D_18
 70
     0
 10
0.0
 20
0.0
 30
0.0
  3
_D_18
  1

  0
INSERT
  5
2CC
  8
DIM
  2
_OPEN30
 10
261.128100573
 20
186.6769561218
 30
-137.0856700409
 41
3.0
 42
3.0
 50
180.0
  0
INSERT
  5
2CD
  8
DIM
  2
_OPEN30
 10
318.128100573
 20
186.6769561218
 30
-137.0856700409
 41
3.0
 42
3.0
 50
0.0
  0
LINE
  5
2CE
  8
DIM
 10
261.128100573
 20
199.604068545
 30
0.0
 11
261.128100573
 21
185.6769561218
 31
0.0
  0
LINE
  5
2CF
  8
DIM
 10
318.128100573
 20
195.2861614546
 30
0.0
 11
318.128100573
 21
185.6769561218
 31
0.0
  0
LINE
  5
2D0
  8
DIM
 10
261.128100573
 20
186.6769561218
 30
0.0
 11
318.128100573
 21
186.6769561218
 31
0.0
  0
TEXT
  5
2D1
  8
DIM
 10
287.5912950755
 20
187.9133661057
 30
-137.0856700409
 40
3.5
  1
57
 41
0.7
 11
287.5912950755
 21
186.6769558889
 31
-137.0856700409
 73
     1
  0
ENDBLK
  5
2CB
  8
0
  0
BLOCK
  8
0
  2
SW_NOTE_0_2
 70
     0
 10
0.0
 20
0.0
 30
0.0
  3
SW_NOTE_0_2
  1

  0
LINE
  5
2D5
  8
TXT
 62
     0
 10
38.5809829891
 20
-14.9536963076
 30
0.0
 11
10.1921296716
 21
-14.9536963076
 31
0.0
  0
TEXT
  5
2D6
  8
TXT
 62
     0
 10
10.6548641277
 20
-13.6511920648
 30
0.0
 40
3.5
  1
4xM3(90°等配)
 41
0.7
 11
10.6548641277
 21
-14.8876022815
 31
0.0
 73
     1
  0
LINE
  5
2D7
  8
TXT
 62
     0
 10
10.1921296716
 20
-14.9536963076
 30
0.0
 11
0.0
 21
0.0
 31
0.0
  0
INSERT
  5
2D8
  8
TXT
 62
     0
  2
_OPEN30
 10
0.0
 20
0.0
 30
56.8907918343
 41
3.0
 42
3.0
 50
124.2775320428
  0
ENDBLK
  5
2D4
  8
0
  0
BLOCK
  8
0
  2
SW_CENTERMARKSYMBOL_3
 70
     0
 10
0.0
 20
0.0
 30
0.0
  3
SW_CENTERMARKSYMBOL_3
  1

  0
LINE
  5
2DD
  8
DIM
 62
     0
 10
0.0
 20
0.0
 30
0.0
 11
0.0
 21
5.0
 31
0.0
  0
LINE
  5
2DE
  8
DIM
 62
     0
 10
0.0
 20
0.0
 30
0.0
 11
-5.0
 21
0.0
 31
0.0
  0
LINE
  5
2DF
  8
DIM
 62
     0
 10
0.0
 20
0.0
 30
0.0
 11
0.0
 21
-5.0
 31
0.0
  0
LINE
  5
2E0
  8
DIM
 62
     0
 10
0.0
 20
0.0
 30
0.0
 11
5.0
 21
0.0
 31
0.0
  0
LINE
  5
2E1
  8
DIM
 62
     0
 10
0.0
 20
10.0
 30
0.0
 11
0.0
 21
33.3858037243
 31
0.0
  0
LINE
  5
2E2
  8
DIM
 62
     0
 10
-10.0
 20
0.0
 30
0.0
 11
-59.5613940537
 21
0.0
 31
0.0
  0
LINE
  5
2E3
  8
DIM
 62
     0
 10
0.0
 20
-10.0
 30
0.0
 11
0.0
 21
-33.8179070904
 31
0.0
  0
LINE
  5
2E4
  8
DIM
 62
     0
 10
10.0
 20
0.0
 30
0.0
 11
33.0167155812
 21
0.0
 31
0.0
  0
ENDBLK
  5
2DC
  8
0
  0
BLOCK
  8
0
  2
SW_CENTERMARKSYMBOL_4
 70
     0
 10
0.0
 20
0.0
 30
0.0
  3
SW_CENTERMARKSYMBOL_4
  1

  0
ARC
  5
2E9
  8
DIM
 62
     0
 10
20.5060966544
 20
-20.5060966544
 30
0.0
 40
29.00000000000001
 50
135.0
 51
144.8785826747
  0
ARC
  5
2EA
  8
DIM
 62
     0
 10
20.5060966544
 20
-20.5060966544
 30
0.0
 40
29.00000000000001
 50
125.1214173253
 51
135.0
  0
ARC
  5
2EB
  8
DIM
 62
     0
 10
20.5060966544
 20
-20.5060966544
 30
0.0
 40
29.00000000000003
 50
45.0
 51
54.8785826747
  0
ARC
  5
2EC
  8
DIM
 62
     0
 10
20.5060966544
 20
-20.5060966544
 30
0.0
 40
29.00000000000001
 50
35.1214173253
 51
45.0
  0
ARC
  5
2ED
  8
DIM
 62
     0
 10
20.5060966544
 20
-20.5060966544
 30
0.0
 40
29.00000000000001
 50
315.0
 51
324.8785826747
  0
ARC
  5
2EE
  8
DIM
 62
     0
 10
20.5060966544
 20
-20.5060966544
 30
0.0
 40
29.00000000000001
 50
305.1214173253
 51
315.0
  0
ARC
  5
2EF
  8
DIM
 62
     0
 10
20.5060966544
 20
-20.5060966544
 30
0.0
 40
29.00000000000001
 50
225.0
 51
234.8785826747
  0
ARC
  5
2F0
  8
DIM
 62
     0
 10
20.5060966544
 20
-20.5060966544
 30
0.0
 40
29.00000000000001
 50
215.1214173253
 51
225.0
  0
ARC
  5
2F1
  8
DIM
 62
     0
 10
20.5060966544
 20
-20.5060966544
 30
0.0
 40
29.00000000000002
 50
64.7571653493
 51
115.2428346507
  0
ARC
  5
2F2
  8
DIM
 62
     0
 10
20.5060966544
 20
-20.5060966544
 30
0.0
 40
28.99999999999999
 50
334.7571653493
 51
25.2428346507
  0
ARC
  5
2F3
  8
DIM
 62
     0
 10
20.5060966544
 20
-20.5060966544
 30
0.0
 40
28.99999999999998
 50
154.7571653493
 51
205.2428346507
  0
ARC
  5
2F4
  8
DIM
 62
     0
 10
20.5060966544
 20
-20.5060966544
 30
0.0
 40
29.00000000000002
 50
244.7571653493
 51
295.2428346507
  0
LINE
  5
2F5
  8
DIM
 62
     0
 10
0.0
 20
0.0
 30
0.0
 11
-3.5355339059
 21
3.5355339059
 31
0.0
  0
LINE
  5
2F6
  8
DIM
 62
     0
 10
0.0
 20
0.0
 30
0.0
 11
3.5355339059
 21
-3.5355339059
 31
0.0
  0
LINE
  5
2F7
  8
DIM
 62
     0
 10
-3.5355339059
 20
3.5355339059
 30
0.0
 11
-4.4194173824
 21
4.4194173824
 31
0.0
  0
LINE
  5
2F8
  8
DIM
 62
     0
 10
3.5355339059
 20
-3.5355339059
 30
0.0
 11
4.4194173824
 21
-4.4194173824
 31
0.0
  0
LINE
  5
2F9
  8
DIM
 62
     0
 10
41.0121933088
 20
0.0
 30
0.0
 11
44.5477272148
 21
3.5355339059
 31
0.0
  0
LINE
  5
2FA
  8
DIM
 62
     0
 10
41.0121933088
 20
0.0
 30
0.0
 11
37.4766594029
 21
-3.5355339059
 31
0.0
  0
LINE
  5
2FB
  8
DIM
 62
     0
 10
44.5477272148
 20
3.5355339059
 30
0.0
 11
45.4316106912
 21
4.4194173824
 31
0.0
  0
LINE
  5
2FC
  8
DIM
 62
     0
 10
37.4766594029
 20
-3.5355339059
 30
0.0
 11
36.5927759264
 21
-4.4194173824
 31
0.0
  0
LINE
  5
2FD
  8
DIM
 62
     0
 10
41.0121933088
 20
-41.0121933088
 30
0.0
 11
44.5477272148
 21
-44.5477272148
 31
0.0
  0
LINE
  5
2FE
  8
DIM
 62
     0
 10
41.0121933088
 20
-41.0121933088
 30
0.0
 11
37.4766594029
 21
-37.4766594029
 31
0.0
  0
LINE
  5
2FF
  8
DIM
 62
     0
 10
44.5477272148
 20
-44.5477272148
 30
0.0
 11
45.4316106912
 21
-45.4316106912
 31
0.0
  0
LINE
  5
300
  8
DIM
 62
     0
 10
37.4766594029
 20
-37.4766594029
 30
0.0
 11
36.5927759264
 21
-36.5927759264
 31
0.0
  0
LINE
  5
301
  8
DIM
 62
     0
 10
20.5060966544
 20
-20.5060966544
 30
0.0
 11
20.5060966544
 21
-15.5060966544
 31
0.0
  0
LINE
  5
302
  8
DIM
 62
     0
 10
20.5060966544
 20
-20.5060966544
 30
0.0
 11
15.5060966544
 21
-20.5060966544
 31
0.0
  0
LINE
  5
303
  8
DIM
 62
     0
 10
20.5060966544
 20
-20.5060966544
 30
0.0
 11
20.5060966544
 21
-25.5060966544
 31
0.0
  0
LINE
  5
304
  8
DIM
 62
     0
 10
20.5060966544
 20
-20.5060966544
 30
0.0
 11
25.5060966544
 21
-20.5060966544
 31
0.0
  0
LINE
  5
305
  8
DIM
 62
     0
 10
20.5060966544
 20
-10.5060966544
 30
0.0
 11
20.5060966544
 21
5.0
 31
0.0
  0
LINE
  5
306
  8
DIM
 62
     0
 10
10.5060966544
 20
-20.5060966544
 30
0.0
 11
-5.0
 21
-20.5060966544
 31
0.0
  0
LINE
  5
307
  8
DIM
 62
     0
 10
20.5060966544
 20
-30.5060966544
 30
0.0
 11
20.5060966544
 21
-46.0121933088
 31
0.0
  0
LINE
  5
308
  8
DIM
 62
     0
 10
30.5060966544
 20
-20.5060966544
 30
0.0
 11
46.0121933088
 21
-20.5060966544
 31
0.0
  0
LINE
  5
309
  8
DIM
 62
     0
 10
0.0
 20
-41.0121933088
 30
0.0
 11
-3.5355339059
 21
-44.5477272148
 31
0.0
  0
LINE
  5
30A
  8
DIM
 62
     0
 10
0.0
 20
-41.0121933088
 30
0.0
 11
3.5355339059
 21
-37.4766594029
 31
0.0
  0
LINE
  5
30B
  8
DIM
 62
     0
 10
-3.5355339059
 20
-44.5477272148
 30
0.0
 11
-4.4194173824
 21
-45.4316106912
 31
0.0
  0
LINE
  5
30C
  8
DIM
 62
     0
 10
3.5355339059
 20
-37.4766594029
 30
0.0
 11
4.4194173824
 21
-36.5927759264
 31
0.0
  0
ENDBLK
  5
2E8
  8
0
  0
BLOCK
  8
0
  2
_D_19
 70
     0
 10
0.0
 20
0.0
 30
0.0
  3
_D_19
  1

  0
INSERT
  5
3A5
  8
DIM
  2
_OPEN30
 10
133.3829604746
 20
161.7508996861
 30
150.1860777088
 41
3.0
 42
3.0
 50
90.0
  0
INSERT
  5
3A6
  8
DIM
  2
_OPEN30
 10
133.3829604746
 20
165.7508996861
 30
150.1860777088
 41
3.0
 42
3.0
 50
270.0
  0
LINE
  5
3A7
  8
DIM
 10
137.1443234524
 20
165.7508996861
 30
0.0
 11
132.3829604746
 21
165.7508996861
 31
0.0
  0
LINE
  5
3A8
  8
DIM
 10
133.3829604746
 20
161.7508996861
 30
0.0
 11
133.3829604746
 21
154.8619252131
 31
0.0
  0
LINE
  5
3A9
  8
DIM
 10
133.3829604746
 20
161.7508996861
 30
0.0
 11
133.3829604746
 21
165.7508996861
 31
0.0
  0
LINE
  5
3AA
  8
DIM
 10
133.3829604746
 20
165.7508996861
 30
0.0
 11
133.3829604746
 21
172.1008996861
 31
0.0
  0
TEXT
  5
3AB
  8
DIM
 10
132.1465504908
 20
154.8619252131
 30
150.1860777088
 40
3.5
  1
4
 50
90.0
 41
0.7
 11
133.3829607075
 21
154.8619252131
 31
150.1860777088
 73
     1
  0
ENDBLK
  5
3A4
  8
0
  0
BLOCK
  8
0
  2
_D_20
 70
     0
 10
0.0
 20
0.0
 30
0.0
  3
_D_20
  1

  0
ARC
  5
3B0
  8
DIM
 10
87.1070663368
 20
151.5265814488
 30
0.0
 40
6.37621018554247
 50
153.4349488229
 51
206.5650511771
  0
ARC
  5
3B1
  8
DIM
 10
84.2555382212
 20
151.5265814488
 30
0.0
 40
6.37621018554247
 50
333.4349488229
 51
26.5650511771
  0
INSERT
  5
3B2
  8
DIM
  2
_OPEN30
 10
95.1543234524
 20
148.5029703
 30
150.1860777088
 41
3.0
 42
3.0
 50
0.0
  0
INSERT
  5
3B3
  8
DIM
  2
_OPEN30
 10
99.1543234524
 20
148.5029703
 30
150.1860777088
 41
3.0
 42
3.0
 50
180.0
  0
LINE
  5
3B4
  8
DIM
 10
95.1543234524
 20
162.2408996861
 30
0.0
 11
95.1543234524
 21
147.5029703
 31
0.0
  0
LINE
  5
3B5
  8
DIM
 10
99.1543234524
 20
162.2408996861
 30
0.0
 11
99.1543234524
 21
147.5029703
 31
0.0
  0
LINE
  5
3B6
  8
DIM
 10
95.1543234524
 20
148.5029703
 30
0.0
 11
66.6768986073
 21
148.5029703
 31
0.0
  0
LINE
  5
3B7
  8
DIM
 10
95.1543234524
 20
148.5029703
 30
0.0
 11
99.1543234524
 21
148.5029703
 31
0.0
  0
LINE
  5
3B8
  8
DIM
 10
99.1543234524
 20
148.5029703
 30
0.0
 11
105.5043234524
 21
148.5029703
 31
0.0
  0
TEXT
  5
3B9
  8
DIM
 10
66.6768986073
 20
149.7393807495
 30
150.1860777088
 40
3.5
  1
%%c
 41
0.7
 11
66.6768986073
 21
148.5029705328
 31
150.1860777088
 73
     1
  0
TEXT
  5
3BA
  8
DIM
 10
70.5468291223
 20
149.7393807495
 30
150.1860777088
 40
3.5
  1
4
 41
0.7
 11
70.5468291223
 21
148.5029705328
 31
150.1860777088
 73
     1
  0
TEXT
  5
3BB
  8
DIM
 10
72.5836346198
 20
149.7393807495
 30
150.1860777088
 40
3.5
  1
 H8 
 41
0.525
 11
72.5836346198
 21
148.5029705328
 31
150.1860777088
 73
     1
  0
TEXT
  5
3BC
  8
DIM
 10
81.4040105713
 20
152.3920686878
 30
150.1860777088
 40
2.45
  1
+
 41
0.7
 11
81.4040105713
 21
151.5265815361
 31
150.1860777088
 73
     1
  0
TEXT
  5
3BD
  8
DIM
 10
81.4040105713
 20
149.5405408051
 30
150.1860777088
 40
2.45
  1
 
 41
0.7
 11
81.4040105713
 21
148.6750536534
 31
150.1860777088
 73
     1
  0
TEXT
  5
3BE
  8
DIM
 10
82.8297745127
 20
152.3920686878
 30
150.1860777088
 40
2.45
  1
0.018
 41
0.7
 11
82.8297745127
 21
151.5265815361
 31
150.1860777088
 73
     1
  0
TEXT
  5
3BF
  8
DIM
 10
82.8297745127
 20
149.5405408051
 30
150.1860777088
 40
2.45
  1
0
 41
0.7
 11
82.8297745127
 21
148.6750536534
 31
150.1860777088
 73
     1
  0
ENDBLK
  5
3AF
  8
0
  0
BLOCK
  8
0
  2
_D_21
 70
     0
 10
0.0
 20
0.0
 30
0.0
  3
_D_21
  1

  0
INSERT
  5
3C4
  8
DIM
  2
_OPEN30
 10
79.408397245
 20
161.7508996861
 30
150.1860777088
 41
3.0
 42
3.0
 50
90.0
  0
INSERT
  5
3C5
  8
DIM
  2
_OPEN30
 10
79.408397245
 20
165.7508996861
 30
150.1860777088
 41
3.0
 42
3.0
 50
270.0
  0
LINE
  5
3C6
  8
DIM
 10
89.1443234524
 20
161.7508996861
 30
0.0
 11
78.408397245
 21
161.7508996861
 31
0.0
  0
LINE
  5
3C7
  8
DIM
 10
95.1443234524
 20
165.7508996861
 30
0.0
 11
78.408397245
 21
165.7508996861
 31
0.0
  0
LINE
  5
3C8
  8
DIM
 10
79.408397245
 20
161.7508996861
 30
0.0
 11
79.408397245
 21
155.4008996861
 31
0.0
  0
LINE
  5
3C9
  8
DIM
 10
79.408397245
 20
161.7508996861
 30
0.0
 11
79.408397245
 21
165.7508996861
 31
0.0
  0
LINE
  5
3CA
  8
DIM
 10
79.408397245
 20
165.7508996861
 30
0.0
 11
79.408397245
 21
173.4484839998
 31
0.0
  0
TEXT
  5
3CB
  8
DIM
 10
78.1719872611
 20
171.4116785023
 30
150.1860777088
 40
3.5
  1
4
 50
90.0
 41
0.7
 11
79.4083974778
 21
171.4116785023
 31
150.1860777088
 73
     1
  0
ENDBLK
  5
3C3
  8
0
  0
BLOCK
  8
0
  2
_D_22
 70
     0
 10
0.0
 20
0.0
 30
0.0
  3
_D_22
  1

  0
INSERT
  5
41F
  8
DIM
  2
_OPEN30
 10
97.1543234524
 20
93.3501873143
 30
0.0
 41
3.0
 42
3.0
 50
180.0
  0
INSERT
  5
420
  8
DIM
  2
_OPEN30
 10
140.1543234524
 20
93.3501873143
 30
0.0
 41
3.0
 42
3.0
 50
0.0
  0
LINE
  5
421
  8
DIM
 10
97.1543234524
 20
56.9551579622
 30
0.0
 11
97.1543234524
 21
94.3501873143
 31
0.0
  0
LINE
  5
422
  8
DIM
 10
140.1543234524
 20
55.1876732759
 30
0.0
 11
140.1543234524
 21
94.3501873143
 31
0.0
  0
LINE
  5
423
  8
DIM
 10
97.1543234524
 20
93.3501873143
 30
0.0
 11
140.1543234524
 21
93.3501873143
 31
0.0
  0
TEXT
  5
424
  8
DIM
 10
116.6175179549
 20
94.5865972982
 30
0.0
 40
3.5
  1
43
 41
0.7
 11
116.6175179549
 21
93.3501870815
 31
0.0
 73
     1
  0
ENDBLK
  5
41E
  8
0
  0
BLOCK
  8
0
  2
_D_23
 70
     0
 10
0.0
 20
0.0
 30
0.0
  3
_D_23
  1

  0
INSERT
  5
429
  8
DIM
  2
_OPEN30
 10
137.1543234524
 20
84.236597373
 30
0.0
 41
3.0
 42
3.0
 50
0.0
  0
INSERT
  5
42A
  8
DIM
  2
_OPEN30
 10
143.1543234524
 20
84.236597373
 30
0.0
 41
3.0
 42
3.0
 50
180.0
  0
LINE
  5
42B
  8
DIM
 10
137.1543234524
 20
49.4551579622
 30
0.0
 11
137.1543234524
 21
85.236597373
 31
0.0
  0
LINE
  5
42C
  8
DIM
 10
143.1543234524
 20
49.4551579622
 30
0.0
 11
143.1543234524
 21
85.236597373
 31
0.0
  0
LINE
  5
42D
  8
DIM
 10
137.1543234524
 20
84.236597373
 30
0.0
 11
129.3086170724
 21
84.236597373
 31
0.0
  0
LINE
  5
42E
  8
DIM
 10
137.1543234524
 20
84.236597373
 30
0.0
 11
143.1543234524
 21
84.236597373
 31
0.0
  0
LINE
  5
42F
  8
DIM
 10
143.1543234524
 20
84.236597373
 30
0.0
 11
149.5043234524
 21
84.236597373
 31
0.0
  0
TEXT
  5
430
  8
DIM
 10
129.3086170724
 20
85.4730073569
 30
0.0
 40
3.5
  1
6
 41
0.7
 11
129.3086170724
 21
84.2365971402
 31
0.0
 73
     1
  0
ENDBLK
  5
428
  8
0
  0
BLOCK
  8
0
  2
_D_24
 70
     0
 10
0.0
 20
0.0
 30
0.0
  3
_D_24
  1

  0
ARC
  5
435
  8
DIM
 10
147.7754732416
 20
104.8004626887
 30
0.0
 40
6.37621018554247
 50
243.4349488229
 51
296.5650511771
  0
ARC
  5
436
  8
DIM
 10
147.7754732416
 20
101.9489345731
 30
0.0
 40
6.376210185542482
 50
63.4349488229
 51
116.5650511771
  0
INSERT
  5
437
  8
DIM
  2
_OPEN30
 10
150.7990839248
 20
51.4451579622
 30
98.7181840002
 41
3.0
 42
3.0
 50
270.0
  0
INSERT
  5
438
  8
DIM
  2
_OPEN30
 10
150.7990839248
 20
47.4451579622
 30
98.7181840002
 41
3.0
 42
3.0
 50
90.0
  0
LINE
  5
439
  8
DIM
 10
141.1643234524
 20
51.4451579622
 30
0.0
 11
151.7990839248
 21
51.4451579622
 31
0.0
  0
LINE
  5
43A
  8
DIM
 10
141.1643234524
 20
47.4451579622
 30
0.0
 11
151.7990839248
 21
47.4451579622
 31
0.0
  0
LINE
  5
43B
  8
DIM
 10
150.7990839248
 20
51.4451579622
 30
0.0
 11
150.7990839248
 21
108.3251446493
 31
0.0
  0
LINE
  5
43C
  8
DIM
 10
150.7990839248
 20
51.4451579622
 30
0.0
 11
150.7990839248
 21
47.4451579622
 31
0.0
  0
LINE
  5
43D
  8
DIM
 10
150.7990839248
 20
47.4451579622
 30
0.0
 11
150.7990839248
 21
41.0951579622
 31
0.0
  0
TEXT
  5
43E
  8
DIM
 10
149.5626739409
 20
88.2402252414
 30
98.7181840002
 40
3.5
  1
4
 50
90.0
 41
0.7
 11
150.7990841576
 21
88.2402252414
 31
98.7181840002
 73
     1
  0
TEXT
  5
43F
  8
DIM
 10
149.5626739409
 20
90.2770307389
 30
98.7181840002
 40
3.5
  1
 H8 
 50
90.0
 41
0.525
 11
150.7990841576
 21
90.2770307389
 31
98.7181840002
 73
     1
  0
TEXT
  5
440
  8
DIM
 10
146.9099860026
 20
99.0974069232
 30
98.7181840002
 40
2.45
  1
+
 50
90.0
 41
0.7
 11
147.7754731543
 21
99.0974069232
 31
98.7181840002
 73
     1
  0
TEXT
  5
441
  8
DIM
 10
149.7615138854
 20
99.0974069232
 30
98.7181840002
 40
2.45
  1
 
 50
90.0
 41
0.7
 11
150.6270010371
 21
99.0974069232
 31
98.7181840002
 73
     1
  0
TEXT
  5
442
  8
DIM
 10
146.9099860026
 20
100.5231708645
 30
98.7181840002
 40
2.45
  1
0.018
 50
90.0
 41
0.7
 11
147.7754731543
 21
100.5231708645
 31
98.7181840002
 73
     1
  0
TEXT
  5
443
  8
DIM
 10
149.7615138854
 20
100.5231708645
 30
98.7181840002
 40
2.45
  1
0
 50
90.0
 41
0.7
 11
150.6270010371
 21
100.5231708645
 31
98.7181840002
 73
     1
  0
ENDBLK
  5
434
  8
0
  0
BLOCK
  8
0
  2
SW_CENTERMARKSYMBOL_5
 70
     0
 10
0.0
 20
0.0
 30
0.0
  3
SW_CENTERMARKSYMBOL_5
  1

  0
LINE
  5
447
  8
DIM
 62
     0
 10
0.0
 20
0.0
 30
0.0
 11
0.0
 21
5.0
 31
0.0
  0
LINE
  5
448
  8
DIM
 62
     0
 10
0.0
 20
0.0
 30
0.0
 11
-5.0
 21
0.0
 31
0.0
  0
LINE
  5
449
  8
DIM
 62
     0
 10
0.0
 20
0.0
 30
0.0
 11
0.0
 21
-5.0
 31
0.0
  0
LINE
  5
44A
  8
DIM
 62
     0
 10
0.0
 20
0.0
 30
0.0
 11
5.0
 21
0.0
 31
0.0
  0
LINE
  5
44B
  8
DIM
 62
     0
 10
0.0
 20
10.0
 30
0.0
 11
0.0
 21
34.4974900355
 31
0.0
  0
LINE
  5
44C
  8
DIM
 62
     0
 10
-10.0
 20
0.0
 30
0.0
 11
-15.0
 21
0.0
 31
0.0
  0
LINE
  5
44D
  8
DIM
 62
     0
 10
0.0
 20
-10.0
 30
0.0
 11
0.0
 21
-33.7219554283
 31
0.0
  0
LINE
  5
44E
  8
DIM
 62
     0
 10
10.0
 20
0.0
 30
0.0
 11
91.8512994794
 21
0.0
 31
0.0
  0
ENDBLK
  5
446
  8
0
  0
BLOCK
  8
0
  2
SW_CENTERMARKSYMBOL_6
 70
     0
 10
0.0
 20
0.0
 30
0.0
  3
SW_CENTERMARKSYMBOL_6
  1

  0
LINE
  5
453
  8
DIM
 62
     0
 10
0.0
 20
0.0
 30
0.0
 11
0.0
 21
5.0
 31
0.0
  0
LINE
  5
454
  8
DIM
 62
     0
 10
0.0
 20
0.0
 30
0.0
 11
-5.0
 21
0.0
 31
0.0
  0
LINE
  5
455
  8
DIM
 62
     0
 10
0.0
 20
0.0
 30
0.0
 11
0.0
 21
-5.0
 31
0.0
  0
LINE
  5
456
  8
DIM
 62
     0
 10
0.0
 20
0.0
 30
0.0
 11
5.0
 21
0.0
 31
0.0
  0
LINE
  5
457
  8
DIM
 62
     0
 10
0.0
 20
5.0
 30
0.0
 11
0.0
 21
7.5
 31
0.0
  0
LINE
  5
458
  8
DIM
 62
     0
 10
-5.0
 20
0.0
 30
0.0
 11
-13.3204746777
 21
0.0
 31
0.0
  0
LINE
  5
459
  8
DIM
 62
     0
 10
0.0
 20
-5.0
 30
0.0
 11
0.0
 21
-7.5
 31
0.0
  0
LINE
  5
45A
  8
DIM
 62
     0
 10
5.0
 20
0.0
 30
0.0
 11
7.5
 21
0.0
 31
0.0
  0
ENDBLK
  5
452
  8
0
  0
ENDSEC
  0
SECTION
  2
ENTITIES
  0
LINE
  5
76
  8
0
  6
CONTINUOUS
 62
     7
 10
206.5443234524
 20
253.954068545
 30
0.0
 11
203.8443234524
 21
253.954068545
 31
0.0
  0
LINE
  5
77
  8
0
  6
CONTINUOUS
 62
     7
 10
203.8443234524
 20
248.274068545
 30
0.0
 11
206.5443234524
 21
248.274068545
 31
0.0
  0
ARC
  5
78
  8
0
  6
CONTINUOUS
 62
     7
 10
206.5443234524
 20
248.574068545
 30
0.0
 40
0.3000000000000114
 50
270.0
 51
0.0
  0
ARC
  5
79
  8
0
  6
CONTINUOUS
 62
     7
 10
206.5443234524
 20
253.654068545
 30
0.0
 40
0.3000000000000682
 50
0.0
 51
90.0
  0
LINE
  5
7A
  8
0
  6
CONTINUOUS
 62
     7
 10
206.5443234524
 20
223.954068545
 30
0.0
 11
203.8443234524
 21
223.954068545
 31
0.0
  0
LINE
  5
7B
  8
0
  6
CONTINUOUS
 62
     7
 10
203.8443234524
 20
218.274068545
 30
0.0
 11
206.5443234524
 21
218.274068545
 31
0.0
  0
ARC
  5
7C
  8
0
  6
CONTINUOUS
 62
     7
 10
206.5443234524
 20
218.574068545
 30
0.0
 40
0.2999999999999829
 50
270.0
 51
0.0
  0
ARC
  5
7D
  8
0
  6
CONTINUOUS
 62
     7
 10
206.5443234524
 20
223.654068545
 30
0.0
 40
0.3000000000000114
 50
0.0
 51
90.0
  0
LINE
  5
7E
  8
0
  6
CONTINUOUS
 62
     7
 10
206.5443234524
 20
239.954068545
 30
0.0
 11
203.8443234524
 21
239.954068545
 31
0.0
  0
LINE
  5
7F
  8
0
  6
CONTINUOUS
 62
     7
 10
203.8443234524
 20
234.274068545
 30
0.0
 11
206.5443234524
 21
234.274068545
 31
0.0
  0
ARC
  5
80
  8
0
  6
CONTINUOUS
 62
     7
 10
206.5443234524
 20
234.574068545
 30
0.0
 40
0.3000000000000398
 50
270.0
 51
0.0
  0
ARC
  5
81
  8
0
  6
CONTINUOUS
 62
     7
 10
206.5443234524
 20
239.654068545
 30
0.0
 40
0.3000000000000398
 50
0.0
 51
90.0
  0
ARC
  5
82
  8
0
  6
CONTINUOUS
 62
     7
 10
206.5443234524
 20
204.574068545
 30
0.0
 40
0.2999999999999829
 50
270.0
 51
0.0
  0
ARC
  5
83
  8
0
  6
CONTINUOUS
 62
     7
 10
206.5443234524
 20
209.654068545
 30
0.0
 40
0.2999999999999829
 50
0.0
 51
90.0
  0
LINE
  5
84
  8
0
  6
CONTINUOUS
 62
     7
 10
206.5443234524
 20
209.954068545
 30
0.0
 11
203.8443234524
 21
209.954068545
 31
0.0
  0
LINE
  5
85
  8
0
  6
CONTINUOUS
 62
     7
 10
203.8443234524
 20
204.274068545
 30
0.0
 11
206.5443234524
 21
204.274068545
 31
0.0
  0
LINE
  5
86
  8
0
  6
CONTINUOUS
 62
     7
 10
206.8443234524
 20
251.114068545
 30
0.0
 11
206.8443234524
 21
248.574068545
 31
0.0
  0
LINE
  5
87
  8
0
  6
CONTINUOUS
 62
     7
 10
206.8443234524
 20
253.654068545
 30
0.0
 11
206.8443234524
 21
251.114068545
 31
0.0
  0
LINE
  5
88
  8
0
  6
CONTINUOUS
 62
     7
 10
206.8443234524
 20
221.114068545
 30
0.0
 11
206.8443234524
 21
218.574068545
 31
0.0
  0
LINE
  5
89
  8
0
  6
CONTINUOUS
 62
     7
 10
206.8443234524
 20
223.654068545
 30
0.0
 11
206.8443234524
 21
221.114068545
 31
0.0
  0
LINE
  5
8A
  8
0
  6
CONTINUOUS
 62
     7
 10
206.8443234524
 20
237.114068545
 30
0.0
 11
206.8443234524
 21
234.574068545
 31
0.0
  0
LINE
  5
8B
  8
0
  6
CONTINUOUS
 62
     7
 10
206.8443234524
 20
239.654068545
 30
0.0
 11
206.8443234524
 21
237.114068545
 31
0.0
  0
LINE
  5
8C
  8
0
  6
CONTINUOUS
 62
     7
 10
206.8443234524
 20
207.114068545
 30
0.0
 11
206.8443234524
 21
204.574068545
 31
0.0
  0
LINE
  5
8D
  8
0
  6
CONTINUOUS
 62
     7
 10
206.8443234524
 20
209.654068545
 30
0.0
 11
206.8443234524
 21
207.114068545
 31
0.0
  0
LINE
  5
8E
  8
0
  6
CONTINUOUS
 62
     7
 10
209.1443234524
 20
217.364068545
 30
0.0
 11
209.1443234524
 21
210.864068545
 31
0.0
  0
LINE
  5
8F
  8
0
  6
CONTINUOUS
 62
     7
 10
209.1443234524
 20
210.864068545
 30
0.0
 11
208.6443234524
 21
210.864068545
 31
0.0
  0
LINE
  5
90
  8
0
  6
CONTINUOUS
 62
     7
 10
208.6443234524
 20
210.864068545
 30
0.0
 11
208.6443234524
 21
217.364068545
 31
0.0
  0
LINE
  5
91
  8
0
  6
CONTINUOUS
 62
     7
 10
209.1443234524
 20
217.364068545
 30
0.0
 11
208.6443234524
 21
217.364068545
 31
0.0
  0
LINE
  5
92
  8
0
  6
CONTINUOUS
 62
     7
 10
208.6443234524
 20
254.864068545
 30
0.0
 11
209.1443234524
 21
254.864068545
 31
0.0
  0
LINE
  5
93
  8
0
  6
CONTINUOUS
 62
     7
 10
208.6443234524
 20
254.364068545
 30
0.0
 11
209.1443234524
 21
254.864068545
 31
0.0
  0
LINE
  5
94
  8
0
  6
CONTINUOUS
 62
     7
 10
208.6443234524
 20
254.864068545
 30
0.0
 11
208.6443234524
 21
254.364068545
 31
0.0
  0
LINE
  5
95
  8
0
  6
CONTINUOUS
 62
     7
 10
201.6443234524
 20
199.614068545
 30
0.0
 11
201.6443234524
 21
199.114068545
 31
0.0
  0
LINE
  5
96
  8
0
  6
CONTINUOUS
 62
     7
 10
201.1443234524
 20
199.614068545
 30
0.0
 11
201.6443234524
 21
199.114068545
 31
0.0
  0
LINE
  5
97
  8
0
  6
CONTINUOUS
 62
     7
 10
201.6443234524
 20
199.614068545
 30
0.0
 11
201.1443234524
 21
199.614068545
 31
0.0
  0
LINE
  5
98
  8
0
  6
CONTINUOUS
 62
     7
 10
203.8443234524
 20
240.864068545
 30
0.0
 11
208.6443234524
 21
240.864068545
 31
0.0
  0
LINE
  5
99
  8
0
  6
CONTINUOUS
 62
     7
 10
208.6443234524
 20
240.864068545
 30
0.0
 11
208.6443234524
 21
240.364068545
 31
0.0
  0
LINE
  5
9A
  8
0
  6
CONTINUOUS
 62
     7
 10
208.6443234524
 20
240.364068545
 30
0.0
 11
203.8443234524
 21
240.364068545
 31
0.0
  0
LINE
  5
9B
  8
0
  6
CONTINUOUS
 62
     7
 10
208.6443234524
 20
199.614068545
 30
0.0
 11
209.1443234524
 21
199.614068545
 31
0.0
  0
LINE
  5
9C
  8
0
  6
CONTINUOUS
 62
     7
 10
208.6443234524
 20
199.114068545
 30
0.0
 11
209.1443234524
 21
199.614068545
 31
0.0
  0
LINE
  5
9D
  8
0
  6
CONTINUOUS
 62
     7
 10
208.6443234524
 20
199.614068545
 30
0.0
 11
208.6443234524
 21
199.114068545
 31
0.0
  0
LINE
  5
9E
  8
0
  6
CONTINUOUS
 62
     7
 10
201.6443234524
 20
258.614068545
 30
0.0
 11
201.1443234524
 21
258.614068545
 31
0.0
  0
LINE
  5
9F
  8
0
  6
CONTINUOUS
 62
     7
 10
201.6443234524
 20
259.114068545
 30
0.0
 11
201.1443234524
 21
258.614068545
 31
0.0
  0
LINE
  5
A0
  8
0
  6
CONTINUOUS
 62
     7
 10
201.6443234524
 20
258.614068545
 30
0.0
 11
201.6443234524
 21
259.114068545
 31
0.0
  0
LINE
  5
A1
  8
0
  6
CONTINUOUS
 62
     7
 10
209.1443234524
 20
224.864068545
 30
0.0
 11
208.6443234524
 21
224.364068545
 31
0.0
  0
LINE
  5
A2
  8
0
  6
CONTINUOUS
 62
     7
 10
208.6443234524
 20
224.864068545
 30
0.0
 11
208.6443234524
 21
224.364068545
 31
0.0
  0
LINE
  5
A3
  8
0
  6
CONTINUOUS
 62
     7
 10
209.1443234524
 20
224.864068545
 30
0.0
 11
208.6443234524
 21
224.864068545
 31
0.0
  0
LINE
  5
A4
  8
0
  6
CONTINUOUS
 62
     7
 10
203.8443234524
 20
203.864068545
 30
0.0
 11
208.6443234524
 21
203.864068545
 31
0.0
  0
LINE
  5
A5
  8
0
  6
CONTINUOUS
 62
     7
 10
208.6443234524
 20
203.864068545
 30
0.0
 11
208.6443234524
 21
203.364068545
 31
0.0
  0
LINE
  5
A6
  8
0
  6
CONTINUOUS
 62
     7
 10
208.6443234524
 20
203.364068545
 30
0.0
 11
203.8443234524
 21
203.364068545
 31
0.0
  0
LINE
  5
A7
  8
0
  6
CONTINUOUS
 62
     7
 10
209.1443234524
 20
210.864068545
 30
0.0
 11
208.6443234524
 21
210.364068545
 31
0.0
  0
LINE
  5
A8
  8
0
  6
CONTINUOUS
 62
     7
 10
208.6443234524
 20
210.864068545
 30
0.0
 11
208.6443234524
 21
210.364068545
 31
0.0
  0
LINE
  5
A9
  8
0
  6
CONTINUOUS
 62
     7
 10
208.6443234524
 20
199.614068545
 30
0.0
 11
208.6443234524
 21
203.364068545
 31
0.0
  0
LINE
  5
AA
  8
0
  6
CONTINUOUS
 62
     7
 10
208.6443234524
 20
203.364068545
 30
0.0
 11
209.1443234524
 21
203.364068545
 31
0.0
  0
LINE
  5
AB
  8
0
  6
CONTINUOUS
 62
     7
 10
209.1443234524
 20
203.364068545
 30
0.0
 11
209.1443234524
 21
199.614068545
 31
0.0
  0
LINE
  5
AC
  8
0
  6
CONTINUOUS
 62
     7
 10
209.1443234524
 20
247.364068545
 30
0.0
 11
209.1443234524
 21
240.864068545
 31
0.0
  0
LINE
  5
AD
  8
0
  6
CONTINUOUS
 62
     7
 10
209.1443234524
 20
240.864068545
 30
0.0
 11
208.6443234524
 21
240.864068545
 31
0.0
  0
LINE
  5
AE
  8
0
  6
CONTINUOUS
 62
     7
 10
208.6443234524
 20
240.864068545
 30
0.0
 11
208.6443234524
 21
247.364068545
 31
0.0
  0
LINE
  5
AF
  8
0
  6
CONTINUOUS
 62
     7
 10
208.6443234524
 20
247.364068545
 30
0.0
 11
209.1443234524
 21
247.364068545
 31
0.0
  0
LINE
  5
B0
  8
0
  6
CONTINUOUS
 62
     7
 10
209.1443234524
 20
233.364068545
 30
0.0
 11
208.6443234524
 21
233.364068545
 31
0.0
  0
LINE
  5
B1
  8
0
  6
CONTINUOUS
 62
     7
 10
208.6443234524
 20
233.864068545
 30
0.0
 11
208.6443234524
 21
233.364068545
 31
0.0
  0
LINE
  5
B2
  8
0
  6
CONTINUOUS
 62
     7
 10
209.1443234524
 20
233.364068545
 30
0.0
 11
208.6443234524
 21
233.864068545
 31
0.0
  0
LINE
  5
B3
  8
0
  6
CONTINUOUS
 62
     7
 10
203.8443234524
 20
217.864068545
 30
0.0
 11
208.6443234524
 21
217.864068545
 31
0.0
  0
LINE
  5
B4
  8
0
  6
CONTINUOUS
 62
     7
 10
208.6443234524
 20
217.864068545
 30
0.0
 11
208.6443234524
 21
217.364068545
 31
0.0
  0
LINE
  5
B5
  8
0
  6
CONTINUOUS
 62
     7
 10
208.6443234524
 20
217.364068545
 30
0.0
 11
203.8443234524
 21
217.364068545
 31
0.0
  0
LINE
  5
B6
  8
0
  6
CONTINUOUS
 62
     7
 10
208.6443234524
 20
203.864068545
 30
0.0
 11
209.1443234524
 21
203.364068545
 31
0.0
  0
LINE
  5
B7
  8
0
  6
CONTINUOUS
 62
     7
 10
208.6443234524
 20
247.864068545
 30
0.0
 11
209.1443234524
 21
247.364068545
 31
0.0
  0
LINE
  5
B8
  8
0
  6
CONTINUOUS
 62
     7
 10
208.6443234524
 20
247.864068545
 30
0.0
 11
208.6443234524
 21
247.364068545
 31
0.0
  0
LINE
  5
B9
  8
0
  6
CONTINUOUS
 62
     7
 10
208.6443234524
 20
254.864068545
 30
0.0
 11
208.6443234524
 21
258.614068545
 31
0.0
  0
LINE
  5
BA
  8
0
  6
CONTINUOUS
 62
     7
 10
208.6443234524
 20
258.614068545
 30
0.0
 11
209.1443234524
 21
258.614068545
 31
0.0
  0
LINE
  5
BB
  8
0
  6
CONTINUOUS
 62
     7
 10
209.1443234524
 20
258.614068545
 30
0.0
 11
209.1443234524
 21
254.864068545
 31
0.0
  0
LINE
  5
BC
  8
0
  6
CONTINUOUS
 62
     7
 10
201.6443234524
 20
258.614068545
 30
0.0
 11
201.6443234524
 21
199.614068545
 31
0.0
  0
LINE
  5
BD
  8
0
  6
CONTINUOUS
 62
     7
 10
201.1443234524
 20
199.614068545
 30
0.0
 11
201.1443234524
 21
258.614068545
 31
0.0
  0
LINE
  5
BE
  8
0
  6
CONTINUOUS
 62
     7
 10
203.8443234524
 20
224.864068545
 30
0.0
 11
208.6443234524
 21
224.864068545
 31
0.0
  0
LINE
  5
BF
  8
0
  6
CONTINUOUS
 62
     7
 10
208.6443234524
 20
224.364068545
 30
0.0
 11
203.8443234524
 21
224.364068545
 31
0.0
  0
LINE
  5
C0
  8
0
  6
CONTINUOUS
 62
     7
 10
203.8443234524
 20
247.864068545
 30
0.0
 11
208.6443234524
 21
247.864068545
 31
0.0
  0
LINE
  5
C1
  8
0
  6
CONTINUOUS
 62
     7
 10
208.6443234524
 20
247.364068545
 30
0.0
 11
203.8443234524
 21
247.364068545
 31
0.0
  0
LINE
  5
C2
  8
0
  6
CONTINUOUS
 62
     7
 10
208.6443234524
 20
259.114068545
 30
0.0
 11
209.1443234524
 21
258.614068545
 31
0.0
  0
LINE
  5
C3
  8
0
  6
CONTINUOUS
 62
     7
 10
208.6443234524
 20
258.614068545
 30
0.0
 11
208.6443234524
 21
259.114068545
 31
0.0
  0
LINE
  5
C4
  8
0
  6
CONTINUOUS
 62
     7
 10
203.8443234524
 20
254.864068545
 30
0.0
 11
208.6443234524
 21
254.864068545
 31
0.0
  0
LINE
  5
C5
  8
0
  6
CONTINUOUS
 62
     7
 10
208.6443234524
 20
254.364068545
 30
0.0
 11
203.8443234524
 21
254.364068545
 31
0.0
  0
LINE
  5
C6
  8
0
  6
CONTINUOUS
 62
     7
 10
201.6443234524
 20
199.614068545
 30
0.0
 11
208.6443234524
 21
199.614068545
 31
0.0
  0
LINE
  5
C7
  8
0
  6
CONTINUOUS
 62
     7
 10
208.6443234524
 20
199.114068545
 30
0.0
 11
201.6443234524
 21
199.114068545
 31
0.0
  0
LINE
  5
C8
  8
0
  6
CONTINUOUS
 62
     7
 10
209.1443234524
 20
217.364068545
 30
0.0
 11
208.6443234524
 21
217.864068545
 31
0.0
  0
LINE
  5
C9
  8
0
  6
CONTINUOUS
 62
     7
 10
208.6443234524
 20
258.614068545
 30
0.0
 11
201.6443234524
 21
258.614068545
 31
0.0
  0
LINE
  5
CA
  8
0
  6
CONTINUOUS
 62
     7
 10
201.6443234524
 20
259.114068545
 30
0.0
 11
208.6443234524
 21
259.114068545
 31
0.0
  0
LINE
  5
CB
  8
0
  6
CONTINUOUS
 62
     7
 10
203.8443234524
 20
210.864068545
 30
0.0
 11
208.6443234524
 21
210.864068545
 31
0.0
  0
LINE
  5
CC
  8
0
  6
CONTINUOUS
 62
     7
 10
208.6443234524
 20
210.364068545
 30
0.0
 11
203.8443234524
 21
210.364068545
 31
0.0
  0
LINE
  5
CD
  8
0
  6
CONTINUOUS
 62
     7
 10
203.8443234524
 20
233.864068545
 30
0.0
 11
208.6443234524
 21
233.864068545
 31
0.0
  0
LINE
  5
CE
  8
0
  6
CONTINUOUS
 62
     7
 10
208.6443234524
 20
233.364068545
 30
0.0
 11
203.8443234524
 21
233.364068545
 31
0.0
  0
LINE
  5
CF
  8
0
  6
CONTINUOUS
 62
     7
 10
209.1443234524
 20
233.364068545
 30
0.0
 11
209.1443234524
 21
224.864068545
 31
0.0
  0
LINE
  5
D0
  8
0
  6
CONTINUOUS
 62
     7
 10
208.6443234524
 20
224.864068545
 30
0.0
 11
208.6443234524
 21
233.364068545
 31
0.0
  0
LINE
  5
D1
  8
0
  6
CONTINUOUS
 62
     7
 10
203.8443234524
 20
254.864068545
 30
0.0
 11
203.8443234524
 21
247.364068545
 31
0.0
  0
LINE
  5
D2
  8
0
  6
CONTINUOUS
 62
     7
 10
203.8443234524
 20
224.864068545
 30
0.0
 11
203.8443234524
 21
217.364068545
 31
0.0
  0
LINE
  5
D3
  8
0
  6
CONTINUOUS
 62
     7
 10
203.8443234524
 20
210.864068545
 30
0.0
 11
203.8443234524
 21
203.364068545
 31
0.0
  0
LINE
  5
D4
  8
0
  6
CONTINUOUS
 62
     7
 10
203.8443234524
 20
240.864068545
 30
0.0
 11
203.8443234524
 21
233.364068545
 31
0.0
  0
LINE
  5
D5
  8
0
  6
CONTINUOUS
 62
     7
 10
209.1443234524
 20
240.864068545
 30
0.0
 11
208.6443234524
 21
240.364068545
 31
0.0
  0
LINE
  5
D6
  8
0
  6
CONTINUOUS
 62
     7
 10
208.6443234524
 20
203.864068545
 30
0.0
 11
208.6443234524
 21
210.364068545
 31
0.0
  0
LINE
  5
D7
  8
0
  6
CONTINUOUS
 62
     7
 10
209.1443234524
 20
210.864068545
 30
0.0
 11
209.1443234524
 21
203.364068545
 31
0.0
  0
LINE
  5
D8
  8
0
  6
CONTINUOUS
 62
     7
 10
208.6443234524
 20
217.864068545
 30
0.0
 11
208.6443234524
 21
224.364068545
 31
0.0
  0
LINE
  5
D9
  8
0
  6
CONTINUOUS
 62
     7
 10
209.1443234524
 20
224.864068545
 30
0.0
 11
209.1443234524
 21
217.364068545
 31
0.0
  0
LINE
  5
DA
  8
0
  6
CONTINUOUS
 62
     7
 10
208.6443234524
 20
233.864068545
 30
0.0
 11
208.6443234524
 21
240.364068545
 31
0.0
  0
LINE
  5
DB
  8
0
  6
CONTINUOUS
 62
     7
 10
209.1443234524
 20
240.864068545
 30
0.0
 11
209.1443234524
 21
233.364068545
 31
0.0
  0
LINE
  5
DC
  8
0
  6
CONTINUOUS
 62
     7
 10
208.6443234524
 20
247.864068545
 30
0.0
 11
208.6443234524
 21
254.364068545
 31
0.0
  0
LINE
  5
DD
  8
0
  6
CONTINUOUS
 62
     7
 10
209.1443234524
 20
254.864068545
 30
0.0
 11
209.1443234524
 21
247.364068545
 31
0.0
  0
LINE
  5
DE
  8
0
  6
CONTINUOUS
 62
     7
 10
201.1443234524
 20
258.614068545
 30
0.0
 11
200.6443234524
 21
259.114068545
 31
0.0
  0
LINE
  5
DF
  8
0
  6
CONTINUOUS
 62
     7
 10
201.1443234524
 20
258.614068545
 30
0.0
 11
200.6443234524
 21
258.614068545
 31
0.0
  0
LINE
  5
E0
  8
0
  6
CONTINUOUS
 62
     7
 10
200.6443234524
 20
258.614068545
 30
0.0
 11
200.6443234524
 21
259.114068545
 31
0.0
  0
CIRCLE
  5
E1
  8
0
  6
CONTINUOUS
 62
     7
 10
100.034777271
 20
239.864068545
 30
0.0
 40
3.249999999999986
  0
CIRCLE
  5
E2
  8
0
  6
CONTINUOUS
 62
     7
 10
100.034777271
 20
218.364068545
 30
0.0
 40
3.25
  0
CIRCLE
  5
E3
  8
0
  6
CONTINUOUS
 62
     7
 10
118.6543234524
 20
207.614068545
 30
0.0
 40
3.25
  0
CIRCLE
  5
E4
  8
0
  6
CONTINUOUS
 62
     7
 10
137.2738696337
 20
218.364068545
 30
0.0
 40
3.25
  0
CIRCLE
  5
E5
  8
0
  6
CONTINUOUS
 62
     7
 10
137.2738696337
 20
239.864068545
 30
0.0
 40
3.25
  0
CIRCLE
  5
E6
  8
0
  6
CONTINUOUS
 62
     7
 10
118.6543234524
 20
250.614068545
 30
0.0
 40
3.250000000000014
  0
CIRCLE
  5
E7
  8
0
  6
CONTINUOUS
 62
     7
 10
166.1443234524
 20
229.114068545
 30
0.0
 40
1.649999999999977
  0
CIRCLE
  5
E8
  8
0
  6
CONTINUOUS
 62
     7
 10
146.1443234524
 20
229.114068545
 30
0.0
 40
1.650000000000006
  0
CIRCLE
  5
E9
  8
0
  6
CONTINUOUS
 62
     7
 10
118.6543234524
 20
229.114068545
 30
0.0
 40
12.99999999999999
  0
LINE
  5
EA
  8
0
  6
CONTINUOUS
 62
     7
 10
157.6543234524
 20
226.614068545
 30
0.0
 11
155.6543234524
 21
226.614068545
 31
0.0
  0
ARC
  5
EB
  8
0
  6
CONTINUOUS
 62
     7
 10
157.6543234524
 20
229.114068545
 30
0.0
 40
2.500000000000057
 50
270.0
 51
90.0
  0
LINE
  5
EC
  8
0
  6
CONTINUOUS
 62
     7
 10
155.6543234524
 20
231.614068545
 30
0.0
 11
157.6543234524
 21
231.614068545
 31
0.0
  0
ARC
  5
ED
  8
0
  6
CONTINUOUS
 62
     7
 10
155.6543234524
 20
229.114068545
 30
0.0
 40
2.500000000000057
 50
90.0
 51
270.0
  0
LINE
  5
EE
  8
0
  6
CONTINUOUS
 62
     7
 10
200.6443234524
 20
258.614068545
 30
0.0
 11
118.6543234524
 21
258.614068545
 31
0.0
  0
LINE
  5
EF
  8
0
  6
CONTINUOUS
 62
     7
 10
200.6443234524
 20
199.614068545
 30
0.0
 11
200.6443234524
 21
258.614068545
 31
0.0
  0
LINE
  5
F0
  8
0
  6
CONTINUOUS
 62
     7
 10
118.6543234524
 20
199.614068545
 30
0.0
 11
200.6443234524
 21
199.614068545
 31
0.0
  0
ARC
  5
F1
  8
0
  6
CONTINUOUS
 62
     7
 10
118.6543234524
 20
229.114068545
 30
0.0
 40
29.5
 50
90.0
 51
270.0
  0
LINE
  5
F2
  8
0
  6
CONTINUOUS
 62
     7
 10
178.6443234524
 20
237.114068545
 30
0.0
 11
183.6443234524
 21
237.114068545
 31
0.0
  0
ARC
  5
F3
  8
0
  6
CONTINUOUS
 62
     7
 10
178.6443234524
 20
229.114068545
 30
0.0
 40
8.000000000000057
 50
90.0
 51
270.0
  0
LINE
  5
F4
  8
0
  6
CONTINUOUS
 62
     7
 10
183.6443234524
 20
221.114068545
 30
0.0
 11
178.6443234524
 21
221.114068545
 31
0.0
  0
ARC
  5
F5
  8
0
  6
CONTINUOUS
 62
     7
 10
183.6443234524
 20
229.114068545
 30
0.0
 40
8.000000000000057
 50
270.0
 51
90.0
  0
ARC
  5
F6
  8
0
  6
CONTINUOUS
 62
     7
 10
118.6543234524
 20
229.114068545
 30
0.0
 40
30.0
 50
90.0
 51
270.0
  0
LINE
  5
F7
  8
0
  6
CONTINUOUS
 62
     7
 10
118.6543234524
 20
259.114068545
 30
0.0
 11
200.6443234524
 21
259.114068545
 31
0.0
  0
LINE
  5
F8
  8
0
  6
CONTINUOUS
 62
     7
 10
201.1443234524
 20
199.614068545
 30
0.0
 11
200.6443234524
 21
199.614068545
 31
0.0
  0
CIRCLE
  5
F9
  8
0
  6
CONTINUOUS
 62
     7
 10
118.6543234524
 20
229.114068545
 30
0.0
 40
9.999999999999986
  0
ARC
  5
FA
  8
0
  6
CONTINUOUS
 62
     7
 10
183.6443234524
 20
229.114068545
 30
0.0
 40
7.5
 50
270.0
 51
90.0
  0
ARC
  5
FB
  8
0
  6
CONTINUOUS
 62
     7
 10
178.6443234524
 20
229.114068545
 30
0.0
 40
7.5
 50
90.0
 51
270.0
  0
LINE
  5
FC
  8
0
  6
CONTINUOUS
 62
     7
 10
183.6443234524
 20
236.614068545
 30
0.0
 11
178.6443234524
 21
236.614068545
 31
0.0
  0
LINE
  5
FD
  8
0
  6
CONTINUOUS
 62
     7
 10
157.6543234524
 20
231.114068545
 30
0.0
 11
155.6543234524
 21
231.114068545
 31
0.0
  0
ARC
  5
FE
  8
0
  6
CONTINUOUS
 62
     7
 10
157.6543234524
 20
229.114068545
 30
0.0
 40
2.000000000000028
 50
270.0
 51
90.0
  0
ARC
  5
FF
  8
0
  6
CONTINUOUS
 62
     7
 10
155.6543234524
 20
229.114068545
 30
0.0
 40
2.000000000000028
 50
90.0
 51
270.0
  0
LINE
  5
100
  8
0
  6
CONTINUOUS
 62
     7
 10
155.6543234524
 20
227.114068545
 30
0.0
 11
157.6543234524
 21
227.114068545
 31
0.0
  0
LINE
  5
101
  8
0
  6
CONTINUOUS
 62
     7
 10
178.6443234524
 20
221.614068545
 30
0.0
 11
183.6443234524
 21
221.614068545
 31
0.0
  0
LINE
  5
102
  8
0
  6
CONTINUOUS
 62
     7
 10
200.6443234524
 20
199.114068545
 30
0.0
 11
200.6443234524
 21
199.614068545
 31
0.0
  0
LINE
  5
103
  8
0
  6
CONTINUOUS
 62
     7
 10
200.6443234524
 20
199.114068545
 30
0.0
 11
201.1443234524
 21
199.614068545
 31
0.0
  0
LINE
  5
104
  8
0
  6
CONTINUOUS
 62
     7
 10
200.6443234524
 20
199.114068545
 30
0.0
 11
118.6543234524
 21
199.114068545
 31
0.0
  0
CIRCLE
  5
105
  8
0
  6
CONTINUOUS
 62
     7
 10
118.6543234524
 20
250.614068545
 30
0.0
 40
1.700000000000017
  0
CIRCLE
  5
106
  8
0
  6
CONTINUOUS
 62
     7
 10
137.2738696337
 20
239.864068545
 30
0.0
 40
1.699999999999989
  0
CIRCLE
  5
107
  8
0
  6
CONTINUOUS
 62
     7
 10
100.034777271
 20
239.864068545
 30
0.0
 40
1.699999999999989
  0
CIRCLE
  5
108
  8
0
  6
CONTINUOUS
 62
     7
 10
137.2738696337
 20
218.364068545
 30
0.0
 40
1.700000000000017
  0
CIRCLE
  5
109
  8
0
  6
CONTINUOUS
 62
     7
 10
100.034777271
 20
218.364068545
 30
0.0
 40
1.700000000000003
  0
CIRCLE
  5
10A
  8
0
  6
CONTINUOUS
 62
     7
 10
118.6543234524
 20
207.614068545
 30
0.0
 40
1.699999999999989
  0
LINE
  5
10B
  8
0
  6
CENTERX2
 62
     7
 10
156.6543234524
 20
236.2289805266
 30
0.0
 11
156.6543234524
 21
221.6093523256
 31
0.0
  0
LINE
  5
10C
  8
0
  6
CENTERX2
 62
     7
 10
181.1443234524
 20
242.0159628798
 30
0.0
 11
181.1443234524
 21
216.102273601
 31
0.0
  0
POINT
  5
10D
  8
0
  6
CONTINUOUS
 62
     7
 10
153.6543234524
 20
229.114068545
 30
0.0
  0
POINT
  5
10E
  8
0
  6
CONTINUOUS
 62
     7
 10
159.6543234524
 20
229.114068545
 30
0.0
  0
POINT
  5
10F
  8
0
  6
CONTINUOUS
 62
     7
 10
88.6543234524
 20
229.114068545
 30
0.0
  0
POINT
  5
110
  8
0
  6
CONTINUOUS
 62
     7
 10
171.1443234524
 20
229.114068545
 30
0.0
  0
POINT
  5
111
  8
0
  6
CONTINUOUS
 62
     7
 10
191.1443234524
 20
229.114068545
 30
0.0
  0
DIMENSION
  5
112
  8
DIM
  2
_D
 10
209.1443234524
 20
275.5310261855
 30
0.0
 11
148.8993234524
 21
275.5310261855
 31
0.0
 70
   160
  1
<>
  3
SLDDIMSTYLE0
 13
88.6543234524
 23
229.114068545
 33
0.0
 14
209.1443234524
 24
258.614068545
 34
0.0
  0
DIMENSION
  5
123
  8
DIM
  2
_D_1
 10
156.6543234524
 20
261.9137703761
 30
0.0
 11
137.6543234524
 21
261.9137703761
 31
0.0
 70
   160
  1
<>
  3
SLDDIMSTYLE0
 13
118.6543234524
 23
258.864068545
 33
0.0
 14
156.6543234524
 24
236.2289805266
 34
0.0
 50
0.0
  0
DIMENSION
  5
12D
  8
DIM
  2
_D_2
 10
159.6543234524
 20
193.3416268642
 30
0.0
 11
156.6543234524
 21
193.3416268642
 31
0.0
 70
   160
  1
<>
  3
SLDDIMSTYLE1
 13
153.6543234524
 23
229.114068545
 33
0.0
 14
159.6543234524
 24
229.114068545
 34
0.0
 50
0.0
  0
DIMENSION
  5
13A
  8
DIM
  2
_D_3
 10
191.1443234524
 20
193.3416268642
 30
0.0
 11
181.1443234524
 21
193.3416268642
 31
0.0
 70
   160
  1
<>
  3
SLDDIMSTYLE0
 13
171.1443234524
 23
229.114068545
 33
0.0
 14
191.1443234524
 24
229.114068545
 34
0.0
 50
0.0
  0
DIMENSION
  5
144
  8
DIM
  2
_D_4
 10
181.1443234524
 20
261.9137703761
 30
0.0
 11
195.1443234524
 21
261.9137703761
 31
0.0
 70
   160
  1
<>
  3
SLDDIMSTYLE0
 13
209.1443234524
 23
258.614068545
 33
0.0
 14
181.1443234524
 24
242.0159628798
 34
0.0
  0
DIMENSION
  5
14E
  8
DIM
  2
_D_5
 10
239.0501196337
 20
199.114068545
 30
0.0
 11
239.0501196337
 21
229.114068545
 31
0.0
 70
   160
  1
<>
  3
SLDDIMSTYLE0
 13
208.6443234524
 23
259.114068545
 33
0.0
 14
208.6443234524
 24
199.114068545
 34
0.0
 50
90.0
  0
DIMENSION
  5
158
  8
DIM
  2
_D_6
 10
113.2967103374
 20
237.5577633353
 30
0.0
 11
98.504484944
 21
260.8706028077
 31
0.0
 70
   163
  1
<>
  3
SLDDIMSTYLE2
 15
124.0119365673
 25
220.6703737548
 35
0.0
 40
0.0
  0
DIMENSION
  5
163
  8
DIM
  2
_D_7
 10
104.0680402424
 20
244.9093318261
 30
0.0
 11
92.6145866554
 21
257.3121225917
 31
0.0
 70
   163
  1
<>
  3
SLDDIMSTYLE3
 15
133.2406066623
 25
213.318805264
 35
0.0
 40
0.0
  0
DIMENSION
  5
16E
  8
DIM
  2
_D_8
 10
166.1443234524
 20
268.1753855752
 30
0.0
 11
156.1443234524
 21
268.1753855752
 31
0.0
 70
   160
  1
<>
  3
SLDDIMSTYLE0
 13
146.1443234524
 23
235.764068545
 33
0.0
 14
166.1443234524
 24
229.114068545
 34
0.0
  0
DIMENSION
  5
178
  8
DIM
  2
_D_9
 10
221.3725875079
 20
227.114068545
 30
0.0
 11
221.3725875079
 21
248.1476450132
 31
0.0
 70
   160
  1
<>H8
  3
SLDDIMSTYLE4
 13
157.6543234524
 23
231.114068545
 33
0.0
 14
157.6543234524
 24
227.114068545
 34
0.0
 50
90.0
  0
DIMENSION
  5
18C
  8
DIM
  2
_D_10
 10
231.3544784886
 20
221.614068545
 30
0.0
 11
231.3544784886
 21
229.114068545
 31
0.0
 70
   160
  1
<>
  3
SLDDIMSTYLE0
 13
183.6443234524
 23
236.614068545
 33
0.0
 14
183.6443234524
 24
221.614068545
 34
0.0
 50
90.0
  0
DIMENSION
  5
196
  8
DIM
  2
_D_11
 10
209.1443234524
 20
268.1753855752
 30
0.0
 11
187.6443234524
 21
268.1753855752
 31
0.0
 70
   160
  1
<>
  3
SLDDIMSTYLE0
 13
166.1443234524
 23
235.764068545
 33
0.0
 14
209.1443234524
 24
258.614068545
 34
0.0
  0
DIMENSION
  5
1A0
  8
DIM
  2
_D_12
 10
95.034777271
 20
229.114068545
 30
0.0
 11
77.9694534986
 21
240.0155465933
 31
0.0
 70
   162
  1
<>
  3
SLDDIMSTYLE5
 13
92.8900676898
 23
243.989068545
 33
0.0
 14
107.1794868522
 24
235.739068545
 34
0.0
 15
142.2738696337
 25
229.114068545
 35
0.0
 16
77.9694534986
 26
240.0155465933
 36
0.0
  0
DIMENSION
  5
1AB
  8
DIM
  2
_D_13
 10
168.6661086308
 20
227.114068545
 30
0.0
 11
168.6661086308
 21
181.8330725576
 31
0.0
 70
   160
  1
<>H8
  3
SLDDIMSTYLE4
 13
157.6543234524
 23
231.114068545
 33
0.0
 14
157.6543234524
 24
227.114068545
 34
0.0
 50
90.0
  0
INSERT
  5
1C5
  8
TXT
  2
SW_NOTE_0
 10
145.3921154887
 20
227.6455035382
 30
0.0
  0
INSERT
  5
1CD
  8
TXT
  2
SW_NOTE_0_1
 10
117.0064343029
 20
204.8128257225
 30
0.0
  0
INSERT
  5
203
  8
DIM
  2
SW_CENTERMARKSYMBOL_0
 10
137.2738696337
 20
239.864068545
 30
0.0
  0
INSERT
  5
20F
  8
DIM
  2
SW_CENTERMARKSYMBOL_1
 10
146.1443234524
 20
229.114068545
 30
0.0
  0
INSERT
  5
21B
  8
DIM
  2
SW_CENTERMARKSYMBOL_2
 10
166.1443234524
 20
229.114068545
 30
0.0
  0
LINE
  5
21C
  8
0
  6
CENTERX2
 62
     7
 10
220.9444839911
 20
229.114068545
 30
0.0
 11
72.7747227194
 21
229.114068545
 31
0.0
  0
LINE
  5
21D
  8
0
  6
CONTINUOUS
 62
     7
 10
218.9444839911
 20
216.414068545
 30
0.0
 11
218.9444839911
 21
229.114068545
 31
0.0
  0
INSERT
  5
21E
  8
0
  6
CONTINUOUS
 62
     7
  2
_OPEN30
 10
218.9444839911
 20
229.114068545
 30
0.0
 41
3.0
 42
3.0
 50
90.0
  0
LINE
  5
21F
  8
0
  6
CONTINUOUS
 62
     7
 10
74.7747227194
 20
216.414068545
 30
0.0
 11
74.7747227194
 21
229.114068545
 31
0.0
  0
INSERT
  5
220
  8
0
  6
CONTINUOUS
 62
     7
  2
_OPEN30
 10
74.7747227194
 20
229.114068545
 30
0.0
 41
3.0
 42
3.0
 50
90.0
  0
TEXT
  5
221
  8
0
  6
CONTINUOUS
 62
     7
 10
219.759341437
 20
216.9844457103
 30
0.0
 40
3.5
  1
A
 41
0.7
 11
219.759341437
 21
220.4844457103
 31
0.0
 73
     3
  0
TEXT
  5
222
  8
0
  6
CONTINUOUS
 62
     7
 10
71.9227216586
 20
216.9844457103
 30
0.0
 40
3.5
  1
A
 41
0.7
 11
71.9227216586
 21
220.4844457103
 31
0.0
 73
     3
  0
LINE
  5
223
  8
0
  6
CONTINUOUS
 62
     7
 10
264.4064127365
 20
249.864068545
 30
0.0
 11
265.8497884095
 21
249.864068545
 31
0.0
  0
LINE
  5
224
  8
0
  6
CONTINUOUS
 62
     7
 10
265.8497884095
 20
249.864068545
 30
0.0
 11
266.571476246
 21
251.114068545
 31
0.0
  0
LINE
  5
225
  8
0
  6
CONTINUOUS
 62
     7
 10
266.571476246
 20
251.114068545
 30
0.0
 11
265.8497884095
 21
252.364068545
 31
0.0
  0
LINE
  5
226
  8
0
  6
CONTINUOUS
 62
     7
 10
265.8497884095
 20
252.364068545
 30
0.0
 11
264.4064127365
 21
252.364068545
 31
0.0
  0
LINE
  5
227
  8
0
  6
CONTINUOUS
 62
     7
 10
264.4064127365
 20
252.364068545
 30
0.0
 11
263.6847249
 21
251.114068545
 31
0.0
  0
LINE
  5
228
  8
0
  6
CONTINUOUS
 62
     7
 10
263.6847249
 20
251.114068545
 30
0.0
 11
264.4064127365
 21
249.864068545
 31
0.0
  0
CIRCLE
  5
229
  8
0
  6
CONTINUOUS
 62
     7
 10
265.128100573
 20
251.114068545
 30
0.0
 40
2.839999999999975
  0
LINE
  5
22A
  8
0
  6
CONTINUOUS
 62
     7
 10
264.4064127365
 20
219.864068545
 30
0.0
 11
265.8497884095
 21
219.864068545
 31
0.0
  0
LINE
  5
22B
  8
0
  6
CONTINUOUS
 62
     7
 10
265.8497884095
 20
219.864068545
 30
0.0
 11
266.571476246
 21
221.114068545
 31
0.0
  0
LINE
  5
22C
  8
0
  6
CONTINUOUS
 62
     7
 10
266.571476246
 20
221.114068545
 30
0.0
 11
265.8497884095
 21
222.364068545
 31
0.0
  0
LINE
  5
22D
  8
0
  6
CONTINUOUS
 62
     7
 10
265.8497884095
 20
222.364068545
 30
0.0
 11
264.4064127365
 21
222.364068545
 31
0.0
  0
LINE
  5
22E
  8
0
  6
CONTINUOUS
 62
     7
 10
264.4064127365
 20
222.364068545
 30
0.0
 11
263.6847249
 21
221.114068545
 31
0.0
  0
LINE
  5
22F
  8
0
  6
CONTINUOUS
 62
     7
 10
263.6847249
 20
221.114068545
 30
0.0
 11
264.4064127365
 21
219.864068545
 31
0.0
  0
CIRCLE
  5
230
  8
0
  6
CONTINUOUS
 62
     7
 10
265.128100573
 20
221.114068545
 30
0.0
 40
2.839999999999975
  0
CIRCLE
  5
231
  8
0
  6
CONTINUOUS
 62
     7
 10
265.128100573
 20
237.114068545
 30
0.0
 40
2.839999999999975
  0
LINE
  5
232
  8
0
  6
CONTINUOUS
 62
     7
 10
266.571476246
 20
237.114068545
 30
0.0
 11
265.8497884095
 21
238.364068545
 31
0.0
  0
LINE
  5
233
  8
0
  6
CONTINUOUS
 62
     7
 10
265.8497884095
 20
238.364068545
 30
0.0
 11
264.4064127365
 21
238.364068545
 31
0.0
  0
LINE
  5
234
  8
0
  6
CONTINUOUS
 62
     7
 10
265.8497884095
 20
235.864068545
 30
0.0
 11
266.571476246
 21
237.114068545
 31
0.0
  0
LINE
  5
235
  8
0
  6
CONTINUOUS
 62
     7
 10
264.4064127365
 20
238.364068545
 30
0.0
 11
263.6847249
 21
237.114068545
 31
0.0
  0
LINE
  5
236
  8
0
  6
CONTINUOUS
 62
     7
 10
263.6847249
 20
237.114068545
 30
0.0
 11
264.4064127365
 21
235.864068545
 31
0.0
  0
LINE
  5
237
  8
0
  6
CONTINUOUS
 62
     7
 10
264.4064127365
 20
235.864068545
 30
0.0
 11
265.8497884095
 21
235.864068545
 31
0.0
  0
CIRCLE
  5
238
  8
0
  6
CONTINUOUS
 62
     7
 10
265.128100573
 20
207.114068545
 30
0.0
 40
2.839999999999975
  0
LINE
  5
239
  8
0
  6
CONTINUOUS
 62
     7
 10
266.571476246
 20
207.114068545
 30
0.0
 11
265.8497884095
 21
208.364068545
 31
0.0
  0
LINE
  5
23A
  8
0
  6
CONTINUOUS
 62
     7
 10
265.8497884095
 20
205.864068545
 30
0.0
 11
266.571476246
 21
207.114068545
 31
0.0
  0
LINE
  5
23B
  8
0
  6
CONTINUOUS
 62
     7
 10
264.4064127365
 20
205.864068545
 30
0.0
 11
265.8497884095
 21
205.864068545
 31
0.0
  0
LINE
  5
23C
  8
0
  6
CONTINUOUS
 62
     7
 10
264.4064127365
 20
208.364068545
 30
0.0
 11
263.6847249
 21
207.114068545
 31
0.0
  0
LINE
  5
23D
  8
0
  6
CONTINUOUS
 62
     7
 10
263.6847249
 20
207.114068545
 30
0.0
 11
264.4064127365
 21
205.864068545
 31
0.0
  0
LINE
  5
23E
  8
0
  6
CONTINUOUS
 62
     7
 10
265.8497884095
 20
208.364068545
 30
0.0
 11
264.4064127365
 21
208.364068545
 31
0.0
  0
CIRCLE
  5
23F
  8
0
  6
CONTINUOUS
 62
     7
 10
338.6341972274
 20
208.6079718906
 30
0.0
 40
1.25
  0
CIRCLE
  5
240
  8
0
  6
CONTINUOUS
 62
     7
 10
338.6341972274
 20
249.6201651994
 30
0.0
 40
1.25
  0
CIRCLE
  5
241
  8
0
  6
CONTINUOUS
 62
     7
 10
297.6220039186
 20
249.6201651994
 30
0.0
 40
1.25
  0
CIRCLE
  5
242
  8
0
  6
CONTINUOUS
 62
     7
 10
297.6220039186
 20
208.6079718906
 30
0.0
 40
1.249999999999972
  0
LINE
  5
243
  8
0
  6
CONTINUOUS
 62
     7
 10
261.628100573
 20
210.864068545
 30
0.0
 11
265.128100573
 21
210.864068545
 31
0.0
  0
LINE
  5
244
  8
0
  6
CONTINUOUS
 62
     7
 10
261.628100573
 20
217.364068545
 30
0.0
 11
261.628100573
 21
210.864068545
 31
0.0
  0
LINE
  5
245
  8
0
  6
CONTINUOUS
 62
     7
 10
265.128100573
 20
217.364068545
 30
0.0
 11
261.628100573
 21
217.364068545
 31
0.0
  0
ARC
  5
246
  8
0
  6
CONTINUOUS
 62
     7
 10
265.128100573
 20
221.114068545
 30
0.0
 40
3.75
 50
270.0
 51
90.0
  0
LINE
  5
247
  8
0
  6
CONTINUOUS
 62
     7
 10
261.628100573
 20
224.864068545
 30
0.0
 11
265.128100573
 21
224.864068545
 31
0.0
  0
LINE
  5
248
  8
0
  6
CONTINUOUS
 62
     7
 10
261.628100573
 20
233.364068545
 30
0.0
 11
261.628100573
 21
224.864068545
 31
0.0
  0
LINE
  5
249
  8
0
  6
CONTINUOUS
 62
     7
 10
265.128100573
 20
233.364068545
 30
0.0
 11
261.628100573
 21
233.364068545
 31
0.0
  0
ARC
  5
24A
  8
0
  6
CONTINUOUS
 62
     7
 10
265.128100573
 20
237.114068545
 30
0.0
 40
3.750000000000028
 50
270.0
 51
90.0
  0
LINE
  5
24B
  8
0
  6
CONTINUOUS
 62
     7
 10
261.628100573
 20
240.864068545
 30
0.0
 11
265.128100573
 21
240.864068545
 31
0.0
  0
LINE
  5
24C
  8
0
  6
CONTINUOUS
 62
     7
 10
261.628100573
 20
247.364068545
 30
0.0
 11
261.628100573
 21
240.864068545
 31
0.0
  0
LINE
  5
24D
  8
0
  6
CONTINUOUS
 62
     7
 10
265.128100573
 20
247.364068545
 30
0.0
 11
261.628100573
 21
247.364068545
 31
0.0
  0
ARC
  5
24E
  8
0
  6
CONTINUOUS
 62
     7
 10
265.128100573
 20
251.114068545
 30
0.0
 40
3.75
 50
270.0
 51
90.0
  0
LINE
  5
24F
  8
0
  6
CONTINUOUS
 62
     7
 10
261.628100573
 20
254.864068545
 30
0.0
 11
265.128100573
 21
254.864068545
 31
0.0
  0
LINE
  5
250
  8
0
  6
CONTINUOUS
 62
     7
 10
261.628100573
 20
258.614068545
 30
0.0
 11
261.628100573
 21
254.864068545
 31
0.0
  0
LINE
  5
251
  8
0
  6
CONTINUOUS
 62
     7
 10
342.9209937918
 20
258.614068545
 30
0.0
 11
261.628100573
 21
258.614068545
 31
0.0
  0
LINE
  5
252
  8
0
  6
CONTINUOUS
 62
     7
 10
345.628100573
 20
255.9069617639
 30
0.0
 11
342.9209937918
 21
258.614068545
 31
0.0
  0
LINE
  5
253
  8
0
  6
CONTINUOUS
 62
     7
 10
345.628100573
 20
202.3211753262
 30
0.0
 11
345.628100573
 21
255.9069617639
 31
0.0
  0
LINE
  5
254
  8
0
  6
CONTINUOUS
 62
     7
 10
342.9209937918
 20
199.614068545
 30
0.0
 11
345.628100573
 21
202.3211753262
 31
0.0
  0
LINE
  5
255
  8
0
  6
CONTINUOUS
 62
     7
 10
261.628100573
 20
199.614068545
 30
0.0
 11
342.9209937918
 21
199.614068545
 31
0.0
  0
LINE
  5
256
  8
0
  6
CONTINUOUS
 62
     7
 10
261.628100573
 20
203.364068545
 30
0.0
 11
261.628100573
 21
199.614068545
 31
0.0
  0
LINE
  5
257
  8
0
  6
CONTINUOUS
 62
     7
 10
265.128100573
 20
203.364068545
 30
0.0
 11
261.628100573
 21
203.364068545
 31
0.0
  0
ARC
  5
258
  8
0
  6
CONTINUOUS
 62
     7
 10
265.128100573
 20
207.114068545
 30
0.0
 40
3.750000000000057
 50
270.0
 51
90.0
  0
CIRCLE
  5
259
  8
0
  6
CONTINUOUS
 62
     7
 10
318.128100573
 20
229.114068545
 30
0.0
 40
25.0
  0
LINE
  5
25A
  8
0
  6
CONTINUOUS
 62
     7
 10
346.128100573
 20
202.114068545
 30
0.0
 11
343.128100573
 21
199.114068545
 31
0.0
  0
LINE
  5
25B
  8
0
  6
CONTINUOUS
 62
     7
 10
343.128100573
 20
199.114068545
 30
0.0
 11
342.9209937918
 21
199.614068545
 31
0.0
  0
LINE
  5
25C
  8
0
  6
CONTINUOUS
 62
     7
 10
346.128100573
 20
202.114068545
 30
0.0
 11
345.628100573
 21
202.3211753262
 31
0.0
  0
CIRCLE
  5
25D
  8
0
  6
CONTINUOUS
 62
     7
 10
318.128100573
 20
229.114068545
 30
0.0
 40
24.5
  0
LINE
  5
25E
  8
0
  6
CONTINUOUS
 62
     7
 10
346.128100573
 20
256.114068545
 30
0.0
 11
346.128100573
 21
202.114068545
 31
0.0
  0
LINE
  5
25F
  8
0
  6
CONTINUOUS
 62
     7
 10
346.128100573
 20
256.114068545
 30
0.0
 11
345.628100573
 21
255.9069617639
 31
0.0
  0
LINE
  5
260
  8
0
  6
CONTINUOUS
 62
     7
 10
343.128100573
 20
199.114068545
 30
0.0
 11
261.628100573
 21
199.114068545
 31
0.0
  0
LINE
  5
261
  8
0
  6
CONTINUOUS
 62
     7
 10
261.628100573
 20
199.114068545
 30
0.0
 11
261.628100573
 21
199.614068545
 31
0.0
  0
LINE
  5
262
  8
0
  6
CONTINUOUS
 62
     7
 10
261.628100573
 20
259.114068545
 30
0.0
 11
343.128100573
 21
259.114068545
 31
0.0
  0
LINE
  5
263
  8
0
  6
CONTINUOUS
 62
     7
 10
343.128100573
 20
259.114068545
 30
0.0
 11
342.9209937918
 21
258.614068545
 31
0.0
  0
LINE
  5
264
  8
0
  6
CONTINUOUS
 62
     7
 10
261.628100573
 20
259.114068545
 30
0.0
 11
261.628100573
 21
258.614068545
 31
0.0
  0
LINE
  5
265
  8
0
  6
CONTINUOUS
 62
     7
 10
343.128100573
 20
259.114068545
 30
0.0
 11
346.128100573
 21
256.114068545
 31
0.0
  0
ARC
  5
266
  8
0
  6
CONTINUOUS
 62
     7
 10
265.128100573
 20
221.114068545
 30
0.0
 40
3.25
 50
270.0
 51
90.0
  0
LINE
  5
267
  8
0
  6
CONTINUOUS
 62
     7
 10
265.128100573
 20
210.364068545
 30
0.0
 11
261.628100573
 21
210.364068545
 31
0.0
  0
LINE
  5
268
  8
0
  6
CONTINUOUS
 62
     7
 10
261.628100573
 20
210.864068545
 30
0.0
 11
261.628100573
 21
210.364068545
 31
0.0
  0
LINE
  5
269
  8
0
  6
CONTINUOUS
 62
     7
 10
265.128100573
 20
254.364068545
 30
0.0
 11
261.628100573
 21
254.364068545
 31
0.0
  0
LINE
  5
26A
  8
0
  6
CONTINUOUS
 62
     7
 10
261.628100573
 20
254.364068545
 30
0.0
 11
261.628100573
 21
254.864068545
 31
0.0
  0
LINE
  5
26B
  8
0
  6
CONTINUOUS
 62
     7
 10
261.628100573
 20
217.364068545
 30
0.0
 11
261.628100573
 21
217.864068545
 31
0.0
  0
LINE
  5
26C
  8
0
  6
CONTINUOUS
 62
     7
 10
261.628100573
 20
217.864068545
 30
0.0
 11
265.128100573
 21
217.864068545
 31
0.0
  0
ARC
  5
26D
  8
0
  6
CONTINUOUS
 62
     7
 10
265.128100573
 20
251.114068545
 30
0.0
 40
3.250000000000028
 50
270.0
 51
90.0
  0
ARC
  5
26E
  8
0
  6
CONTINUOUS
 62
     7
 10
265.128100573
 20
237.114068545
 30
0.0
 40
3.250000000000028
 50
270.0
 51
90.0
  0
LINE
  5
26F
  8
0
  6
CONTINUOUS
 62
     7
 10
261.628100573
 20
247.864068545
 30
0.0
 11
265.128100573
 21
247.864068545
 31
0.0
  0
LINE
  5
270
  8
0
  6
CONTINUOUS
 62
     7
 10
261.628100573
 20
247.864068545
 30
0.0
 11
261.628100573
 21
247.364068545
 31
0.0
  0
ARC
  5
271
  8
0
  6
CONTINUOUS
 62
     7
 10
265.128100573
 20
207.114068545
 30
0.0
 40
3.250000000000057
 50
270.0
 51
90.0
  0
LINE
  5
272
  8
0
  6
CONTINUOUS
 62
     7
 10
265.128100573
 20
224.364068545
 30
0.0
 11
261.628100573
 21
224.364068545
 31
0.0
  0
LINE
  5
273
  8
0
  6
CONTINUOUS
 62
     7
 10
261.628100573
 20
224.864068545
 30
0.0
 11
261.628100573
 21
224.364068545
 31
0.0
  0
LINE
  5
274
  8
0
  6
CONTINUOUS
 62
     7
 10
261.628100573
 20
233.364068545
 30
0.0
 11
261.628100573
 21
233.864068545
 31
0.0
  0
LINE
  5
275
  8
0
  6
CONTINUOUS
 62
     7
 10
261.628100573
 20
233.864068545
 30
0.0
 11
265.128100573
 21
233.864068545
 31
0.0
  0
LINE
  5
276
  8
0
  6
CONTINUOUS
 62
     7
 10
261.628100573
 20
203.864068545
 30
0.0
 11
265.128100573
 21
203.864068545
 31
0.0
  0
LINE
  5
277
  8
0
  6
CONTINUOUS
 62
     7
 10
261.628100573
 20
203.864068545
 30
0.0
 11
261.628100573
 21
203.364068545
 31
0.0
  0
LINE
  5
278
  8
0
  6
CONTINUOUS
 62
     7
 10
265.128100573
 20
240.364068545
 30
0.0
 11
261.628100573
 21
240.364068545
 31
0.0
  0
LINE
  5
279
  8
0
  6
CONTINUOUS
 62
     7
 10
261.628100573
 20
240.864068545
 30
0.0
 11
261.628100573
 21
240.364068545
 31
0.0
  0
LINE
  5
27A
  8
0
  6
CONTINUOUS
 62
     7
 10
261.128100573
 20
199.614068545
 30
0.0
 11
261.128100573
 21
203.364068545
 31
0.0
  0
LINE
  5
27B
  8
0
  6
CONTINUOUS
 62
     7
 10
261.128100573
 20
203.364068545
 30
0.0
 11
261.628100573
 21
203.364068545
 31
0.0
  0
LINE
  5
27C
  8
0
  6
CONTINUOUS
 62
     7
 10
261.128100573
 20
199.614068545
 30
0.0
 11
261.628100573
 21
199.614068545
 31
0.0
  0
LINE
  5
27D
  8
0
  6
CONTINUOUS
 62
     7
 10
261.128100573
 20
210.864068545
 30
0.0
 11
261.628100573
 21
210.364068545
 31
0.0
  0
LINE
  5
27E
  8
0
  6
CONTINUOUS
 62
     7
 10
261.628100573
 20
210.864068545
 30
0.0
 11
261.128100573
 21
210.864068545
 31
0.0
  0
LINE
  5
27F
  8
0
  6
CONTINUOUS
 62
     7
 10
261.128100573
 20
247.364068545
 30
0.0
 11
261.628100573
 21
247.364068545
 31
0.0
  0
LINE
  5
280
  8
0
  6
CONTINUOUS
 62
     7
 10
261.628100573
 20
247.864068545
 30
0.0
 11
261.128100573
 21
247.364068545
 31
0.0
  0
LINE
  5
281
  8
0
  6
CONTINUOUS
 62
     7
 10
261.128100573
 20
240.864068545
 30
0.0
 11
261.628100573
 21
240.364068545
 31
0.0
  0
LINE
  5
282
  8
0
  6
CONTINUOUS
 62
     7
 10
261.628100573
 20
240.864068545
 30
0.0
 11
261.128100573
 21
240.864068545
 31
0.0
  0
LINE
  5
283
  8
0
  6
CONTINUOUS
 62
     7
 10
261.628100573
 20
217.364068545
 30
0.0
 11
261.128100573
 21
217.364068545
 31
0.0
  0
LINE
  5
284
  8
0
  6
CONTINUOUS
 62
     7
 10
261.628100573
 20
217.864068545
 30
0.0
 11
261.128100573
 21
217.364068545
 31
0.0
  0
LINE
  5
285
  8
0
  6
CONTINUOUS
 62
     7
 10
261.128100573
 20
240.864068545
 30
0.0
 11
261.128100573
 21
247.364068545
 31
0.0
  0
LINE
  5
286
  8
0
  6
CONTINUOUS
 62
     7
 10
261.128100573
 20
199.614068545
 30
0.0
 11
261.628100573
 21
199.114068545
 31
0.0
  0
LINE
  5
287
  8
0
  6
CONTINUOUS
 62
     7
 10
261.128100573
 20
254.864068545
 30
0.0
 11
261.128100573
 21
258.614068545
 31
0.0
  0
LINE
  5
288
  8
0
  6
CONTINUOUS
 62
     7
 10
261.128100573
 20
258.614068545
 30
0.0
 11
261.628100573
 21
258.614068545
 31
0.0
  0
LINE
  5
289
  8
0
  6
CONTINUOUS
 62
     7
 10
261.128100573
 20
254.864068545
 30
0.0
 11
261.628100573
 21
254.864068545
 31
0.0
  0
LINE
  5
28A
  8
0
  6
CONTINUOUS
 62
     7
 10
261.628100573
 20
203.864068545
 30
0.0
 11
261.128100573
 21
203.364068545
 31
0.0
  0
LINE
  5
28B
  8
0
  6
CONTINUOUS
 62
     7
 10
261.128100573
 20
254.864068545
 30
0.0
 11
261.628100573
 21
254.364068545
 31
0.0
  0
LINE
  5
28C
  8
0
  6
CONTINUOUS
 62
     7
 10
261.628100573
 20
224.864068545
 30
0.0
 11
261.128100573
 21
224.864068545
 31
0.0
  0
LINE
  5
28D
  8
0
  6
CONTINUOUS
 62
     7
 10
261.128100573
 20
224.864068545
 30
0.0
 11
261.128100573
 21
233.364068545
 31
0.0
  0
LINE
  5
28E
  8
0
  6
CONTINUOUS
 62
     7
 10
261.628100573
 20
233.364068545
 30
0.0
 11
261.128100573
 21
233.364068545
 31
0.0
  0
LINE
  5
28F
  8
0
  6
CONTINUOUS
 62
     7
 10
261.128100573
 20
224.864068545
 30
0.0
 11
261.628100573
 21
224.364068545
 31
0.0
  0
LINE
  5
290
  8
0
  6
CONTINUOUS
 62
     7
 10
261.128100573
 20
258.614068545
 30
0.0
 11
261.628100573
 21
259.114068545
 31
0.0
  0
LINE
  5
291
  8
0
  6
CONTINUOUS
 62
     7
 10
261.628100573
 20
233.864068545
 30
0.0
 11
261.128100573
 21
233.364068545
 31
0.0
  0
LINE
  5
292
  8
0
  6
CONTINUOUS
 62
     7
 10
261.128100573
 20
210.864068545
 30
0.0
 11
261.128100573
 21
217.364068545
 31
0.0
  0
LINE
  5
293
  8
0
  6
CONTINUOUS
 62
     7
 10
261.128100573
 20
210.864068545
 30
0.0
 11
261.128100573
 21
203.364068545
 31
0.0
  0
LINE
  5
294
  8
0
  6
CONTINUOUS
 62
     7
 10
261.128100573
 20
254.864068545
 30
0.0
 11
261.128100573
 21
247.364068545
 31
0.0
  0
LINE
  5
295
  8
0
  6
CONTINUOUS
 62
     7
 10
261.128100573
 20
224.864068545
 30
0.0
 11
261.128100573
 21
217.364068545
 31
0.0
  0
LINE
  5
296
  8
0
  6
CONTINUOUS
 62
     7
 10
261.128100573
 20
240.864068545
 30
0.0
 11
261.128100573
 21
233.364068545
 31
0.0
  0
DIMENSION
  5
297
  8
DIM
  2
_D_14
 10
346.128100573
 20
276.1866692087
 30
0.0
 11
303.628100573
 21
276.1866692087
 31
0.0
 70
   160
  1
<>
  3
SLDDIMSTYLE0
 13
261.128100573
 23
258.614068545
 33
0.0
 14
346.128100573
 24
256.114068545
 34
0.0
  0
DIMENSION
  5
2A1
  8
DIM
  2
_D_15
 10
341.7932833171
 20
235.4551351501
 30
0.0
 11
360.1718480292
 21
240.3796640432
 31
0.0
 70
   163
  1
<>H8
  3
SLDDIMSTYLE6
 15
294.4629178289
 25
222.77300194
 35
0.0
 40
0.0
  0
DIMENSION
  5
2B3
  8
DIM
  2
_D_16
 10
344.6190550882
 20
217.3145207202
 30
0.0
 11
356.3706043357
 21
212.0801836797
 31
0.0
 70
   163
  1
<>
  3
SLDDIMSTYLE3
 15
291.6371460577
 25
240.9136163699
 35
0.0
 40
0.0
  0
DIMENSION
  5
2BE
  8
DIM
  2
_D_17
 10
318.128100573
 20
195.2961614546
 30
0.0
 11
334.3899461355
 21
189.8545004388
 31
0.0
 70
   162
  1
<>
  3
SLDDIMSTYLE5
 13
343.0536146098
 23
204.1885545082
 33
0.0
 14
334.214779845
 24
213.027389273
 34
0.0
 15
318.128100573
 25
262.4998722694
 35
0.0
 16
334.3899461355
 26
189.8545004388
 36
0.0
  0
DIMENSION
  5
2C8
  8
DIM
  2
_D_18
 10
318.128100573
 20
186.6769561218
 30
0.0
 11
289.628100573
 21
186.6769561218
 31
0.0
 70
   160
  1
<>
  3
SLDDIMSTYLE0
 13
261.128100573
 23
199.614068545
 33
0.0
 14
318.128100573
 24
195.2961614546
 34
0.0
  0
INSERT
  5
2D9
  8
TXT
  2
SW_NOTE_0_2
 10
339.0550258277
 20
207.4309403324
 30
0.0
  0
INSERT
  5
2E5
  8
DIM
  2
SW_CENTERMARKSYMBOL_3
 10
318.128100573
 20
229.114068545
 30
0.0
  0
INSERT
  5
30D
  8
DIM
  2
SW_CENTERMARKSYMBOL_4
 10
297.6220039186
 20
249.6201651994
 30
0.0
  0
LINE
  5
30E
  8
0
  6
CONTINUOUS
 62
     7
 10
88.6543234524
 20
164.8809704086
 30
0.0
 11
93.5242527298
 21
169.7508996861
 31
0.0
  0
LINE
  5
30F
  8
0
  6
CONTINUOUS
 62
     7
 10
90.0143807903
 20
161.7508996861
 30
0.0
 11
98.0143807903
 21
169.7508996861
 31
0.0
  0
LINE
  5
310
  8
0
  6
CONTINUOUS
 62
     7
 10
98.5045088508
 20
165.7508996861
 30
0.0
 11
102.5045088508
 21
169.7508996861
 31
0.0
  0
LINE
  5
311
  8
0
  6
CONTINUOUS
 62
     7
 10
94.5045088508
 20
161.7508996861
 30
0.0
 11
95.1543234524
 21
162.4007142876
 31
0.0
  0
LINE
  5
312
  8
0
  6
CONTINUOUS
 62
     7
 10
99.3244801819
 20
162.0807429565
 30
0.0
 11
106.3244801819
 21
169.0807429565
 31
0.0
  0
LINE
  5
313
  8
0
  6
CONTINUOUS
 62
     7
 10
103.4847649719
 20
161.7508996861
 30
0.0
 11
108.5695442121
 21
166.8356789263
 31
0.0
  0
LINE
  5
314
  8
0
  6
CONTINUOUS
 62
     7
 10
107.9748930324
 20
161.7508996861
 30
0.0
 11
108.6543234524
 21
162.430330106
 31
0.0
  0
LINE
  5
315
  8
0
  6
CONTINUOUS
 62
     7
 10
191.1443234524
 20
168.5881530769
 30
0.0
 11
192.3070700615
 21
169.7508996861
 31
0.0
  0
LINE
  5
316
  8
0
  6
CONTINUOUS
 62
     7
 10
191.1443234524
 20
164.0980250164
 30
0.0
 11
196.7971981221
 21
169.7508996861
 31
0.0
  0
LINE
  5
317
  8
0
  6
CONTINUOUS
 62
     7
 10
193.2873261826
 20
161.7508996861
 30
0.0
 11
200.9658248175
 21
169.4293983209
 31
0.0
  0
LINE
  5
318
  8
0
  6
CONTINUOUS
 62
     7
 10
197.7774542431
 20
161.7508996861
 30
0.0
 11
201.1443234524
 21
165.1177688953
 31
0.0
  0
LINE
  5
319
  8
0
  6
CONTINUOUS
 62
     7
 10
167.7943234524
 20
167.6887933796
 30
0.0
 11
169.8564297589
 21
169.7508996861
 31
0.0
  0
LINE
  5
31A
  8
0
  6
CONTINUOUS
 62
     7
 10
167.7943234524
 20
163.198665319
 30
0.0
 11
171.1443234524
 21
166.548665319
 31
0.0
  0
LINE
  5
31B
  8
0
  6
CONTINUOUS
 62
     7
 10
159.6543234524
 20
168.5290495006
 30
0.0
 11
160.8761736378
 21
169.7508996861
 31
0.0
  0
LINE
  5
31C
  8
0
  6
CONTINUOUS
 62
     7
 10
159.6543234524
 20
164.0389214401
 30
0.0
 11
164.4943234524
 21
168.8789214401
 31
0.0
  0
LINE
  5
31D
  8
0
  6
CONTINUOUS
 62
     7
 10
161.8564297589
 20
161.7508996861
 30
0.0
 11
164.4943234524
 21
164.3887933796
 31
0.0
  0
LINE
  5
31E
  8
0
  6
CONTINUOUS
 62
     7
 10
147.7943234524
 20
165.6493056217
 30
0.0
 11
151.8959175167
 21
169.7508996861
 31
0.0
  0
LINE
  5
31F
  8
0
  6
CONTINUOUS
 62
     7
 10
148.3860455773
 20
161.7508996861
 30
0.0
 11
153.6543234524
 21
167.0191775612
 31
0.0
  0
LINE
  5
320
  8
0
  6
CONTINUOUS
 62
     7
 10
152.8761736378
 20
161.7508996861
 30
0.0
 11
153.6543234524
 21
162.5290495006
 31
0.0
  0
LINE
  5
321
  8
0
  6
CONTINUOUS
 62
     7
 10
128.6543234524
 20
164.4698178638
 30
0.0
 11
133.9354052746
 21
169.7508996861
 31
0.0
  0
LINE
  5
322
  8
0
  6
CONTINUOUS
 62
     7
 10
130.4255333351
 20
161.7508996861
 30
0.0
 11
138.4255333351
 21
169.7508996861
 31
0.0
  0
LINE
  5
323
  8
0
  6
CONTINUOUS
 62
     7
 10
138.9156613957
 20
165.7508996861
 30
0.0
 11
142.9156613957
 21
169.7508996861
 31
0.0
  0
LINE
  5
324
  8
0
  6
CONTINUOUS
 62
     7
 10
134.9156613957
 20
161.7508996861
 30
0.0
 11
137.1543234524
 21
163.9895617428
 31
0.0
  0
LINE
  5
325
  8
0
  6
CONTINUOUS
 62
     7
 10
143.1543234524
 20
165.4994336822
 30
0.0
 11
144.4943234524
 21
166.8394336822
 31
0.0
  0
LINE
  5
326
  8
0
  6
CONTINUOUS
 62
     7
 10
143.8959175167
 20
161.7508996861
 30
0.0
 11
144.4943234524
 21
162.3493056217
 31
0.0
  0
LINE
  5
327
  8
0
  6
CONTINUOUS
 62
     7
 10
209.1443234524
 20
141.6868724715
 30
0.0
 11
204.7083506669
 21
137.2508996861
 31
0.0
  0
LINE
  5
328
  8
0
  6
CONTINUOUS
 62
     7
 10
209.1443234524
 20
146.1770005321
 30
0.0
 11
201.1443234524
 21
138.1770005321
 31
0.0
  0
LINE
  5
329
  8
0
  6
CONTINUOUS
 62
     7
 10
209.1443234524
 20
150.6671285926
 30
0.0
 11
201.1443234524
 21
142.6671285926
 31
0.0
  0
LINE
  5
32A
  8
0
  6
CONTINUOUS
 62
     7
 10
209.1443234524
 20
155.1572566531
 30
0.0
 11
201.1443234524
 21
147.1572566531
 31
0.0
  0
LINE
  5
32B
  8
0
  6
CONTINUOUS
 62
     7
 10
209.1443234524
 20
159.6473847137
 30
0.0
 11
201.1443234524
 21
151.6473847137
 31
0.0
  0
LINE
  5
32C
  8
0
  6
CONTINUOUS
 62
     7
 10
209.1443234524
 20
164.1375127742
 30
0.0
 11
201.1443234524
 21
156.1375127742
 31
0.0
  0
LINE
  5
32D
  8
0
  6
CONTINUOUS
 62
     7
 10
209.1443234524
 20
168.6276408348
 30
0.0
 11
201.1443234524
 21
160.6276408348
 31
0.0
  0
LINE
  5
32E
  8
0
  6
CONTINUOUS
 62
     7
 10
205.7774542431
 20
169.7508996861
 30
0.0
 11
201.1443234524
 21
165.1177688953
 31
0.0
  0
LINE
  5
32F
  8
0
  6
CONTINUOUS
 62
     7
 10
209.1171054228
 20
87.7781177156
 30
0.0
 11
206.0898873933
 21
84.7508996861
 31
0.0
  0
LINE
  5
330
  8
0
  6
CONTINUOUS
 62
     7
 10
205.0997593328
 20
88.2508996861
 30
0.0
 11
201.6220413926
 21
84.7731817459
 31
0.0
  0
LINE
  5
331
  8
0
  6
CONTINUOUS
 62
     7
 10
201.1443234524
 20
87.7508996861
 30
0.0
 11
201.1443234524
 21
137.7508996861
 31
0.0
  0
LINE
  5
332
  8
0
  6
CONTINUOUS
 62
     7
 10
201.1443234524
 20
137.7508996861
 30
0.0
 11
201.6443234524
 21
137.2508996861
 31
0.0
  0
LINE
  5
333
  8
0
  6
CONTINUOUS
 62
     7
 10
201.6443234524
 20
137.2508996861
 30
0.0
 11
201.6443234524
 21
88.2508996861
 31
0.0
  0
LINE
  5
334
  8
0
  6
CONTINUOUS
 62
     7
 10
201.6443234524
 20
88.2508996861
 30
0.0
 11
201.1443234524
 21
87.7508996861
 31
0.0
  0
LINE
  5
335
  8
0
  6
CONTINUOUS
 62
     7
 10
201.1443234524
 20
85.2508996861
 30
0.0
 11
201.6443234524
 21
84.7508996861
 31
0.0
  0
LINE
  5
336
  8
0
  6
CONTINUOUS
 62
     7
 10
208.6443234524
 20
88.2508996861
 30
0.0
 11
201.6443234524
 21
88.2508996861
 31
0.0
  0
LINE
  5
337
  8
0
  6
CONTINUOUS
 62
     7
 10
209.1443234524
 20
87.7508996861
 30
0.0
 11
208.6443234524
 21
88.2508996861
 31
0.0
  0
LINE
  5
338
  8
0
  6
CONTINUOUS
 62
     7
 10
208.6443234524
 20
84.7508996861
 30
0.0
 11
209.1443234524
 21
85.2508996861
 31
0.0
  0
LINE
  5
339
  8
0
  6
CONTINUOUS
 62
     7
 10
208.6443234524
 20
84.7508996861
 30
0.0
 11
201.6443234524
 21
84.7508996861
 31
0.0
  0
LINE
  5
33A
  8
0
  6
CONTINUOUS
 62
     7
 10
201.1443234524
 20
87.7508996861
 30
0.0
 11
201.1443234524
 21
85.2508996861
 31
0.0
  0
LINE
  5
33B
  8
0
  6
CONTINUOUS
 62
     7
 10
209.1443234524
 20
87.7508996861
 30
0.0
 11
209.1443234524
 21
85.2508996861
 31
0.0
  0
LINE
  5
33C
  8
0
  6
CONTINUOUS
 62
     7
 10
208.6443234524
 20
88.2508996861
 30
0.0
 11
208.6443234524
 21
137.2508996861
 31
0.0
  0
LINE
  5
33D
  8
0
  6
CONTINUOUS
 62
     7
 10
208.6443234524
 20
137.2508996861
 30
0.0
 11
209.1443234524
 21
137.7508996861
 31
0.0
  0
LINE
  5
33E
  8
0
  6
CONTINUOUS
 62
     7
 10
209.1443234524
 20
137.7508996861
 30
0.0
 11
209.1443234524
 21
87.7508996861
 31
0.0
  0
LINE
  5
33F
  8
0
  6
CONTINUOUS
 62
     7
 10
201.6443234524
 20
137.2508996861
 30
0.0
 11
208.6443234524
 21
137.2508996861
 31
0.0
  0
LINE
  5
340
  8
0
  6
CONTINUOUS
 62
     7
 10
201.6443234524
 20
169.7508996861
 30
0.0
 11
201.1443234524
 21
169.2508996861
 31
0.0
  0
LINE
  5
341
  8
0
  6
CONTINUOUS
 62
     7
 10
201.6443234524
 20
169.7508996861
 30
0.0
 11
208.6443234524
 21
169.7508996861
 31
0.0
  0
LINE
  5
342
  8
0
  6
CONTINUOUS
 62
     7
 10
209.1443234524
 20
169.2508996861
 30
0.0
 11
208.6443234524
 21
169.7508996861
 31
0.0
  0
LINE
  5
343
  8
0
  6
CONTINUOUS
 62
     7
 10
201.1443234524
 20
169.2508996861
 30
0.0
 11
201.1443234524
 21
137.7508996861
 31
0.0
  0
LINE
  5
344
  8
0
  6
CONTINUOUS
 62
     7
 10
209.1443234524
 20
169.2508996861
 30
0.0
 11
209.1443234524
 21
137.7508996861
 31
0.0
  0
LINE
  5
345
  8
0
  6
CONTINUOUS
 62
     7
 10
131.6543234524
 20
169.7508996861
 30
0.0
 11
128.6543234524
 21
166.7508996861
 31
0.0
  0
LINE
  5
346
  8
0
  6
CONTINUOUS
 62
     7
 10
128.6543234524
 20
166.7508996861
 30
0.0
 11
108.6543234524
 21
166.7508996861
 31
0.0
  0
LINE
  5
347
  8
0
  6
CONTINUOUS
 62
     7
 10
108.6543234524
 20
166.7508996861
 30
0.0
 11
105.6543234524
 21
169.7508996861
 31
0.0
  0
LINE
  5
348
  8
0
  6
CONTINUOUS
 62
     7
 10
105.6543234524
 20
169.7508996861
 30
0.0
 11
131.6543234524
 21
169.7508996861
 31
0.0
  0
LINE
  5
349
  8
0
  6
CONTINUOUS
 62
     7
 10
108.6543234524
 20
166.7508996861
 30
0.0
 11
108.6543234524
 21
162.2508996861
 31
0.0
  0
LINE
  5
34A
  8
0
  6
CONTINUOUS
 62
     7
 10
128.6543234524
 20
162.2508996861
 30
0.0
 11
128.6543234524
 21
166.7508996861
 31
0.0
  0
LINE
  5
34B
  8
0
  6
CONTINUOUS
 62
     7
 10
108.6543234524
 20
162.2508996861
 30
0.0
 11
128.6543234524
 21
162.2508996861
 31
0.0
  0
LINE
  5
34C
  8
0
  6
CONTINUOUS
 62
     7
 10
95.1543234524
 20
165.7508996861
 30
0.0
 11
99.1543234524
 21
165.7508996861
 31
0.0
  0
LINE
  5
34D
  8
0
  6
CONTINUOUS
 62
     7
 10
95.1543234524
 20
165.7508996861
 30
0.0
 11
95.1543234524
 21
162.2508996861
 31
0.0
  0
LINE
  5
34E
  8
0
  6
CONTINUOUS
 62
     7
 10
94.6543234524
 20
161.7508996861
 30
0.0
 11
95.1543234524
 21
162.2508996861
 31
0.0
  0
LINE
  5
34F
  8
0
  6
CONTINUOUS
 62
     7
 10
88.6543234524
 20
162.2508996861
 30
0.0
 11
89.1543234524
 21
161.7508996861
 31
0.0
  0
LINE
  5
350
  8
0
  6
CONTINUOUS
 62
     7
 10
88.6543234524
 20
169.2508996861
 30
0.0
 11
88.6543234524
 21
162.2508996861
 31
0.0
  0
LINE
  5
351
  8
0
  6
CONTINUOUS
 62
     7
 10
89.1543234524
 20
169.7508996861
 30
0.0
 11
88.6543234524
 21
169.2508996861
 31
0.0
  0
LINE
  5
352
  8
0
  6
CONTINUOUS
 62
     7
 10
108.1543234524
 20
161.7508996861
 30
0.0
 11
108.6543234524
 21
162.2508996861
 31
0.0
  0
LINE
  5
353
  8
0
  6
CONTINUOUS
 62
     7
 10
99.1543234524
 20
162.2508996861
 30
0.0
 11
99.6543234524
 21
161.7508996861
 31
0.0
  0
LINE
  5
354
  8
0
  6
CONTINUOUS
 62
     7
 10
99.1543234524
 20
162.2508996861
 30
0.0
 11
99.1543234524
 21
165.7508996861
 31
0.0
  0
LINE
  5
355
  8
0
  6
CONTINUOUS
 62
     7
 10
89.1543234524
 20
169.7508996861
 30
0.0
 11
105.6543234524
 21
169.7508996861
 31
0.0
  0
LINE
  5
356
  8
0
  6
CONTINUOUS
 62
     7
 10
99.6543234524
 20
161.7508996861
 30
0.0
 11
108.1543234524
 21
161.7508996861
 31
0.0
  0
LINE
  5
357
  8
0
  6
CONTINUOUS
 62
     7
 10
89.1543234524
 20
161.7508996861
 30
0.0
 11
94.6543234524
 21
161.7508996861
 31
0.0
  0
LINE
  5
358
  8
0
  6
CONTINUOUS
 62
     7
 10
95.1543234524
 20
162.2508996861
 30
0.0
 11
99.1543234524
 21
162.2508996861
 31
0.0
  0
LINE
  5
359
  8
0
  6
CONTINUOUS
 62
     7
 10
99.6543234524
 20
161.7508996861
 30
0.0
 11
94.6543234524
 21
161.7508996861
 31
0.0
  0
LINE
  5
35A
  8
0
  6
CONTINUOUS
 62
     7
 10
128.6543234524
 20
162.2508996861
 30
0.0
 11
129.1543234524
 21
161.7508996861
 31
0.0
  0
LINE
  5
35B
  8
0
  6
CONTINUOUS
 62
     7
 10
129.1543234524
 20
161.7508996861
 30
0.0
 11
108.1543234524
 21
161.7508996861
 31
0.0
  0
LINE
  5
35C
  8
0
  6
CONTINUOUS
 62
     7
 10
137.1543234524
 20
165.7508996861
 30
0.0
 11
143.1543234524
 21
165.7508996861
 31
0.0
  0
LINE
  5
35D
  8
0
  6
CONTINUOUS
 62
     7
 10
137.1543234524
 20
165.7508996861
 30
0.0
 11
137.1543234524
 21
162.2508996861
 31
0.0
  0
LINE
  5
35E
  8
0
  6
CONTINUOUS
 62
     7
 10
136.6543234524
 20
161.7508996861
 30
0.0
 11
137.1543234524
 21
162.2508996861
 31
0.0
  0
LINE
  5
35F
  8
0
  6
CONTINUOUS
 62
     7
 10
144.4943234524
 20
169.7508996861
 30
0.0
 11
144.4943234524
 21
161.7508996861
 31
0.0
  0
LINE
  5
360
  8
0
  6
CONTINUOUS
 62
     7
 10
143.1543234524
 20
162.2508996861
 30
0.0
 11
143.6543234524
 21
161.7508996861
 31
0.0
  0
LINE
  5
361
  8
0
  6
CONTINUOUS
 62
     7
 10
143.1543234524
 20
162.2508996861
 30
0.0
 11
143.1543234524
 21
165.7508996861
 31
0.0
  0
LINE
  5
362
  8
0
  6
CONTINUOUS
 62
     7
 10
131.6543234524
 20
169.7508996861
 30
0.0
 11
144.4943234524
 21
169.7508996861
 31
0.0
  0
LINE
  5
363
  8
0
  6
CONTINUOUS
 62
     7
 10
129.1543234524
 20
161.7508996861
 30
0.0
 11
136.6543234524
 21
161.7508996861
 31
0.0
  0
LINE
  5
364
  8
0
  6
CONTINUOUS
 62
     7
 10
143.6543234524
 20
161.7508996861
 30
0.0
 11
144.4943234524
 21
161.7508996861
 31
0.0
  0
LINE
  5
365
  8
0
  6
CONTINUOUS
 62
     7
 10
183.6443234524
 20
162.2508996861
 30
0.0
 11
191.1443234524
 21
162.2508996861
 31
0.0
  0
LINE
  5
366
  8
0
  6
CONTINUOUS
 62
     7
 10
191.1443234524
 20
162.2508996861
 30
0.0
 11
191.6443234524
 21
161.7508996861
 31
0.0
  0
LINE
  5
367
  8
0
  6
CONTINUOUS
 62
     7
 10
191.6443234524
 20
161.7508996861
 30
0.0
 11
183.6443234524
 21
161.7508996861
 31
0.0
  0
LINE
  5
368
  8
0
  6
CONTINUOUS
 62
     7
 10
191.6443234524
 20
169.7508996861
 30
0.0
 11
191.1443234524
 21
169.2508996861
 31
0.0
  0
LINE
  5
369
  8
0
  6
CONTINUOUS
 62
     7
 10
201.1443234524
 20
169.2508996861
 30
0.0
 11
200.6443234524
 21
169.7508996861
 31
0.0
  0
LINE
  5
36A
  8
0
  6
CONTINUOUS
 62
     7
 10
201.1443234524
 20
162.2508996861
 30
0.0
 11
201.1443234524
 21
169.2508996861
 31
0.0
  0
LINE
  5
36B
  8
0
  6
CONTINUOUS
 62
     7
 10
200.6443234524
 20
161.7508996861
 30
0.0
 11
201.1443234524
 21
162.2508996861
 31
0.0
  0
LINE
  5
36C
  8
0
  6
CONTINUOUS
 62
     7
 10
191.1443234524
 20
162.2508996861
 30
0.0
 11
191.1443234524
 21
169.2508996861
 31
0.0
  0
LINE
  5
36D
  8
0
  6
CONTINUOUS
 62
     7
 10
191.6443234524
 20
169.7508996861
 30
0.0
 11
200.6443234524
 21
169.7508996861
 31
0.0
  0
LINE
  5
36E
  8
0
  6
CONTINUOUS
 62
     7
 10
191.6443234524
 20
161.7508996861
 30
0.0
 11
200.6443234524
 21
161.7508996861
 31
0.0
  0
LINE
  5
36F
  8
0
  6
CONTINUOUS
 62
     7
 10
153.6543234524
 20
169.2508996861
 30
0.0
 11
153.1543234524
 21
169.7508996861
 31
0.0
  0
LINE
  5
370
  8
0
  6
CONTINUOUS
 62
     7
 10
153.6543234524
 20
169.2508996861
 30
0.0
 11
153.6543234524
 21
162.2508996861
 31
0.0
  0
LINE
  5
371
  8
0
  6
CONTINUOUS
 62
     7
 10
153.1543234524
 20
161.7508996861
 30
0.0
 11
153.6543234524
 21
162.2508996861
 31
0.0
  0
LINE
  5
372
  8
0
  6
CONTINUOUS
 62
     7
 10
147.7943234524
 20
161.7508996861
 30
0.0
 11
147.7943234524
 21
169.7508996861
 31
0.0
  0
LINE
  5
373
  8
0
  6
CONTINUOUS
 62
     7
 10
147.7943234524
 20
169.7508996861
 30
0.0
 11
153.1543234524
 21
169.7508996861
 31
0.0
  0
LINE
  5
374
  8
0
  6
CONTINUOUS
 62
     7
 10
147.7943234524
 20
161.7508996861
 30
0.0
 11
153.1543234524
 21
161.7508996861
 31
0.0
  0
LINE
  5
375
  8
0
  6
CONTINUOUS
 62
     7
 10
191.1443234524
 20
169.2508996861
 30
0.0
 11
183.6443234524
 21
169.2508996861
 31
0.0
  0
LINE
  5
376
  8
0
  6
CONTINUOUS
 62
     7
 10
141.1543234524
 20
162.2508996861
 30
0.0
 11
143.1543234524
 21
162.2508996861
 31
0.0
  0
LINE
  5
377
  8
0
  6
CONTINUOUS
 62
     7
 10
183.6443234524
 20
169.7508996861
 30
0.0
 11
191.6443234524
 21
169.7508996861
 31
0.0
  0
LINE
  5
378
  8
0
  6
CONTINUOUS
 62
     7
 10
171.1443234524
 20
169.2508996861
 30
0.0
 11
170.6443234524
 21
169.7508996861
 31
0.0
  0
LINE
  5
379
  8
0
  6
CONTINUOUS
 62
     7
 10
171.1443234524
 20
169.2508996861
 30
0.0
 11
171.1443234524
 21
162.2508996861
 31
0.0
  0
LINE
  5
37A
  8
0
  6
CONTINUOUS
 62
     7
 10
170.6443234524
 20
161.7508996861
 30
0.0
 11
171.1443234524
 21
162.2508996861
 31
0.0
  0
LINE
  5
37B
  8
0
  6
CONTINUOUS
 62
     7
 10
167.7943234524
 20
161.7508996861
 30
0.0
 11
167.7943234524
 21
169.7508996861
 31
0.0
  0
LINE
  5
37C
  8
0
  6
CONTINUOUS
 62
     7
 10
167.7943234524
 20
169.7508996861
 30
0.0
 11
170.6443234524
 21
169.7508996861
 31
0.0
  0
LINE
  5
37D
  8
0
  6
CONTINUOUS
 62
     7
 10
167.7943234524
 20
161.7508996861
 30
0.0
 11
170.6443234524
 21
161.7508996861
 31
0.0
  0
LINE
  5
37E
  8
0
  6
CONTINUOUS
 62
     7
 10
171.1443234524
 20
162.2508996861
 30
0.0
 11
178.6443234524
 21
162.2508996861
 31
0.0
  0
LINE
  5
37F
  8
0
  6
CONTINUOUS
 62
     7
 10
178.6443234524
 20
161.7508996861
 30
0.0
 11
170.6443234524
 21
161.7508996861
 31
0.0
  0
LINE
  5
380
  8
0
  6
CONTINUOUS
 62
     7
 10
159.6543234524
 20
162.2508996861
 30
0.0
 11
159.6543234524
 21
169.2508996861
 31
0.0
  0
LINE
  5
381
  8
0
  6
CONTINUOUS
 62
     7
 10
160.1543234524
 20
169.7508996861
 30
0.0
 11
159.6543234524
 21
169.2508996861
 31
0.0
  0
LINE
  5
382
  8
0
  6
CONTINUOUS
 62
     7
 10
164.4943234524
 20
169.7508996861
 30
0.0
 11
164.4943234524
 21
161.7508996861
 31
0.0
  0
LINE
  5
383
  8
0
  6
CONTINUOUS
 62
     7
 10
159.6543234524
 20
162.2508996861
 30
0.0
 11
160.1543234524
 21
161.7508996861
 31
0.0
  0
LINE
  5
384
  8
0
  6
CONTINUOUS
 62
     7
 10
160.1543234524
 20
169.7508996861
 30
0.0
 11
164.4943234524
 21
169.7508996861
 31
0.0
  0
LINE
  5
385
  8
0
  6
CONTINUOUS
 62
     7
 10
160.1543234524
 20
161.7508996861
 30
0.0
 11
164.4943234524
 21
161.7508996861
 31
0.0
  0
LINE
  5
386
  8
0
  6
CONTINUOUS
 62
     7
 10
157.6543234524
 20
162.2508996861
 30
0.0
 11
159.6543234524
 21
162.2508996861
 31
0.0
  0
LINE
  5
387
  8
0
  6
CONTINUOUS
 62
     7
 10
160.1543234524
 20
161.7508996861
 30
0.0
 11
157.6543234524
 21
161.7508996861
 31
0.0
  0
LINE
  5
388
  8
0
  6
CONTINUOUS
 62
     7
 10
137.1543234524
 20
162.2508996861
 30
0.0
 11
139.1543234524
 21
162.2508996861
 31
0.0
  0
LINE
  5
389
  8
0
  6
CONTINUOUS
 62
     7
 10
147.7943234524
 20
169.7508996861
 30
0.0
 11
144.4943234524
 21
169.7508996861
 31
0.0
  0
LINE
  5
38A
  8
0
  6
CONTINUOUS
 62
     7
 10
147.7943234524
 20
161.7508996861
 30
0.0
 11
144.4943234524
 21
161.7508996861
 31
0.0
  0
LINE
  5
38B
  8
0
  6
CONTINUOUS
 62
     7
 10
143.6543234524
 20
161.7508996861
 30
0.0
 11
141.1543234524
 21
161.7508996861
 31
0.0
  0
LINE
  5
38C
  8
0
  6
CONTINUOUS
 62
     7
 10
159.6543234524
 20
169.2508996861
 30
0.0
 11
157.6543234524
 21
169.2508996861
 31
0.0
  0
LINE
  5
38D
  8
0
  6
CONTINUOUS
 62
     7
 10
167.7943234524
 20
169.7508996861
 30
0.0
 11
164.4943234524
 21
169.7508996861
 31
0.0
  0
LINE
  5
38E
  8
0
  6
CONTINUOUS
 62
     7
 10
167.7943234524
 20
161.7508996861
 30
0.0
 11
164.4943234524
 21
161.7508996861
 31
0.0
  0
LINE
  5
38F
  8
0
  6
CONTINUOUS
 62
     7
 10
139.1543234524
 20
161.7508996861
 30
0.0
 11
136.6543234524
 21
161.7508996861
 31
0.0
  0
LINE
  5
390
  8
0
  6
CONTINUOUS
 62
     7
 10
153.6543234524
 20
162.2508996861
 30
0.0
 11
155.6543234524
 21
162.2508996861
 31
0.0
  0
LINE
  5
391
  8
0
  6
CONTINUOUS
 62
     7
 10
155.6543234524
 20
161.7508996861
 30
0.0
 11
153.1543234524
 21
161.7508996861
 31
0.0
  0
LINE
  5
392
  8
0
  6
CONTINUOUS
 62
     7
 10
178.6443234524
 20
169.2508996861
 30
0.0
 11
171.1443234524
 21
169.2508996861
 31
0.0
  0
LINE
  5
393
  8
0
  6
CONTINUOUS
 62
     7
 10
155.6543234524
 20
169.2508996861
 30
0.0
 11
153.6543234524
 21
169.2508996861
 31
0.0
  0
LINE
  5
394
  8
0
  6
CONTINUOUS
 62
     7
 10
157.6543234524
 20
169.7508996861
 30
0.0
 11
160.1543234524
 21
169.7508996861
 31
0.0
  0
LINE
  5
395
  8
0
  6
CONTINUOUS
 62
     7
 10
153.1543234524
 20
169.7508996861
 30
0.0
 11
155.6543234524
 21
169.7508996861
 31
0.0
  0
LINE
  5
396
  8
0
  6
CONTINUOUS
 62
     7
 10
170.6443234524
 20
169.7508996861
 30
0.0
 11
178.6443234524
 21
169.7508996861
 31
0.0
  0
LINE
  5
397
  8
0
  6
CONTINUOUS
 62
     7
 10
139.1543234524
 20
162.2508996861
 30
0.0
 11
141.1543234524
 21
162.2508996861
 31
0.0
  0
LINE
  5
398
  8
0
  6
CONTINUOUS
 62
     7
 10
141.1543234524
 20
161.7508996861
 30
0.0
 11
139.1543234524
 21
161.7508996861
 31
0.0
  0
LINE
  5
399
  8
0
  6
CONTINUOUS
 62
     7
 10
157.6543234524
 20
169.2508996861
 30
0.0
 11
155.6543234524
 21
169.2508996861
 31
0.0
  0
LINE
  5
39A
  8
0
  6
CONTINUOUS
 62
     7
 10
155.6543234524
 20
169.7508996861
 30
0.0
 11
157.6543234524
 21
169.7508996861
 31
0.0
  0
LINE
  5
39B
  8
0
  6
CONTINUOUS
 62
     7
 10
155.6543234524
 20
162.2508996861
 30
0.0
 11
157.6543234524
 21
162.2508996861
 31
0.0
  0
LINE
  5
39C
  8
0
  6
CONTINUOUS
 62
     7
 10
157.6543234524
 20
161.7508996861
 30
0.0
 11
155.6543234524
 21
161.7508996861
 31
0.0
  0
LINE
  5
39D
  8
0
  6
CONTINUOUS
 62
     7
 10
178.6443234524
 20
162.2508996861
 30
0.0
 11
183.6443234524
 21
162.2508996861
 31
0.0
  0
LINE
  5
39E
  8
0
  6
CONTINUOUS
 62
     7
 10
183.6443234524
 20
161.7508996861
 30
0.0
 11
178.6443234524
 21
161.7508996861
 31
0.0
  0
LINE
  5
39F
  8
0
  6
CONTINUOUS
 62
     7
 10
183.6443234524
 20
169.2508996861
 30
0.0
 11
178.6443234524
 21
169.2508996861
 31
0.0
  0
LINE
  5
3A0
  8
0
  6
CONTINUOUS
 62
     7
 10
178.6443234524
 20
169.7508996861
 30
0.0
 11
183.6443234524
 21
169.7508996861
 31
0.0
  0
DIMENSION
  5
3A1
  8
DIM
  2
_D_19
 10
133.3829604746
 20
165.7508996861
 30
0.0
 11
133.3829604746
 21
155.8803279619
 31
0.0
 70
   160
  1
<>
  3
SLDDIMSTYLE1
 13
136.6543234524
 23
161.7508996861
 33
0.0
 14
137.1543234524
 24
165.7508996861
 34
0.0
 50
90.0
  0
DIMENSION
  5
3AC
  8
DIM
  2
_D_20
 10
99.1543234524
 20
148.5029703
 30
0.0
 11
78.6543234524
 21
148.5029703
 31
0.0
 70
   160
  1
%%c<>H8
  3
SLDDIMSTYLE4
 13
95.1543234524
 23
162.2508996861
 33
0.0
 14
99.1543234524
 24
162.2508996861
 34
0.0
  0
DIMENSION
  5
3C0
  8
DIM
  2
_D_21
 10
79.408397245
 20
165.7508996861
 30
0.0
 11
79.408397245
 21
172.4300812511
 31
0.0
 70
   160
  1
<>
  3
SLDDIMSTYLE1
 13
89.1543234524
 23
161.7508996861
 33
0.0
 14
95.1543234524
 24
165.7508996861
 34
0.0
 50
90.0
  0
TEXT
  5
3CC
  8
0
  6
CONTINUOUS
 62
     7
 10
145.5680671206
 20
176.6278810926
 30
0.0
 40
3.5
  1
A-A
 41
0.7
 11
145.5680671206
 21
175.3914708759
 31
0.0
 73
     1
  0
LINE
  5
3CD
  8
DIM
  6
CENTERX2
 10
140.1543234524
 20
157.2508996861
 30
0.0
 11
140.1543234524
 21
170.7508996861
 31
0.0
  0
LINE
  5
3CE
  8
DIM
  6
CENTERX2
 10
97.1543234524
 20
157.2508996861
 30
0.0
 11
97.1543234524
 21
170.7508996861
 31
0.0
  0
LINE
  5
3CF
  8
0
  6
CONTINUOUS
 62
     7
 10
208.6443234524
 20
19.4451579622
 30
0.0
 11
208.6443234524
 21
22.4451579622
 31
0.0
  0
LINE
  5
3D0
  8
0
  6
CONTINUOUS
 62
     7
 10
208.6443234524
 20
19.4451579622
 30
0.0
 11
201.6443234524
 21
19.4451579622
 31
0.0
  0
LINE
  5
3D1
  8
0
  6
CONTINUOUS
 62
     7
 10
201.6443234524
 20
22.4451579622
 30
0.0
 11
201.6443234524
 21
19.4451579622
 31
0.0
  0
LINE
  5
3D2
  8
0
  6
CONTINUOUS
 62
     7
 10
201.6443234524
 20
22.4451579622
 30
0.0
 11
208.6443234524
 21
22.4451579622
 31
0.0
  0
LINE
  5
3D3
  8
0
  6
CONTINUOUS
 62
     7
 10
201.1443234524
 20
19.9451579622
 30
0.0
 11
201.1443234524
 21
22.6522647433
 31
0.0
  0
LINE
  5
3D4
  8
0
  6
CONTINUOUS
 62
     7
 10
201.1443234524
 20
22.6522647433
 30
0.0
 11
201.6443234524
 21
22.4451579622
 31
0.0
  0
LINE
  5
3D5
  8
0
  6
CONTINUOUS
 62
     7
 10
201.6443234524
 20
19.4451579622
 30
0.0
 11
201.1443234524
 21
19.9451579622
 31
0.0
  0
LINE
  5
3D6
  8
0
  6
CONTINUOUS
 62
     7
 10
208.6443234524
 20
22.4451579622
 30
0.0
 11
209.1443234524
 21
22.6522647433
 31
0.0
  0
LINE
  5
3D7
  8
0
  6
CONTINUOUS
 62
     7
 10
209.1443234524
 20
22.6522647433
 30
0.0
 11
209.1443234524
 21
19.9451579622
 31
0.0
  0
LINE
  5
3D8
  8
0
  6
CONTINUOUS
 62
     7
 10
208.6443234524
 20
19.4451579622
 30
0.0
 11
209.1443234524
 21
19.9451579622
 31
0.0
  0
LINE
  5
3D9
  8
0
  6
CONTINUOUS
 62
     7
 10
201.1443234524
 20
22.6522647433
 30
0.0
 11
201.1443234524
 21
76.238051181
 31
0.0
  0
LINE
  5
3DA
  8
0
  6
CONTINUOUS
 62
     7
 10
201.1443234524
 20
76.238051181
 30
0.0
 11
201.6443234524
 21
76.4451579622
 31
0.0
  0
LINE
  5
3DB
  8
0
  6
CONTINUOUS
 62
     7
 10
201.6443234524
 20
76.4451579622
 30
0.0
 11
201.6443234524
 21
22.4451579622
 31
0.0
  0
LINE
  5
3DC
  8
0
  6
CONTINUOUS
 62
     7
 10
208.6443234524
 20
22.4451579622
 30
0.0
 11
208.6443234524
 21
76.4451579622
 31
0.0
  0
LINE
  5
3DD
  8
0
  6
CONTINUOUS
 62
     7
 10
208.6443234524
 20
76.4451579622
 30
0.0
 11
209.1443234524
 21
76.238051181
 31
0.0
  0
LINE
  5
3DE
  8
0
  6
CONTINUOUS
 62
     7
 10
209.1443234524
 20
76.238051181
 30
0.0
 11
209.1443234524
 21
22.6522647433
 31
0.0
  0
LINE
  5
3DF
  8
0
  6
CONTINUOUS
 62
     7
 10
208.6443234524
 20
76.4451579622
 30
0.0
 11
201.6443234524
 21
76.4451579622
 31
0.0
  0
LINE
  5
3E0
  8
0
  6
CONTINUOUS
 62
     7
 10
201.1443234524
 20
76.238051181
 30
0.0
 11
201.1443234524
 21
78.9451579622
 31
0.0
  0
LINE
  5
3E1
  8
0
  6
CONTINUOUS
 62
     7
 10
201.1443234524
 20
78.9451579622
 30
0.0
 11
201.6443234524
 21
79.4451579622
 31
0.0
  0
LINE
  5
3E2
  8
0
  6
CONTINUOUS
 62
     7
 10
201.6443234524
 20
79.4451579622
 30
0.0
 11
201.6443234524
 21
76.4451579622
 31
0.0
  0
LINE
  5
3E3
  8
0
  6
CONTINUOUS
 62
     7
 10
208.6443234524
 20
76.4451579622
 30
0.0
 11
208.6443234524
 21
79.4451579622
 31
0.0
  0
LINE
  5
3E4
  8
0
  6
CONTINUOUS
 62
     7
 10
208.6443234524
 20
79.4451579622
 30
0.0
 11
209.1443234524
 21
78.9451579622
 31
0.0
  0
LINE
  5
3E5
  8
0
  6
CONTINUOUS
 62
     7
 10
209.1443234524
 20
78.9451579622
 30
0.0
 11
209.1443234524
 21
76.238051181
 31
0.0
  0
LINE
  5
3E6
  8
0
  6
CONTINUOUS
 62
     7
 10
201.6443234524
 20
79.4451579622
 30
0.0
 11
208.6443234524
 21
79.4451579622
 31
0.0
  0
ARC
  5
3E7
  8
0
  6
CONTINUOUS
 62
     7
 10
118.6543234524
 20
49.4451579622
 30
0.0
 40
30.00000000000001
 50
90.0
 51
270.0
  0
ARC
  5
3E8
  8
0
  6
CONTINUOUS
 62
     7
 10
118.6543234524
 20
49.4451579622
 30
0.0
 40
29.50000000000001
 50
90.0
 51
270.0
  0
LINE
  5
3E9
  8
0
  6
CONTINUOUS
 62
     7
 10
200.6443234524
 20
19.4451579622
 30
0.0
 11
118.6543234524
 21
19.4451579622
 31
0.0
  0
LINE
  5
3EA
  8
0
  6
CONTINUOUS
 62
     7
 10
118.6543234524
 20
19.9451579622
 30
0.0
 11
200.6443234524
 21
19.9451579622
 31
0.0
  0
LINE
  5
3EB
  8
0
  6
CONTINUOUS
 62
     7
 10
200.6443234524
 20
19.9451579622
 30
0.0
 11
200.6443234524
 21
19.4451579622
 31
0.0
  0
LINE
  5
3EC
  8
0
  6
CONTINUOUS
 62
     7
 10
200.6443234524
 20
19.9451579622
 30
0.0
 11
201.1443234524
 21
19.9451579622
 31
0.0
  0
LINE
  5
3ED
  8
0
  6
CONTINUOUS
 62
     7
 10
201.1443234524
 20
19.9451579622
 30
0.0
 11
200.6443234524
 21
19.4451579622
 31
0.0
  0
CIRCLE
  5
3EE
  8
0
  6
CONTINUOUS
 62
     7
 10
100.034777271
 20
38.6951579622
 30
0.0
 40
1.699999999999989
  0
CIRCLE
  5
3EF
  8
0
  6
CONTINUOUS
 62
     7
 10
100.034777271
 20
60.1951579622
 30
0.0
 40
1.699999999999989
  0
CIRCLE
  5
3F0
  8
0
  6
CONTINUOUS
 62
     7
 10
118.6543234524
 20
70.9451579622
 30
0.0
 40
1.699999999999989
  0
CIRCLE
  5
3F1
  8
0
  6
CONTINUOUS
 62
     7
 10
137.2738696337
 20
60.1951579622
 30
0.0
 40
1.700000000000017
  0
CIRCLE
  5
3F2
  8
0
  6
CONTINUOUS
 62
     7
 10
137.2738696337
 20
38.6951579622
 30
0.0
 40
1.69999999999996
  0
CIRCLE
  5
3F3
  8
0
  6
CONTINUOUS
 62
     7
 10
118.6543234524
 20
27.9451579622
 30
0.0
 40
1.700000000000003
  0
CIRCLE
  5
3F4
  8
0
  6
CONTINUOUS
 62
     7
 10
166.1443234524
 20
49.4451579622
 30
0.0
 40
1.649999999999977
  0
CIRCLE
  5
3F5
  8
0
  6
CONTINUOUS
 62
     7
 10
146.1443234524
 20
49.4451579622
 30
0.0
 40
1.650000000000006
  0
LINE
  5
3F6
  8
0
  6
CONTINUOUS
 62
     7
 10
157.6543234524
 20
46.9451579622
 30
0.0
 11
155.6543234524
 21
46.9451579622
 31
0.0
  0
ARC
  5
3F7
  8
0
  6
CONTINUOUS
 62
     7
 10
157.6543234524
 20
49.4451579622
 30
0.0
 40
2.5
 50
270.0
 51
90.0
  0
LINE
  5
3F8
  8
0
  6
CONTINUOUS
 62
     7
 10
155.6543234524
 20
51.9451579622
 30
0.0
 11
157.6543234524
 21
51.9451579622
 31
0.0
  0
ARC
  5
3F9
  8
0
  6
CONTINUOUS
 62
     7
 10
155.6543234524
 20
49.4451579622
 30
0.0
 40
2.5
 50
90.0
 51
270.0
  0
CIRCLE
  5
3FA
  8
0
  6
CONTINUOUS
 62
     7
 10
118.6543234524
 20
49.4451579622
 30
0.0
 40
10.49999999999999
  0
LINE
  5
3FB
  8
0
  6
CONTINUOUS
 62
     7
 10
141.1543234524
 20
46.9451579622
 30
0.0
 11
139.1543234524
 21
46.9451579622
 31
0.0
  0
ARC
  5
3FC
  8
0
  6
CONTINUOUS
 62
     7
 10
141.1543234524
 20
49.4451579622
 30
0.0
 40
2.5
 50
270.0
 51
90.0
  0
LINE
  5
3FD
  8
0
  6
CONTINUOUS
 62
     7
 10
139.1543234524
 20
51.9451579622
 30
0.0
 11
141.1543234524
 21
51.9451579622
 31
0.0
  0
ARC
  5
3FE
  8
0
  6
CONTINUOUS
 62
     7
 10
139.1543234524
 20
49.4451579622
 30
0.0
 40
2.500000000000007
 50
90.0
 51
270.0
  0
CIRCLE
  5
3FF
  8
0
  6
CONTINUOUS
 62
     7
 10
97.1543234524
 20
49.4451579622
 30
0.0
 40
2.5
  0
LINE
  5
400
  8
0
  6
CONTINUOUS
 62
     7
 10
200.6443234524
 20
78.9451579622
 30
0.0
 11
118.6543234524
 21
78.9451579622
 31
0.0
  0
LINE
  5
401
  8
0
  6
CONTINUOUS
 62
     7
 10
200.6443234524
 20
19.9451579622
 30
0.0
 11
200.6443234524
 21
78.9451579622
 31
0.0
  0
LINE
  5
402
  8
0
  6
CONTINUOUS
 62
     7
 10
183.6443234524
 20
41.4451579622
 30
0.0
 11
178.6443234524
 21
41.4451579622
 31
0.0
  0
ARC
  5
403
  8
0
  6
CONTINUOUS
 62
     7
 10
183.6443234524
 20
49.4451579622
 30
0.0
 40
8.000000000000007
 50
270.0
 51
90.0
  0
LINE
  5
404
  8
0
  6
CONTINUOUS
 62
     7
 10
178.6443234524
 20
57.4451579622
 30
0.0
 11
183.6443234524
 21
57.4451579622
 31
0.0
  0
ARC
  5
405
  8
0
  6
CONTINUOUS
 62
     7
 10
178.6443234524
 20
49.4451579622
 30
0.0
 40
8.000000000000007
 50
90.0
 51
270.0
  0
LINE
  5
406
  8
0
  6
CONTINUOUS
 62
     7
 10
200.6443234524
 20
78.9451579622
 30
0.0
 11
201.1443234524
 21
78.9451579622
 31
0.0
  0
CIRCLE
  5
407
  8
0
  6
CONTINUOUS
 62
     7
 10
118.6543234524
 20
49.4451579622
 30
0.0
 40
9.999999999999986
  0
ARC
  5
408
  8
0
  6
CONTINUOUS
 62
     7
 10
183.6443234524
 20
49.4451579622
 30
0.0
 40
7.500000000000007
 50
270.0
 51
90.0
  0
LINE
  5
409
  8
0
  6
CONTINUOUS
 62
     7
 10
155.6543234524
 20
47.4451579622
 30
0.0
 11
157.6543234524
 21
47.4451579622
 31
0.0
  0
CIRCLE
  5
40A
  8
0
  6
CONTINUOUS
 62
     7
 10
97.1543234524
 20
49.4451579622
 30
0.0
 40
1.999999999999986
  0
LINE
  5
40B
  8
0
  6
CONTINUOUS
 62
     7
 10
178.6443234524
 20
41.9451579622
 30
0.0
 11
183.6443234524
 21
41.9451579622
 31
0.0
  0
ARC
  5
40C
  8
0
  6
CONTINUOUS
 62
     7
 10
141.1543234524
 20
49.4451579622
 30
0.0
 40
2.0
 50
270.0
 51
90.0
  0
ARC
  5
40D
  8
0
  6
CONTINUOUS
 62
     7
 10
178.6443234524
 20
49.4451579622
 30
0.0
 40
7.500000000000007
 50
90.0
 51
270.0
  0
ARC
  5
40E
  8
0
  6
CONTINUOUS
 62
     7
 10
139.1543234524
 20
49.4451579622
 30
0.0
 40
2.000000000000007
 50
90.0
 51
270.0
  0
LINE
  5
40F
  8
0
  6
CONTINUOUS
 62
     7
 10
139.1543234524
 20
47.4451579622
 30
0.0
 11
141.1543234524
 21
47.4451579622
 31
0.0
  0
ARC
  5
410
  8
0
  6
CONTINUOUS
 62
     7
 10
155.6543234524
 20
49.4451579622
 30
0.0
 40
2.0
 50
90.0
 51
270.0
  0
ARC
  5
411
  8
0
  6
CONTINUOUS
 62
     7
 10
157.6543234524
 20
49.4451579622
 30
0.0
 40
2.0
 50
270.0
 51
90.0
  0
LINE
  5
412
  8
0
  6
CONTINUOUS
 62
     7
 10
141.1543234524
 20
51.4451579622
 30
0.0
 11
139.1543234524
 21
51.4451579622
 31
0.0
  0
LINE
  5
413
  8
0
  6
CONTINUOUS
 62
     7
 10
157.6543234524
 20
51.4451579622
 30
0.0
 11
155.6543234524
 21
51.4451579622
 31
0.0
  0
LINE
  5
414
  8
0
  6
CONTINUOUS
 62
     7
 10
183.6443234524
 20
56.9451579622
 30
0.0
 11
178.6443234524
 21
56.9451579622
 31
0.0
  0
LINE
  5
415
  8
0
  6
CONTINUOUS
 62
     7
 10
118.6543234524
 20
79.4451579622
 30
0.0
 11
200.6443234524
 21
79.4451579622
 31
0.0
  0
LINE
  5
416
  8
0
  6
CONTINUOUS
 62
     7
 10
200.6443234524
 20
79.4451579622
 30
0.0
 11
200.6443234524
 21
78.9451579622
 31
0.0
  0
LINE
  5
417
  8
0
  6
CONTINUOUS
 62
     7
 10
200.6443234524
 20
79.4451579622
 30
0.0
 11
201.1443234524
 21
78.9451579622
 31
0.0
  0
LINE
  5
418
  8
0
  6
CENTERX2
 62
     7
 10
140.1543234524
 20
55.1776732759
 30
0.0
 11
140.1543234524
 21
43.0044453943
 31
0.0
  0
POINT
  5
419
  8
0
  6
CONTINUOUS
 62
     7
 10
143.1543234524
 20
49.4451579622
 30
0.0
  0
POINT
  5
41A
  8
0
  6
CONTINUOUS
 62
     7
 10
137.1543234524
 20
49.4451579622
 30
0.0
  0
DIMENSION
  5
41B
  8
DIM
  2
_D_22
 10
140.1543234524
 20
93.3501873143
 30
0.0
 11
118.6543234524
 21
93.3501873143
 31
0.0
 70
   160
  1
<>
  3
SLDDIMSTYLE0
 13
97.1543234524
 23
56.9451579622
 33
0.0
 14
140.1543234524
 24
55.1776732759
 34
0.0
  0
DIMENSION
  5
425
  8
DIM
  2
_D_23
 10
143.1543234524
 20
84.236597373
 30
0.0
 11
130.3270198211
 21
84.236597373
 31
0.0
 70
   160
  1
<>
  3
SLDDIMSTYLE1
 13
137.1543234524
 23
49.4451579622
 33
0.0
 14
143.1543234524
 24
49.4451579622
 34
0.0
  0
DIMENSION
  5
431
  8
DIM
  2
_D_24
 10
150.7990839248
 20
47.4451579622
 30
0.0
 11
150.7990839248
 21
98.2826849454
 31
0.0
 70
   160
  1
<>H8
  3
SLDDIMSTYLE4
 13
141.1543234524
 23
51.4451579622
 33
0.0
 14
141.1543234524
 24
47.4451579622
 34
0.0
 50
90.0
  0
INSERT
  5
44F
  8
DIM
  2
SW_CENTERMARKSYMBOL_5
 10
118.6543234524
 20
49.4451579622
 30
0.0
  0
INSERT
  5
45B
  8
DIM
  2
SW_CENTERMARKSYMBOL_6
 10
97.1543234524
 20
49.4451579622
 30
0.0
  0
ENDSEC
  0
EOF
