  0
SECTION
  2
HEADER
  9
$ACADVER
  1
AC1009
  9
$DWGCODEPAGE
  3
dos932
  9
$INSBASE
 10
0.0
 20
0.0
 30
0.0
  9
$EXTMIN
 10
0.0
 20
0.0
 30
0.0
  9
$EXTMAX
 10
420.0
 20
297.0
 30
0.0
  9
$LIMMIN
 10
0.0
 20
0.0
  9
$LIMMAX
 10
420.0
 20
297.0
  9
$ORTHOMODE
 70
     0
  9
$REGENMODE
 70
     1
  9
$FILLMODE
 70
     1
  9
$QTEXTMODE
 70
     0
  9
$MIRRTEXT
 70
     1
  9
$DRAGMODE
 70
     2
  9
$LTSCALE
 40
1.0
  9
$OSMODE
 70
    37
  9
$ATTMODE
 70
     1
  9
$TEXTSIZE
 40
3.5
  9
$TRACEWID
 40
1.0
  9
$TEXTSTYLE
  7
STANDARD
  9
$CLAYER
  8
0
  9
$CELTYPE
  6
BYLAYER
  9
$CECOLOR
 62
   256
  9
$DIMSCALE
 40
1.0
  9
$DIMASZ
 40
3.0
  9
$DIMEXO
 40
0.01
  9
$DIMDLI
 40
3.75
  9
$DIMRND
 40
0.0
  9
$DIMDLE
 40
0.0
  9
$DIMEXE
 40
1.0
  9
$DIMTP
 40
0.0
  9
$DIMTM
 40
0.0
  9
$DIMTXT
 40
3.5
  9
$DIMCEN
 40
2.5
  9
$DIMTSZ
 40
0.0
  9
$DIMTOL
 70
     0
  9
$DIMLIM
 70
     0
  9
$DIMTIH
 70
     1
  9
$DIMTOH
 70
     1
  9
$DIMSE1
 70
     0
  9
$DIMSE2
 70
     0
  9
$DIMTAD
 70
     1
  9
$DIMZIN
 70
     0
  9
$DIMBLK
  1

  9
$DIMASO
 70
     1
  9
$DIMSHO
 70
     1
  9
$DIMPOST
  1

  9
$DIMAPOST
  1

  9
$DIMALT
 70
     0
  9
$DIMALTD
 70
     3
  9
$DIMALTF
 40
0.0393700787
  9
$DIMLFAC
 40
1.0
  9
$DIMTOFL
 70
     1
  9
$DIMTVP
 40
0.0
  9
$DIMTIX
 70
     0
  9
$DIMSOXD
 70
     0
  9
$DIMSAH
 70
     0
  9
$DIMBLK1
  1

  9
$DIMBLK2
  1

  9
$DIMSTYLE
  2
ISO-25
  9
$DIMCLRD
 70
     0
  9
$DIMCLRE
 70
     0
  9
$DIMCLRT
 70
     0
  9
$DIMTFAC
 40
1.0
  9
$DIMGAP
 40
1.524
  9
$LUNITS
 70
     2
  9
$LUPREC
 70
     4
  9
$SKETCHINC
 40
1.0
  9
$FILLETRAD
 40
10.0
  9
$AUNITS
 70
     0
  9
$AUPREC
 70
     2
  9
$MENU
  1
.
  9
$ELEVATION
 40
0.0
  9
$PELEVATION
 40
0.0
  9
$THICKNESS
 40
0.0
  9
$LIMCHECK
 70
     0
  9
$CHAMFERA
 40
0.0
  9
$CHAMFERB
 40
0.0
  9
$SKPOLY
 70
     0
  9
$TDCREATE
 40
2460356.617894421
  9
$TDUPDATE
 40
2460356.617896921
  9
$TDINDWG
 40
0.0000000116
  9
$TDUSRTIMER
 40
0.0000000116
  9
$USRTIMER
 70
     1
  9
$ANGBASE
 50
0.0
  9
$ANGDIR
 70
     0
  9
$PDMODE
 70
     0
  9
$PDSIZE
 40
-1.0
  9
$PLINEWID
 40
0.0
  9
$COORDS
 70
     1
  9
$SPLFRAME
 70
     0
  9
$SPLINETYPE
 70
     6
  9
$SPLINESEGS
 70
     8
  9
$ATTDIA
 70
     0
  9
$ATTREQ
 70
     1
  9
$HANDLING
 70
     1
  9
$HANDSEED
  5
2CB
  9
$SURFTAB1
 70
     6
  9
$SURFTAB2
 70
     6
  9
$SURFTYPE
 70
     6
  9
$SURFU
 70
     6
  9
$SURFV
 70
     6
  9
$UCSNAME
  2

  9
$UCSORG
 10
0.0
 20
0.0
 30
0.0
  9
$UCSXDIR
 10
1.0
 20
0.0
 30
0.0
  9
$UCSYDIR
 10
0.0
 20
1.0
 30
0.0
  9
$PUCSNAME
  2

  9
$PUCSORG
 10
0.0
 20
0.0
 30
0.0
  9
$PUCSXDIR
 10
1.0
 20
0.0
 30
0.0
  9
$PUCSYDIR
 10
0.0
 20
1.0
 30
0.0
  9
$USERI1
 70
     0
  9
$USERI2
 70
     0
  9
$USERI3
 70
     0
  9
$USERI4
 70
     0
  9
$USERI5
 70
     0
  9
$USERR1
 40
0.0
  9
$USERR2
 40
0.0
  9
$USERR3
 40
0.0
  9
$USERR4
 40
0.0
  9
$USERR5
 40
0.0
  9
$WORLDVIEW
 70
     1
  9
$SHADEDGE
 70
     3
  9
$SHADEDIF
 70
    70
  9
$TILEMODE
 70
     1
  9
$MAXACTVP
 70
    64
  9
$PLIMCHECK
 70
     0
  9
$PEXTMIN
 10
1.0000000000E+20
 20
1.0000000000E+20
 30
1.0000000000E+20
  9
$PEXTMAX
 10
-1.0000000000E+20
 20
-1.0000000000E+20
 30
-1.0000000000E+20
  9
$PLIMMIN
 10
0.0
 20
0.0
  9
$PLIMMAX
 10
420.0
 20
297.0
  9
$UNITMODE
 70
     0
  9
$VISRETAIN
 70
     1
  9
$PLINEGEN
 70
     0
  9
$PSLTSCALE
 70
     1
  0
ENDSEC
  0
SECTION
  2
TABLES
  0
TABLE
  2
VPORT
 70
     1
  0
VPORT
  2
*ACTIVE
 70
     0
 10
0.0
 20
0.0
 11
1.0
 21
1.0
 12
210.0
 22
148.5
 13
0.0
 23
0.0
 14
10.0
 24
10.0
 15
10.0
 25
10.0
 16
0.0
 26
0.0
 36
1.0
 17
0.0
 27
0.0
 37
0.0
 40
297.0
 41
1.4141414141
 42
50.0
 43
0.0
 44
0.0
 50
0.0
 51
0.0
 71
     0
 72
  2000
 73
     1
 74
     3
 75
     0
 76
     0
 77
     0
 78
     0
  0
ENDTAB
  0
TABLE
  2
LTYPE
 70
     6
  0
LTYPE
  2
CONTINUOUS
 70
     0
  3
Solid line
 72
    65
 73
     0
 40
0.0
  0
LTYPE
  2
HIDDEN
 70
     0
  3
Hidden __ __ __ __ __ __ __ __ __ __ __ __ __ __
 72
    65
 73
     2
 40
1.905
 49
1.27
 49
-0.635
  0
LTYPE
  2
PHANTOM
 70
     0
  3
Phantom ______  __  __  ______  __  __  ______
 72
    65
 73
     6
 40
12.7
 49
6.35
 49
-1.27
 49
1.27
 49
-1.27
 49
1.27
 49
-1.27
  0
LTYPE
  2
CENTER
 70
     0
  3
Center ____ _ ____ _ ____ _ ____ _ ____ _ ____
 72
    65
 73
     4
 40
10.16
 49
6.35
 49
-1.27
 49
1.27
 49
-1.27
  0
LTYPE
  2
CENTERX2
 70
     0
  3
Center (2x) ________  __  ________  __  _____
 72
    65
 73
     4
 40
20.32
 49
12.7
 49
-2.54
 49
2.54
 49
-2.54
  0
LTYPE
  2
DOT2
 70
     0
  3
Dot (.5x) ........................................
 72
    65
 73
     2
 40
0.635
 49
0.0
 49
-0.635
  0
ENDTAB
  0
TABLE
  2
LAYER
 70
     4
  0
LAYER
  2
0
 70
     0
 62
     7
  6
CONTINUOUS
  0
LAYER
  2
DIM
 70
     0
 62
     7
  6
CONTINUOUS
  0
LAYER
  2
TXT
 70
     0
 62
     7
  6
CONTINUOUS
  0
LAYER
  2
FRAME
 70
     0
 62
     7
  6
CONTINUOUS
  0
ENDTAB
  0
TABLE
  2
STYLE
 70
     1
  0
STYLE
  2
STANDARD
 70
     0
 40
0.0
 41
1.0
 50
0.0
 71
     0
 42
3.5
  3
txt
  4
bigfont
  0
ENDTAB
  0
TABLE
  2
VIEW
 70
     0
  0
ENDTAB
  0
TABLE
  2
UCS
 70
     0
  0
ENDTAB
  0
TABLE
  2
APPID
 70
     1
  0
APPID
  2
ACAD
 70
     0
  0
ENDTAB
  0
TABLE
  2
DIMSTYLE
 70
    10
  0
DIMSTYLE
  2
ISO-25
 70
     0
  3

  4

  5

  6

  7

 40
1.0
 41
2.5
 42
0.625
 43
3.75
 44
1.25
 45
0.0
 46
0.0
 47
0.0
 48
0.0
140
2.5
141
2.5
142
0.0
143
0.0393700787
144
1.0
145
0.0
146
1.0
147
0.625
 71
     0
 72
     0
 73
     0
 74
     0
 75
     0
 76
     0
 77
     1
 78
     8
170
     0
171
     3
172
     1
173
     0
174
     0
175
     0
176
     0
177
     0
178
     0
  0
DIMSTYLE
  2
SLDDIMSTYLE0
 70
     0
  3

  4

  5

  6
OPEN30
  7
OPEN30
 40
1.0
 41
3.0
 42
0.0625
 43
0.38
 44
0.0
 45
0.000000001
 46
0.0
 47
0.0
 48
0.0
140
3.5
141
0.09
142
0.0
143
25.4
144
1.0
145
0.0
146
1.0
147
0.875
 71
     0
 72
     0
 73
     0
 74
     0
 75
     0
 76
     0
 77
     3
 78
    12
170
     0
171
     2
172
     0
173
     1
174
     0
175
     0
176
     0
177
     0
178
     0
  0
DIMSTYLE
  2
SLDDIMSTYLE1
 70
     0
  3

  4

  5

  6
OPEN30
  7
OPEN30
 40
1.0
 41
3.0
 42
0.0625
 43
0.38
 44
0.0
 45
0.000000001
 46
0.0
 47
0.0
 48
0.0
140
3.5
141
0.0
142
0.0
143
25.4
144
1.0
145
0.0
146
1.0
147
0.875
 71
     0
 72
     0
 73
     0
 74
     0
 75
     0
 76
     0
 77
     3
 78
    12
170
     0
171
     2
172
     1
173
     1
174
     0
175
     0
176
     0
177
     0
178
     0
  0
DIMSTYLE
  2
SLDDIMSTYLE2
 70
     0
  3

  4

  5

  6
NONE
  7
OPEN30
 40
1.0
 41
3.0
 42
0.0625
 43
0.38
 44
0.0
 45
0.000000001
 46
0.0
 47
0.0
 48
0.0
140
3.5
141
0.0
142
0.0
143
25.4
144
1.0
145
0.0
146
1.0
147
0.875
 71
     0
 72
     0
 73
     0
 74
     0
 75
     0
 76
     0
 77
     3
 78
    12
170
     0
171
     2
172
     1
173
     1
174
     0
175
     0
176
     0
177
     0
178
     0
  0
DIMSTYLE
  2
SLDDIMSTYLE3
 70
     0
  3

  4

  5

  6
NONE
  7
OPEN30
 40
1.0
 41
3.0
 42
0.0625
 43
0.38
 44
0.0
 45
0.000000001
 46
0.0
 47
0.018
 48
0.0
140
3.5
141
0.0
142
0.0
143
25.4
144
1.0
145
0.0
146
1.0
147
0.875
 71
     1
 72
     0
 73
     1
 74
     1
 75
     0
 76
     0
 77
     0
 78
    12
170
     0
171
     2
172
     1
173
     1
174
     0
175
     0
176
     0
177
     0
178
     0
  0
DIMSTYLE
  2
SLDDIMSTYLE4
 70
     0
  3
<>
  4

  5

  6
NONE
  7
OPEN30
 40
1.0
 41
3.0
 42
0.0625
 43
0.38
 44
0.0
 45
0.000000001
 46
0.0
 47
0.0
 48
0.0
140
3.5
141
0.0
142
0.0
143
25.4
144
1.0
145
0.0
146
1.0
147
0.875
 71
     0
 72
     0
 73
     1
 74
     1
 75
     0
 76
     0
 77
     0
 78
    12
170
     0
171
     2
172
     1
173
     1
174
     0
175
     0
176
     0
177
     0
178
     0
  0
DIMSTYLE
  2
SLDDIMSTYLE5
 70
     0
  3

  4

  5

  6
OPEN30
  7
OPEN30
 40
1.0
 41
3.0
 42
0.0625
 43
0.38
 44
0.0
 45
0.000000001
 46
0.0
 47
0.033
 48
0.0
140
3.5
141
0.09
142
0.0
143
25.4
144
1.0
145
0.0
146
1.0
147
0.875
 71
     1
 72
     0
 73
     0
 74
     0
 75
     0
 76
     0
 77
     3
 78
    12
170
     0
171
     2
172
     1
173
     1
174
     0
175
     0
176
     0
177
     0
178
     0
  0
DIMSTYLE
  2
SLDDIMSTYLE6
 70
     0
  3

  4

  5

  6
OPEN30
  7
OPEN30
 40
1.0
 41
3.0
 42
0.0625
 43
0.38
 44
0.0
 45
0.000000001
 46
0.0
 47
0.0
 48
0.0
140
3.5
141
0.09
142
0.0
143
25.4
144
1.0
145
0.0
146
1.0
147
0.875
 71
     0
 72
     0
 73
     0
 74
     0
 75
     0
 76
     0
 77
     3
 78
    12
170
     0
171
     2
172
     1
173
     1
174
     0
175
     0
176
     0
177
     0
178
     0
  0
DIMSTYLE
  2
SLDDIMSTYLE7
 70
     0
  3

  4

  5

  6
OPEN30
  7
OPEN30
 40
1.0
 41
3.0
 42
0.0625
 43
0.38
 44
0.0
 45
0.000000001
 46
0.0
 47
0.039
 48
0.0
140
3.5
141
0.09
142
0.0
143
25.4
144
1.0
145
0.0
146
1.0
147
0.875
 71
     1
 72
     0
 73
     0
 74
     0
 75
     0
 76
     0
 77
     3
 78
    12
170
     0
171
     2
172
     1
173
     1
174
     0
175
     0
176
     0
177
     0
178
     0
  0
DIMSTYLE
  2
SLDDIMSTYLE8
 70
     0
  3

  4

  5

  6
NONE
  7
OPEN30
 40
1.0
 41
3.0
 42
0.0625
 43
0.38
 44
0.0
 45
0.000000001
 46
0.0
 47
0.0
 48
0.0
140
3.5
141
0.0
142
0.0
143
25.4
144
1.0
145
0.0
146
1.0
147
0.875
 71
     0
 72
     0
 73
     1
 74
     1
 75
     0
 76
     0
 77
     0
 78
    12
170
     0
171
     2
172
     1
173
     1
174
     0
175
     0
176
     0
177
     0
178
     0
  0
ENDTAB
  0
ENDSEC
  0
SECTION
  2
BLOCKS
  0
BLOCK
  8
0
  2
$MODEL_SPACE
 70
     0
 10
0.0
 20
0.0
 30
0.0
  3
$MODEL_SPACE
  1

  0
ENDBLK
  5
21
  8
0
  0
BLOCK
 67
     1
  8
0
  2
$PAPER_SPACE
 70
     0
 10
0.0
 20
0.0
 30
0.0
  3
$PAPER_SPACE
  1

  0
ENDBLK
  5
1D
 67
     1
  8
0
  0
BLOCK
  8
0
  2
_OPEN30
 70
     0
 10
0.0
 20
0.0
 30
0.0
  3
_OPEN30
  1

  0
LINE
  5
C3
  8
0
  6
BYBLOCK
 62
     0
 10
-1.0
 20
0.267949
 30
0.0
 11
0.0
 21
0.0
 31
0.0
  0
LINE
  5
C4
  8
0
  6
BYBLOCK
 62
     0
 10
0.0
 20
0.0
 30
0.0
 11
-1.0
 21
-0.267949
 31
0.0
  0
LINE
  5
C5
  8
0
  6
BYBLOCK
 62
     0
 10
0.0
 20
0.0
 30
0.0
 11
-1.0
 21
0.0
 31
0.0
  0
ENDBLK
  5
C2
  8
0
  0
BLOCK
  8
0
  2
_D
 70
     0
 10
0.0
 20
0.0
 30
0.0
  3
_D
  1

  0
INSERT
  5
C9
  8
DIM
  2
_OPEN30
 10
196.9403103986
 20
241.28579964
 30
0.0
 41
3.0
 42
3.0
 50
90.0
  0
INSERT
  5
CA
  8
DIM
  2
_OPEN30
 10
196.9403103986
 20
213.28579964
 30
0.0
 41
3.0
 42
3.0
 50
270.0
  0
LINE
  5
CB
  8
DIM
 10
161.5250655882
 20
241.28579964
 30
0.0
 11
197.9403103986
 21
241.28579964
 31
0.0
  0
LINE
  5
CC
  8
DIM
 10
196.9403103986
 20
241.28579964
 30
0.0
 11
196.9403103986
 21
213.28579964
 31
0.0
  0
TEXT
  5
CD
  8
DIM
 10
195.7039004147
 20
225.2489941425
 30
0.0
 40
3.5
  1
28
 50
90.0
 41
0.7
 11
196.9403106314
 21
225.2489941425
 31
0.0
 73
     1
  0
ENDBLK
  5
C8
  8
0
  0
BLOCK
  8
0
  2
_D_1
 70
     0
 10
0.0
 20
0.0
 30
0.0
  3
_D_1
  1

  0
INSERT
  5
D2
  8
DIM
  2
_OPEN30
 10
122.2650655882
 20
261.2392515424
 30
-34.4477344808
 41
3.0
 42
3.0
 50
180.0
  0
INSERT
  5
D3
  8
DIM
  2
_OPEN30
 10
185.2650655882
 20
261.2392515424
 30
-34.4477344808
 41
3.0
 42
3.0
 50
0.0
  0
LINE
  5
D4
  8
DIM
 10
122.2650655882
 20
213.29579964
 30
0.0
 11
122.2650655882
 21
262.2392515424
 31
0.0
  0
LINE
  5
D5
  8
DIM
 10
185.2650655882
 20
213.29579964
 30
0.0
 11
185.2650655882
 21
262.2392515424
 31
0.0
  0
LINE
  5
D6
  8
DIM
 10
122.2650655882
 20
261.2392515424
 30
0.0
 11
185.2650655882
 21
261.2392515424
 31
0.0
  0
TEXT
  5
D7
  8
DIM
 10
149.7932947168
 20
262.4756619919
 30
-34.4477344808
 40
3.5
  1
%%c
 41
0.7
 11
149.7932947168
 21
261.2392517752
 31
-34.4477344808
 73
     1
  0
TEXT
  5
D8
  8
DIM
 10
153.6632252319
 20
262.4756619919
 30
-34.4477344808
 40
3.5
  1
63
 41
0.7
 11
153.6632252319
 21
261.2392517752
 31
-34.4477344808
 73
     1
  0
ENDBLK
  5
D1
  8
0
  0
BLOCK
  8
0
  2
_D_2
 70
     0
 10
0.0
 20
0.0
 30
0.0
  3
_D_2
  1

  0
INSERT
  5
DE
  8
DIM
  2
_OPEN30
 10
145.8900655882
 20
199.6458995304
 30
-34.4477344808
 41
3.0
 42
3.0
 50
240.0
  0
INSERT
  5
DF
  8
DIM
  2
_OPEN30
 10
161.6400655882
 20
226.9256997496
 30
-34.4477344808
 41
3.0
 42
3.0
 50
60.0
  0
LINE
  5
E0
  8
DIM
 10
161.6400655882
 20
226.9256997496
 30
0.0
 11
178.1074311313
 21
255.448013537
 31
0.0
  0
LINE
  5
E1
  8
DIM
 10
161.6400655882
 20
226.9256997496
 30
0.0
 11
145.8900655882
 21
199.6458995304
 31
0.0
  0
TEXT
  5
E2
  8
DIM
 10
171.0310595439
 20
245.6573463795
 30
-34.4477344808
 40
3.5
  1
%%c
 50
60.0
 41
0.7
 11
172.1018222011
 21
245.0391412711
 31
-34.4477344808
 73
     1
  0
TEXT
  5
E3
  8
DIM
 10
172.9660248014
 20
249.0088045164
 30
-34.4477344808
 40
3.5
  1
31.5
 50
60.0
 41
0.7
 11
174.0367874586
 21
248.390599408
 31
-34.4477344808
 73
     1
  0
ENDBLK
  5
DD
  8
0
  0
BLOCK
  8
0
  2
_NONE
 70
     0
 10
0.0
 20
0.0
 30
0.0
  3
_NONE
  1

  0
ENDBLK
  5
E8
  8
0
  0
BLOCK
  8
0
  2
_D_3
 70
     0
 10
0.0
 20
0.0
 30
0.0
  3
_D_3
  1

  0
INSERT
  5
EC
  8
DIM
  2
_OPEN30
 10
151.8165084297
 20
242.41079964
 30
-34.4477344808
 41
3.0
 42
3.0
 50
330.0
  0
LINE
  5
ED
  8
DIM
 10
151.8165084297
 20
242.41079964
 30
0.0
 11
133.9602013019
 21
252.720143367
 31
0.0
  0
LINE
  5
EE
  8
DIM
 10
151.8165084297
 20
242.41079964
 30
0.0
 11
155.7136227468
 21
240.16079964
 31
0.0
  0
TEXT
  5
EF
  8
DIM
 10
134.5688733036
 20
253.7743941991
 30
-34.4477344808
 40
3.5
  1
%%c
 50
-30.0
 41
0.7
 11
133.9506681953
 21
252.7036315419
 31
-34.4477344808
 73
     1
  0
TEXT
  5
F0
  8
DIM
 10
137.9203314405
 20
251.8394289415
 30
-34.4477344808
 40
3.5
  1
4.5
 50
-30.0
 41
0.7
 11
137.3021263322
 21
250.7686662843
 31
-34.4477344808
 73
     1
  0
ENDBLK
  5
EB
  8
0
  0
BLOCK
  8
0
  2
_D_4
 70
     0
 10
0.0
 20
0.0
 30
0.0
  3
_D_4
  1

  0
ARC
  5
F6
  8
DIM
 10
105.8175789414
 20
236.0207281943
 30
0.0
 40
6.37621018554247
 50
153.4349488229
 51
206.5650511771
  0
ARC
  5
F7
  8
DIM
 10
102.9660508258
 20
236.0207281943
 30
0.0
 40
6.37621018554247
 50
333.4349488229
 51
26.5650511771
  0
INSERT
  5
F8
  8
DIM
  2
_OPEN30
 10
135.8500020788
 20
214.53579964
 30
-34.4477344808
 41
3.0
 42
3.0
 50
330.0
  0
LINE
  5
F9
  8
DIM
 10
135.8500020788
 20
214.53579964
 30
0.0
 11
110.9297627648
 21
228.9235065162
 31
0.0
  0
LINE
  5
FA
  8
DIM
 10
140.1801290977
 20
212.03579964
 30
0.0
 11
135.8500020788
 21
214.53579964
 31
0.0
  0
LINE
  5
FB
  8
DIM
 10
110.9297627648
 20
228.9235065162
 30
0.0
 11
81.3138006826
 21
228.9235065162
 31
0.0
  0
TEXT
  5
FC
  8
DIM
 10
81.3138006826
 20
234.2335274951
 30
-34.4477344808
 40
3.5
  1
3x
 41
0.7
 11
81.3138006826
 21
232.9971172783
 31
-34.4477344808
 73
     1
  0
TEXT
  5
FD
  8
DIM
 10
85.3874116776
 20
234.2335274951
 30
-34.4477344808
 40
3.5
  1
%%c
 41
0.7
 11
85.3874116776
 21
232.9971172783
 31
-34.4477344808
 73
     1
  0
TEXT
  5
FE
  8
DIM
 10
89.2573424255
 20
234.2335274951
 30
-34.4477344808
 40
3.5
  1
5
 41
0.7
 11
89.2573424255
 21
232.9971172783
 31
-34.4477344808
 73
     1
  0
TEXT
  5
FF
  8
DIM
 10
91.2941476901
 20
234.2335274951
 30
-34.4477344808
 40
3.5
  1
 H8 
 41
0.525
 11
91.2941476901
 21
232.9971172783
 31
-34.4477344808
 73
     1
  0
TEXT
  5
100
  8
DIM
 10
100.1145231759
 20
236.8862154333
 30
-34.4477344808
 40
2.45
  1
+
 41
0.7
 11
100.1145231759
 21
236.0207282816
 31
-34.4477344808
 73
     1
  0
TEXT
  5
101
  8
DIM
 10
100.1145231759
 20
234.0346875506
 30
-34.4477344808
 40
2.45
  1
 
 41
0.7
 11
100.1145231759
 21
233.1692003989
 31
-34.4477344808
 73
     1
  0
TEXT
  5
102
  8
DIM
 10
101.5402871173
 20
236.8862154333
 30
-34.4477344808
 40
2.45
  1
0.018
 41
0.7
 11
101.5402871173
 21
236.0207282816
 31
-34.4477344808
 73
     1
  0
TEXT
  5
103
  8
DIM
 10
101.5402871173
 20
234.0346875506
 30
-34.4477344808
 40
2.45
  1
0
 41
0.7
 11
101.5402871173
 21
233.1692003989
 31
-34.4477344808
 73
     1
  0
TEXT
  5
104
  8
DIM
 10
81.3138006826
 20
230.1599160344
 30
-34.4477344808
 40
3.5
  1
(e,f,g)
 41
0.7
 11
81.3138006826
 21
228.9235058177
 31
-34.4477344808
 73
     1
  0
ENDBLK
  5
F5
  8
0
  0
BLOCK
  8
0
  2
_D_5
 70
     0
 10
0.0
 20
0.0
 30
0.0
  3
_D_5
  1

  0
INSERT
  5
10A
  8
DIM
  2
_OPEN30
 10
166.3869216324
 20
200.6639435958
 30
-34.4477344808
 41
3.0
 42
3.0
 50
135.0
  0
LINE
  5
10B
  8
DIM
 10
166.3869216324
 20
200.6639435958
 30
0.0
 11
181.627404028
 21
185.4234612003
 31
0.0
  0
LINE
  5
10C
  8
DIM
 10
163.4170731514
 20
203.6337920768
 30
0.0
 11
166.3869216324
 21
200.6639435958
 31
0.0
  0
LINE
  5
10D
  8
DIM
 10
181.627404028
 20
185.4234612003
 30
0.0
 11
209.6933789877
 21
185.4234612003
 31
0.0
  0
TEXT
  5
10E
  8
DIM
 10
183.214904028
 20
186.6598711842
 30
-34.4477344808
 40
3.5
  1
4x
 41
0.7
 11
183.214904028
 21
185.4234609674
 31
-34.4477344808
 73
     1
  0
TEXT
  5
10F
  8
DIM
 10
187.2885150229
 20
186.6598711842
 30
-34.4477344808
 40
3.5
  1
M5
 41
0.7
 11
187.2885150229
 21
185.4234609674
 31
-34.4477344808
 73
     1
  0
TEXT
  5
110
  8
DIM
 10
191.3621260179
 20
186.6598711842
 30
-34.4477344808
 40
3.5
  1
(a,b,c,d)
 41
0.7
 11
191.3621260179
 21
185.4234609674
 31
-34.4477344808
 73
     1
  0
ENDBLK
  5
109
  8
0
  0
BLOCK
  8
0
  2
SW_CENTERMARKSYMBOL_0
 70
     0
 10
0.0
 20
0.0
 30
0.0
  3
SW_CENTERMARKSYMBOL_0
  1

  0
LINE
  5
114
  8
DIM
 62
     0
 10
0.0
 20
0.0
 30
0.0
 11
0.0
 21
5.0
 31
0.0
  0
LINE
  5
115
  8
DIM
 62
     0
 10
0.0
 20
0.0
 30
0.0
 11
-5.0
 21
0.0
 31
0.0
  0
LINE
  5
116
  8
DIM
 62
     0
 10
0.0
 20
0.0
 30
0.0
 11
0.0
 21
-5.0
 31
0.0
  0
LINE
  5
117
  8
DIM
 62
     0
 10
0.0
 20
0.0
 30
0.0
 11
5.0
 21
0.0
 31
0.0
  0
LINE
  5
118
  8
DIM
 62
     0
 10
0.0
 20
10.0
 30
0.0
 11
0.0
 21
36.0
 31
0.0
  0
LINE
  5
119
  8
DIM
 62
     0
 10
-10.0
 20
0.0
 30
0.0
 11
-36.0
 21
0.0
 31
0.0
  0
LINE
  5
11A
  8
DIM
 62
     0
 10
0.0
 20
-10.0
 30
0.0
 11
0.0
 21
-36.0
 31
0.0
  0
LINE
  5
11B
  8
DIM
 62
     0
 10
10.0
 20
0.0
 30
0.0
 11
36.0
 21
0.0
 31
0.0
  0
ENDBLK
  5
113
  8
0
  0
BLOCK
  8
0
  2
SW_CENTERMARKSYMBOL_1
 70
     0
 10
0.0
 20
0.0
 30
0.0
  3
SW_CENTERMARKSYMBOL_1
  1

  0
ARC
  5
120
  8
DIM
 62
     0
 10
11.1369318037
 20
-11.1369318037
 30
0.0
 40
15.75000000000001
 50
135.0
 51
153.1891363534
  0
ARC
  5
121
  8
DIM
 62
     0
 10
11.1369318037
 20
-11.1369318037
 30
0.0
 40
15.75000000000001
 50
116.8108636466
 51
135.0
  0
ARC
  5
122
  8
DIM
 62
     0
 10
11.1369318037
 20
-11.1369318037
 30
0.0
 40
15.75000000000001
 50
225.0
 51
243.1891363534
  0
ARC
  5
123
  8
DIM
 62
     0
 10
11.1369318037
 20
-11.1369318037
 30
0.0
 40
15.75000000000001
 50
206.8108636466
 51
225.0
  0
ARC
  5
124
  8
DIM
 62
     0
 10
11.1369318037
 20
-11.1369318037
 30
0.0
 40
15.75000000000001
 50
315.0
 51
333.1891363534
  0
ARC
  5
125
  8
DIM
 62
     0
 10
11.1369318037
 20
-11.1369318037
 30
0.0
 40
15.75000000000001
 50
296.8108636466
 51
315.0
  0
ARC
  5
126
  8
DIM
 62
     0
 10
11.1369318037
 20
-11.1369318037
 30
0.0
 40
15.75000000000001
 50
45.0
 51
63.1891363534
  0
ARC
  5
127
  8
DIM
 62
     0
 10
11.1369318037
 20
-11.1369318037
 30
0.0
 40
15.75000000000001
 50
26.8108636466
 51
45.0
  0
ARC
  5
128
  8
DIM
 62
     0
 10
11.1369318037
 20
-11.1369318037
 30
0.0
 40
15.75000000000001
 50
171.3782727067
 51
188.6217272933
  0
ARC
  5
129
  8
DIM
 62
     0
 10
11.1369318037
 20
-11.1369318037
 30
0.0
 40
15.75000000000001
 50
261.3782727067
 51
278.6217272933
  0
ARC
  5
12A
  8
DIM
 62
     0
 10
11.1369318037
 20
-11.1369318037
 30
0.0
 40
15.75
 50
81.3782727067
 51
98.6217272933
  0
ARC
  5
12B
  8
DIM
 62
     0
 10
11.1369318037
 20
-11.1369318037
 30
0.0
 40
15.75
 50
351.3782727067
 51
8.6217272933
  0
LINE
  5
12C
  8
DIM
 62
     0
 10
0.0
 20
0.0
 30
0.0
 11
-3.5355339059
 21
3.5355339059
 31
0.0
  0
LINE
  5
12D
  8
DIM
 62
     0
 10
0.0
 20
0.0
 30
0.0
 11
3.5355339059
 21
-3.5355339059
 31
0.0
  0
LINE
  5
12E
  8
DIM
 62
     0
 10
-3.5355339059
 20
3.5355339059
 30
0.0
 11
-5.0204581464
 21
5.0204581464
 31
0.0
  0
LINE
  5
12F
  8
DIM
 62
     0
 10
3.5355339059
 20
-3.5355339059
 30
0.0
 11
5.0204581464
 21
-5.0204581464
 31
0.0
  0
LINE
  5
130
  8
DIM
 62
     0
 10
0.0
 20
-22.2738636074
 30
0.0
 11
-3.5355339059
 21
-25.8093975133
 31
0.0
  0
LINE
  5
131
  8
DIM
 62
     0
 10
0.0
 20
-22.2738636074
 30
0.0
 11
3.5355339059
 21
-18.7383297014
 31
0.0
  0
LINE
  5
132
  8
DIM
 62
     0
 10
-3.5355339059
 20
-25.8093975133
 30
0.0
 11
-5.0204581464
 21
-27.2943217538
 31
0.0
  0
LINE
  5
133
  8
DIM
 62
     0
 10
3.5355339059
 20
-18.7383297014
 30
0.0
 11
5.0204581464
 21
-17.253405461
 31
0.0
  0
LINE
  5
134
  8
DIM
 62
     0
 10
22.2738636074
 20
-22.2738636074
 30
0.0
 11
25.8093975133
 21
-25.8093975133
 31
0.0
  0
LINE
  5
135
  8
DIM
 62
     0
 10
22.2738636074
 20
-22.2738636074
 30
0.0
 11
18.7383297014
 21
-18.7383297014
 31
0.0
  0
LINE
  5
136
  8
DIM
 62
     0
 10
25.8093975133
 20
-25.8093975133
 30
0.0
 11
27.2943217538
 21
-27.2943217538
 31
0.0
  0
LINE
  5
137
  8
DIM
 62
     0
 10
18.7383297014
 20
-18.7383297014
 30
0.0
 11
17.253405461
 21
-17.253405461
 31
0.0
  0
LINE
  5
138
  8
DIM
 62
     0
 10
11.1369318037
 20
-11.1369318037
 30
0.0
 11
11.1369318037
 21
-6.1369318037
 31
0.0
  0
LINE
  5
139
  8
DIM
 62
     0
 10
11.1369318037
 20
-11.1369318037
 30
0.0
 11
6.1369318037
 21
-11.1369318037
 31
0.0
  0
LINE
  5
13A
  8
DIM
 62
     0
 10
11.1369318037
 20
-11.1369318037
 30
0.0
 11
11.1369318037
 21
-16.1369318037
 31
0.0
  0
LINE
  5
13B
  8
DIM
 62
     0
 10
11.1369318037
 20
-11.1369318037
 30
0.0
 11
16.1369318037
 21
-11.1369318037
 31
0.0
  0
LINE
  5
13C
  8
DIM
 62
     0
 10
11.1369318037
 20
-1.1369318037
 30
0.0
 11
11.1369318037
 21
5.0
 31
0.0
  0
LINE
  5
13D
  8
DIM
 62
     0
 10
1.1369318037
 20
-11.1369318037
 30
0.0
 11
-5.0
 21
-11.1369318037
 31
0.0
  0
LINE
  5
13E
  8
DIM
 62
     0
 10
11.1369318037
 20
-21.1369318037
 30
0.0
 11
11.1369318037
 21
-27.2738636074
 31
0.0
  0
LINE
  5
13F
  8
DIM
 62
     0
 10
21.1369318037
 20
-11.1369318037
 30
0.0
 11
27.2738636074
 21
-11.1369318037
 31
0.0
  0
LINE
  5
140
  8
DIM
 62
     0
 10
22.2738636074
 20
0.0
 30
0.0
 11
25.8093975133
 21
3.5355339059
 31
0.0
  0
LINE
  5
141
  8
DIM
 62
     0
 10
22.2738636074
 20
0.0
 30
0.0
 11
18.7383297014
 21
-3.5355339059
 31
0.0
  0
LINE
  5
142
  8
DIM
 62
     0
 10
25.8093975133
 20
3.5355339059
 30
0.0
 11
27.2943217538
 21
5.0204581464
 31
0.0
  0
LINE
  5
143
  8
DIM
 62
     0
 10
18.7383297014
 20
-3.5355339059
 30
0.0
 11
17.253405461
 21
-5.0204581464
 31
0.0
  0
ENDBLK
  5
11F
  8
0
  0
BLOCK
  8
0
  2
SW_CENTERMARKSYMBOL_2
 70
     0
 10
0.0
 20
0.0
 30
0.0
  3
SW_CENTERMARKSYMBOL_2
  1

  0
LINE
  5
148
  8
DIM
 62
     0
 10
0.0
 20
0.0
 30
0.0
 11
0.0
 21
5.0
 31
0.0
  0
LINE
  5
149
  8
DIM
 62
     0
 10
0.0
 20
0.0
 30
0.0
 11
-5.0
 21
0.0
 31
0.0
  0
LINE
  5
14A
  8
DIM
 62
     0
 10
0.0
 20
0.0
 30
0.0
 11
0.0
 21
-5.0
 31
0.0
  0
LINE
  5
14B
  8
DIM
 62
     0
 10
0.0
 20
0.0
 30
0.0
 11
5.0
 21
0.0
 31
0.0
  0
LINE
  5
14C
  8
DIM
 62
     0
 10
0.0
 20
5.0
 30
0.0
 11
0.0
 21
8.0
 31
0.0
  0
LINE
  5
14D
  8
DIM
 62
     0
 10
-5.0
 20
0.0
 30
0.0
 11
-8.0
 21
0.0
 31
0.0
  0
LINE
  5
14E
  8
DIM
 62
     0
 10
0.0
 20
-5.0
 30
0.0
 11
0.0
 21
-8.0
 31
0.0
  0
LINE
  5
14F
  8
DIM
 62
     0
 10
5.0
 20
0.0
 30
0.0
 11
8.0
 21
0.0
 31
0.0
  0
ENDBLK
  5
147
  8
0
  0
BLOCK
  8
0
  2
SW_CENTERMARKSYMBOL_3
 70
     0
 10
0.0
 20
0.0
 30
0.0
  3
SW_CENTERMARKSYMBOL_3
  1

  0
LINE
  5
154
  8
DIM
 62
     0
 10
0.0
 20
0.0
 30
0.0
 11
0.0
 21
5.0
 31
0.0
  0
LINE
  5
155
  8
DIM
 62
     0
 10
0.0
 20
0.0
 30
0.0
 11
-5.0
 21
0.0
 31
0.0
  0
LINE
  5
156
  8
DIM
 62
     0
 10
0.0
 20
0.0
 30
0.0
 11
0.0
 21
-5.0
 31
0.0
  0
LINE
  5
157
  8
DIM
 62
     0
 10
0.0
 20
0.0
 30
0.0
 11
5.0
 21
0.0
 31
0.0
  0
LINE
  5
158
  8
DIM
 62
     0
 10
0.0
 20
5.0
 30
0.0
 11
0.0
 21
8.0
 31
0.0
  0
LINE
  5
159
  8
DIM
 62
     0
 10
-5.0
 20
0.0
 30
0.0
 11
-8.0
 21
0.0
 31
0.0
  0
LINE
  5
15A
  8
DIM
 62
     0
 10
0.0
 20
-5.0
 30
0.0
 11
0.0
 21
-8.0
 31
0.0
  0
LINE
  5
15B
  8
DIM
 62
     0
 10
5.0
 20
0.0
 30
0.0
 11
8.0
 21
0.0
 31
0.0
  0
ENDBLK
  5
153
  8
0
  0
BLOCK
  8
0
  2
SW_CENTERMARKSYMBOL_4
 70
     0
 10
0.0
 20
0.0
 30
0.0
  3
SW_CENTERMARKSYMBOL_4
  1

  0
LINE
  5
160
  8
DIM
 62
     0
 10
0.0
 20
0.0
 30
0.0
 11
0.0
 21
5.0
 31
0.0
  0
LINE
  5
161
  8
DIM
 62
     0
 10
0.0
 20
0.0
 30
0.0
 11
-5.0
 21
0.0
 31
0.0
  0
LINE
  5
162
  8
DIM
 62
     0
 10
0.0
 20
0.0
 30
0.0
 11
0.0
 21
-5.0
 31
0.0
  0
LINE
  5
163
  8
DIM
 62
     0
 10
0.0
 20
0.0
 30
0.0
 11
5.0
 21
0.0
 31
0.0
  0
LINE
  5
164
  8
DIM
 62
     0
 10
0.0
 20
5.0
 30
0.0
 11
0.0
 21
7.75
 31
0.0
  0
LINE
  5
165
  8
DIM
 62
     0
 10
-5.0
 20
0.0
 30
0.0
 11
-7.75
 21
0.0
 31
0.0
  0
LINE
  5
166
  8
DIM
 62
     0
 10
0.0
 20
-5.0
 30
0.0
 11
0.0
 21
-7.75
 31
0.0
  0
LINE
  5
167
  8
DIM
 62
     0
 10
5.0
 20
0.0
 30
0.0
 11
7.75
 21
0.0
 31
0.0
  0
ENDBLK
  5
15F
  8
0
  0
BLOCK
  8
0
  2
SW_CENTERMARKSYMBOL_5
 70
     0
 10
0.0
 20
0.0
 30
0.0
  3
SW_CENTERMARKSYMBOL_5
  1

  0
LINE
  5
16C
  8
DIM
 62
     0
 10
0.0
 20
0.0
 30
0.0
 11
0.0
 21
5.0
 31
0.0
  0
LINE
  5
16D
  8
DIM
 62
     0
 10
0.0
 20
0.0
 30
0.0
 11
-5.0
 21
0.0
 31
0.0
  0
LINE
  5
16E
  8
DIM
 62
     0
 10
0.0
 20
0.0
 30
0.0
 11
0.0
 21
-5.0
 31
0.0
  0
LINE
  5
16F
  8
DIM
 62
     0
 10
0.0
 20
0.0
 30
0.0
 11
5.0
 21
0.0
 31
0.0
  0
LINE
  5
170
  8
DIM
 62
     0
 10
0.0
 20
5.0
 30
0.0
 11
0.0
 21
8.0
 31
0.0
  0
LINE
  5
171
  8
DIM
 62
     0
 10
-5.0
 20
0.0
 30
0.0
 11
-8.0
 21
0.0
 31
0.0
  0
LINE
  5
172
  8
DIM
 62
     0
 10
0.0
 20
-5.0
 30
0.0
 11
0.0
 21
-8.0
 31
0.0
  0
LINE
  5
173
  8
DIM
 62
     0
 10
5.0
 20
0.0
 30
0.0
 11
8.0
 21
0.0
 31
0.0
  0
ENDBLK
  5
16B
  8
0
  0
BLOCK
  8
0
  2
_D_6
 70
     0
 10
0.0
 20
0.0
 30
0.0
  3
_D_6
  1

  0
INSERT
  5
19A
  8
DIM
  2
_OPEN30
 10
274.5734372233
 20
254.3219720498
 30
37.5134957311
 41
3.0
 42
3.0
 50
180.0
  0
INSERT
  5
19B
  8
DIM
  2
_OPEN30
 10
287.0734372233
 20
254.3219720498
 30
37.5134957311
 41
3.0
 42
3.0
 50
0.0
  0
LINE
  5
19C
  8
DIM
 10
274.5734372233
 20
244.29579964
 30
0.0
 11
274.5734372233
 21
255.3219720498
 31
0.0
  0
LINE
  5
19D
  8
DIM
 10
287.0734372233
 20
244.29579964
 30
0.0
 11
287.0734372233
 21
255.3219720498
 31
0.0
  0
LINE
  5
19E
  8
DIM
 10
274.5734372233
 20
254.3219720498
 30
0.0
 11
287.0734372233
 21
254.3219720498
 31
0.0
  0
TEXT
  5
19F
  8
DIM
 10
276.7498262283
 20
255.5583820337
 30
37.5134957311
 40
3.5
  1
12.5
 50
360.0
 41
0.7
 11
276.7498262283
 21
254.321971817
 31
37.5134957311
 73
     1
  0
ENDBLK
  5
199
  8
0
  0
BLOCK
  8
0
  2
_D_7
 70
     0
 10
0.0
 20
0.0
 30
0.0
  3
_D_7
  1

  0
ARC
  5
203
  8
DIM
 10
163.2362115706
 20
157.8074532747
 30
0.0
 40
6.376210185542456
 50
153.4349488229
 51
206.5650511771
  0
ARC
  5
204
  8
DIM
 10
160.3846834551
 20
157.8074532747
 30
0.0
 40
6.376210185542482
 50
333.4349488229
 51
26.5650511771
  0
INSERT
  5
205
  8
DIM
  2
_OPEN30
 10
143.7650655882
 20
154.7838421259
 30
15.75
 41
3.0
 42
3.0
 50
0.0
  0
INSERT
  5
206
  8
DIM
  2
_OPEN30
 10
163.7650655882
 20
154.7838421259
 30
15.75
 41
3.0
 42
3.0
 50
180.0
  0
LINE
  5
207
  8
DIM
 10
143.7650655882
 20
146.5209446331
 30
0.0
 11
143.7650655882
 21
155.7838421259
 31
0.0
  0
LINE
  5
208
  8
DIM
 10
163.7650655882
 20
146.5209446331
 30
0.0
 11
163.7650655882
 21
155.7838421259
 31
0.0
  0
LINE
  5
209
  8
DIM
 10
143.7650655882
 20
154.7838421259
 30
0.0
 11
137.4150655882
 21
154.7838421259
 31
0.0
  0
LINE
  5
20A
  8
DIM
 10
143.7650655882
 20
154.7838421259
 30
0.0
 11
163.7650655882
 21
154.7838421259
 31
0.0
  0
LINE
  5
20B
  8
DIM
 10
163.7650655882
 20
154.7838421259
 30
0.0
 11
170.1150655882
 21
154.7838421259
 31
0.0
  0
TEXT
  5
20C
  8
DIM
 10
140.7692376452
 20
156.0202525755
 30
15.75
 40
3.5
  1
%%c
 50
360.0
 41
0.7
 11
140.7692376452
 21
154.7838423587
 31
15.75
 73
     1
  0
TEXT
  5
20D
  8
DIM
 10
144.6391681602
 20
156.0202525755
 30
15.75
 40
3.5
  1
20
 50
360.0
 41
0.7
 11
144.6391681602
 21
154.7838423587
 31
15.75
 73
     1
  0
TEXT
  5
20E
  8
DIM
 10
148.712779388
 20
156.0202525755
 30
15.75
 40
3.5
  1
 H8 
 50
360.0
 41
0.525
 11
148.712779388
 21
154.7838423587
 31
15.75
 73
     1
  0
TEXT
  5
20F
  8
DIM
 10
157.5331558051
 20
158.6729405138
 30
15.75
 40
2.45
  1
+
 50
360.0
 41
0.7
 11
157.5331558051
 21
157.8074533621
 31
15.75
 73
     1
  0
TEXT
  5
210
  8
DIM
 10
157.5331558051
 20
155.821412631
 30
15.75
 40
2.45
  1
 
 50
360.0
 41
0.7
 11
157.5331558051
 21
154.9559254793
 31
15.75
 73
     1
  0
TEXT
  5
211
  8
DIM
 10
158.9589197465
 20
158.6729405138
 30
15.75
 40
2.45
  1
0.033
 50
360.0
 41
0.7
 11
158.9589197465
 21
157.8074533621
 31
15.75
 73
     1
  0
TEXT
  5
212
  8
DIM
 10
158.9589197465
 20
155.821412631
 30
15.75
 40
2.45
  1
0
 50
360.0
 41
0.7
 11
158.9589197465
 21
154.9559254793
 31
15.75
 73
     1
  0
ENDBLK
  5
202
  8
0
  0
BLOCK
  8
0
  2
_D_8
 70
     0
 10
0.0
 20
0.0
 30
0.0
  3
_D_8
  1

  0
INSERT
  5
218
  8
DIM
  2
_OPEN30
 10
200.4215315298
 20
136.0109446331
 30
15.75
 41
3.0
 42
3.0
 50
270.0
  0
INSERT
  5
219
  8
DIM
  2
_OPEN30
 10
200.4215315298
 20
134.5109446331
 30
15.75
 41
3.0
 42
3.0
 50
90.0
  0
LINE
  5
21A
  8
DIM
 10
170.5250655882
 20
136.0109446331
 30
0.0
 11
201.4215315298
 21
136.0109446331
 31
0.0
  0
LINE
  5
21B
  8
DIM
 10
184.7750655882
 20
134.5109446331
 30
0.0
 11
201.4215315298
 21
134.5109446331
 31
0.0
  0
LINE
  5
21C
  8
DIM
 10
200.4215315298
 20
136.0109446331
 30
0.0
 11
200.4215315298
 21
147.5074093976
 31
0.0
  0
LINE
  5
21D
  8
DIM
 10
200.4215315298
 20
136.0109446331
 30
0.0
 11
200.4215315298
 21
134.5109446331
 31
0.0
  0
LINE
  5
21E
  8
DIM
 10
200.4215315298
 20
134.5109446331
 30
0.0
 11
200.4215315298
 21
128.1609446331
 31
0.0
  0
TEXT
  5
21F
  8
DIM
 10
199.185121546
 20
141.3969926724
 30
15.75
 40
3.5
  1
1.5
 50
90.0
 41
0.7
 11
200.4215317627
 21
141.3969926724
 31
15.75
 73
     1
  0
ENDBLK
  5
217
  8
0
  0
BLOCK
  8
0
  2
_D_9
 70
     0
 10
0.0
 20
0.0
 30
0.0
  3
_D_9
  1

  0
ARC
  5
225
  8
DIM
 10
165.273015904
 20
121.1676310301
 30
0.0
 40
6.37621018554247
 50
153.4349488229
 51
206.5650511771
  0
ARC
  5
226
  8
DIM
 10
162.4214877884
 20
121.1676310301
 30
0.0
 40
6.37621018554247
 50
333.4349488229
 51
26.5650511771
  0
INSERT
  5
227
  8
DIM
  2
_OPEN30
 10
137.0150655882
 20
118.1440198813
 30
15.75
 41
3.0
 42
3.0
 50
0.0
  0
INSERT
  5
228
  8
DIM
  2
_OPEN30
 10
170.5150655882
 20
118.1440198813
 30
15.75
 41
3.0
 42
3.0
 50
180.0
  0
LINE
  5
229
  8
DIM
 10
137.0150655882
 20
135.0009446331
 30
0.0
 11
137.0150655882
 21
117.1440198813
 31
0.0
  0
LINE
  5
22A
  8
DIM
 10
170.5150655882
 20
135.0009446331
 30
0.0
 11
170.5150655882
 21
117.1440198813
 31
0.0
  0
LINE
  5
22B
  8
DIM
 10
137.0150655882
 20
118.1440198813
 30
0.0
 11
130.6650655882
 21
118.1440198813
 31
0.0
  0
LINE
  5
22C
  8
DIM
 10
137.0150655882
 20
118.1440198813
 30
0.0
 11
170.5150655882
 21
118.1440198813
 31
0.0
  0
LINE
  5
22D
  8
DIM
 10
170.5150655882
 20
118.1440198813
 30
0.0
 11
176.8650655882
 21
118.1440198813
 31
0.0
  0
TEXT
  5
22E
  8
DIM
 10
138.7324314492
 20
119.3804303308
 30
15.75
 40
3.5
  1
%%c
 41
0.7
 11
138.7324314492
 21
118.1440201141
 31
15.75
 73
     1
  0
TEXT
  5
22F
  8
DIM
 10
142.6023619642
 20
119.3804303308
 30
15.75
 40
3.5
  1
33.5
 41
0.7
 11
142.6023619642
 21
118.1440201141
 31
15.75
 73
     1
  0
TEXT
  5
230
  8
DIM
 10
150.7495837213
 20
119.3804303308
 30
15.75
 40
3.5
  1
 H8 
 41
0.525
 11
150.7495837213
 21
118.1440201141
 31
15.75
 73
     1
  0
TEXT
  5
231
  8
DIM
 10
159.5699601385
 20
122.0331182691
 30
15.75
 40
2.45
  1
+
 41
0.7
 11
159.5699601385
 21
121.1676311174
 31
15.75
 73
     1
  0
TEXT
  5
232
  8
DIM
 10
159.5699601385
 20
119.1815903864
 30
15.75
 40
2.45
  1
 
 41
0.7
 11
159.5699601385
 21
118.3161032347
 31
15.75
 73
     1
  0
TEXT
  5
233
  8
DIM
 10
160.9957240798
 20
122.0331182691
 30
15.75
 40
2.45
  1
0.039
 41
0.7
 11
160.9957240798
 21
121.1676311174
 31
15.75
 73
     1
  0
TEXT
  5
234
  8
DIM
 10
160.9957240798
 20
119.1815903864
 30
15.75
 40
2.45
  1
0
 41
0.7
 11
160.9957240798
 21
118.3161032347
 31
15.75
 73
     1
  0
ENDBLK
  5
224
  8
0
  0
BLOCK
  8
0
  2
_D_10
 70
     0
 10
0.0
 20
0.0
 30
0.0
  3
_D_10
  1

  0
INSERT
  5
255
  8
DIM
  2
_OPEN30
 10
143.7058639409
 20
59.9904859306
 30
0.25
 41
3.0
 42
3.0
 50
217.911852668
  0
INSERT
  5
256
  8
DIM
  2
_OPEN30
 10
163.8242672356
 20
75.6589207239
 30
0.25
 41
3.0
 42
3.0
 50
37.911852668
  0
LINE
  5
257
  8
DIM
 10
163.8242672356
 20
75.6589207239
 30
0.0
 11
192.791317427
 21
98.2187794973
 31
0.0
  0
LINE
  5
258
  8
DIM
 10
163.8242672356
 20
75.6589207239
 30
0.0
 11
143.7058639409
 21
59.9904859306
 31
0.0
  0
TEXT
  5
259
  8
DIM
 10
182.5526214414
 20
91.8077263694
 30
0.25
 40
3.5
  1
%%c
 50
37.911852668
 41
0.7
 11
183.3123317496
 21
90.832251884
 31
0.25
 73
     1
  0
TEXT
  5
25A
  8
DIM
 10
185.6058301797
 20
94.1855990726
 30
0.25
 40
3.5
  1
25.5
 50
37.911852668
 41
0.7
 11
186.3655404878
 21
93.2101245872
 31
0.25
 73
     1
  0
ENDBLK
  5
254
  8
0
  0
BLOCK
  8
0
  2
_D_11
 70
     0
 10
0.0
 20
0.0
 30
0.0
  3
_D_11
  1

  0
INSERT
  5
25F
  8
DIM
  2
_OPEN30
 10
199.3022642035
 20
67.8247033273
 30
0.25
 41
3.0
 42
3.0
 50
90.0
  0
INSERT
  5
260
  8
DIM
  2
_OPEN30
 10
199.3022642035
 20
39.8247033273
 30
0.25
 41
3.0
 42
3.0
 50
270.0
  0
LINE
  5
261
  8
DIM
 10
190.2750655882
 20
67.8247033273
 30
0.0
 11
200.3022642035
 21
67.8247033273
 31
0.0
  0
LINE
  5
262
  8
DIM
 10
160.7750655882
 20
39.8247033273
 30
0.0
 11
200.3022642035
 21
39.8247033273
 31
0.0
  0
LINE
  5
263
  8
DIM
 10
199.3022642035
 20
67.8247033273
 30
0.0
 11
199.3022642035
 21
39.8247033273
 31
0.0
  0
TEXT
  5
264
  8
DIM
 10
198.0658542196
 20
51.7878978298
 30
0.25
 40
3.5
  1
28
 50
90.0
 41
0.7
 11
199.3022644363
 21
51.7878978298
 31
0.25
 73
     1
  0
ENDBLK
  5
25E
  8
0
  0
BLOCK
  8
0
  2
_D_12
 70
     0
 10
0.0
 20
0.0
 30
0.0
  3
_D_12
  1

  0
ARC
  5
269
  8
DIM
 10
183.9727922287
 20
28.6627160924
 30
0.0
 40
6.37621018554247
 50
153.4349488229
 51
206.5650511771
  0
ARC
  5
26A
  8
DIM
 10
181.1212641132
 20
28.6627160924
 30
0.0
 40
6.37621018554247
 50
333.4349488229
 51
26.5650511771
  0
INSERT
  5
26B
  8
DIM
  2
_OPEN30
 10
154.7650655759
 20
38.0926525126
 30
0.25
 41
3.0
 42
3.0
 50
119.9999995928
  0
LINE
  5
26C
  8
DIM
 10
154.7650655759
 20
38.0926525126
 30
0.0
 11
161.9551244992
 21
25.6391049436
 31
0.0
  0
LINE
  5
26D
  8
DIM
 10
152.7650656005
 20
41.5567541419
 30
0.0
 11
154.7650655759
 21
38.0926525126
 31
0.0
  0
LINE
  5
26E
  8
DIM
 10
161.9551244992
 20
25.6391049436
 30
0.0
 11
187.4974741894
 21
25.6391049436
 31
0.0
  0
TEXT
  5
26F
  8
DIM
 10
163.5426244992
 20
26.8755153931
 30
0.25
 40
3.5
  1
%%c
 41
0.7
 11
163.5426244992
 21
25.6391051764
 31
0.25
 73
     1
  0
TEXT
  5
270
  8
DIM
 10
167.4125550143
 20
26.8755153931
 30
0.25
 40
3.5
  1
4
 41
0.7
 11
167.4125550143
 21
25.6391051764
 31
0.25
 73
     1
  0
TEXT
  5
271
  8
DIM
 10
169.4493605118
 20
26.8755153931
 30
0.25
 40
3.5
  1
 H8 
 41
0.525
 11
169.4493605118
 21
25.6391051764
 31
0.25
 73
     1
  0
TEXT
  5
272
  8
DIM
 10
178.2697364633
 20
29.5282033314
 30
0.25
 40
2.45
  1
+
 41
0.7
 11
178.2697364633
 21
28.6627161797
 31
0.25
 73
     1
  0
TEXT
  5
273
  8
DIM
 10
178.2697364633
 20
26.6766754487
 30
0.25
 40
2.45
  1
 
 41
0.7
 11
178.2697364633
 21
25.811188297
 31
0.25
 73
     1
  0
TEXT
  5
274
  8
DIM
 10
179.6955004046
 20
29.5282033314
 30
0.25
 40
2.45
  1
0.018
 41
0.7
 11
179.6955004046
 21
28.6627161797
 31
0.25
 73
     1
  0
TEXT
  5
275
  8
DIM
 10
179.6955004046
 20
26.6766754487
 30
0.25
 40
2.45
  1
0
 41
0.7
 11
179.6955004046
 21
25.811188297
 31
0.25
 73
     1
  0
ENDBLK
  5
268
  8
0
  0
BLOCK
  8
0
  2
_D_13
 70
     0
 10
0.0
 20
0.0
 30
0.0
  3
_D_13
  1

  0
INSERT
  5
27B
  8
DIM
  2
_OPEN30
 10
141.6947403097
 20
75.5532855785
 30
0.25
 41
3.0
 42
3.0
 50
307.2289003015
  0
LINE
  5
27C
  8
DIM
 10
141.6947403097
 20
75.5532855785
 30
0.0
 11
125.9260777149
 21
96.3059867632
 31
0.0
  0
LINE
  5
27D
  8
DIM
 10
143.7517430703
 20
72.8461210761
 30
0.0
 11
141.6947403097
 21
75.5532855785
 31
0.0
  0
LINE
  5
27E
  8
DIM
 10
125.9260777149
 20
96.3059867632
 30
0.0
 11
75.4552401874
 21
96.3059867632
 31
0.0
  0
TEXT
  5
27F
  8
DIM
 10
75.4552401874
 20
101.6160086734
 30
0.25
 40
3.5
  1
6x
 41
0.7
 11
75.4552401874
 21
100.3795984566
 31
0.25
 73
     1
  0
TEXT
  5
280
  8
DIM
 10
79.5288511823
 20
101.6160086734
 30
0.25
 40
3.5
  1
%%c
 41
0.7
 11
79.5288511823
 21
100.3795984566
 31
0.25
 73
     1
  0
TEXT
  5
281
  8
DIM
 10
83.3987819302
 20
101.6160086734
 30
0.25
 40
3.5
  1
3.4
 41
0.7
 11
83.3987819302
 21
100.3795984566
 31
0.25
 73
     1
  0
TEXT
  5
282
  8
DIM
 10
75.4552401874
 20
97.5423972127
 30
0.25
 40
3.5
  1
裏より座ぐりφ6.5深さ3.3
 41
0.7
 11
75.4552401874
 21
96.305986996
 31
0.25
 73
     1
  0
ENDBLK
  5
27A
  8
0
  0
BLOCK
  8
0
  2
SW_CENTERMARKSYMBOL_6
 70
     0
 10
0.0
 20
0.0
 30
0.0
  3
SW_CENTERMARKSYMBOL_6
  1

  0
LINE
  5
286
  8
DIM
 62
     0
 10
0.0
 20
0.0
 30
0.0
 11
0.0
 21
5.0
 31
0.0
  0
LINE
  5
287
  8
DIM
 62
     0
 10
0.0
 20
0.0
 30
0.0
 11
-5.0
 21
0.0
 31
0.0
  0
LINE
  5
288
  8
DIM
 62
     0
 10
0.0
 20
0.0
 30
0.0
 11
0.0
 21
-5.0
 31
0.0
  0
LINE
  5
289
  8
DIM
 62
     0
 10
0.0
 20
0.0
 30
0.0
 11
5.0
 21
0.0
 31
0.0
  0
LINE
  5
28A
  8
DIM
 62
     0
 10
0.0
 20
10.0
 30
0.0
 11
0.0
 21
36.5
 31
0.0
  0
LINE
  5
28B
  8
DIM
 62
     0
 10
-10.0
 20
0.0
 30
0.0
 11
-36.5
 21
0.0
 31
0.0
  0
LINE
  5
28C
  8
DIM
 62
     0
 10
0.0
 20
-10.0
 30
0.0
 11
0.0
 21
-36.5
 31
0.0
  0
LINE
  5
28D
  8
DIM
 62
     0
 10
10.0
 20
0.0
 30
0.0
 11
36.5
 21
0.0
 31
0.0
  0
ENDBLK
  5
285
  8
0
  0
BLOCK
  8
0
  2
SW_CENTERMARKSYMBOL_7
 70
     0
 10
0.0
 20
0.0
 30
0.0
  3
SW_CENTERMARKSYMBOL_7
  1

  0
ARC
  5
292
  8
DIM
 62
     0
 10
0.0
 20
-12.75
 30
0.0
 40
12.75
 50
90.0
 51
112.4689331424
  0
ARC
  5
293
  8
DIM
 62
     0
 10
0.0
 20
-12.75
 30
0.0
 40
12.75
 50
67.5310668576
 51
90.0
  0
ARC
  5
294
  8
DIM
 62
     0
 10
0.0
 20
-12.75
 30
0.0
 40
12.74999999999999
 50
30.0
 51
52.4689331424
  0
ARC
  5
295
  8
DIM
 62
     0
 10
0.0
 20
-12.75
 30
0.0
 40
12.74999999999999
 50
7.5310668576
 51
30.0
  0
ARC
  5
296
  8
DIM
 62
     0
 10
0.0
 20
-12.75
 30
0.0
 40
12.75
 50
330.0
 51
352.4689331424
  0
ARC
  5
297
  8
DIM
 62
     0
 10
0.0
 20
-12.75
 30
0.0
 40
12.75
 50
307.5310668576
 51
330.0
  0
ARC
  5
298
  8
DIM
 62
     0
 10
0.0
 20
-12.75
 30
0.0
 40
12.75000000000001
 50
270.0
 51
292.4689331424
  0
ARC
  5
299
  8
DIM
 62
     0
 10
0.0
 20
-12.75
 30
0.0
 40
12.75000000000001
 50
247.5310668576
 51
270.0
  0
ARC
  5
29A
  8
DIM
 62
     0
 10
0.0
 20
-12.75
 30
0.0
 40
12.75000000000003
 50
210.0
 51
232.4689331424
  0
ARC
  5
29B
  8
DIM
 62
     0
 10
0.0
 20
-12.75
 30
0.0
 40
12.75000000000003
 50
187.5310668576
 51
210.0
  0
ARC
  5
29C
  8
DIM
 62
     0
 10
0.0
 20
-12.75
 30
0.0
 40
12.75000000000002
 50
150.0
 51
172.4689331424
  0
ARC
  5
29D
  8
DIM
 62
     0
 10
0.0
 20
-12.75
 30
0.0
 40
12.75000000000002
 50
127.5310668576
 51
150.0
  0
LINE
  5
29E
  8
DIM
 62
     0
 10
0.0
 20
0.0
 30
0.0
 11
0.0
 21
5.0
 31
0.0
  0
LINE
  5
29F
  8
DIM
 62
     0
 10
0.0
 20
0.0
 30
0.0
 11
0.0
 21
-5.0
 31
0.0
  0
LINE
  5
2A0
  8
DIM
 62
     0
 10
0.0
 20
5.0
 30
0.0
 11
0.0
 21
6.7
 31
0.0
  0
LINE
  5
2A1
  8
DIM
 62
     0
 10
0.0
 20
-5.0
 30
0.0
 11
0.0
 21
-6.7
 31
0.0
  0
LINE
  5
2A2
  8
DIM
 62
     0
 10
11.0418238983
 20
-6.375
 30
0.0
 11
15.3719509172
 21
-3.875
 31
0.0
  0
LINE
  5
2A3
  8
DIM
 62
     0
 10
11.0418238983
 20
-6.375
 30
0.0
 11
6.7116968793
 21
-8.875
 31
0.0
  0
LINE
  5
2A4
  8
DIM
 62
     0
 10
15.3719509172
 20
-3.875
 30
0.0
 11
16.8441941036
 21
-3.025
 31
0.0
  0
LINE
  5
2A5
  8
DIM
 62
     0
 10
6.7116968793
 20
-8.875
 30
0.0
 11
5.2394536929
 21
-9.725
 31
0.0
  0
LINE
  5
2A6
  8
DIM
 62
     0
 10
11.0418238983
 20
-19.125
 30
0.0
 11
15.3719509172
 21
-21.625
 31
0.0
  0
LINE
  5
2A7
  8
DIM
 62
     0
 10
11.0418238983
 20
-19.125
 30
0.0
 11
6.7116968793
 21
-16.625
 31
0.0
  0
LINE
  5
2A8
  8
DIM
 62
     0
 10
15.3719509172
 20
-21.625
 30
0.0
 11
16.8441941036
 21
-22.475
 31
0.0
  0
LINE
  5
2A9
  8
DIM
 62
     0
 10
6.7116968793
 20
-16.625
 30
0.0
 11
5.2394536929
 21
-15.775
 31
0.0
  0
LINE
  5
2AA
  8
DIM
 62
     0
 10
0.0
 20
-12.75
 30
0.0
 11
0.0
 21
-7.75
 31
0.0
  0
LINE
  5
2AB
  8
DIM
 62
     0
 10
0.0
 20
-12.75
 30
0.0
 11
-5.0
 21
-12.75
 31
0.0
  0
LINE
  5
2AC
  8
DIM
 62
     0
 10
0.0
 20
-12.75
 30
0.0
 11
0.0
 21
-17.75
 31
0.0
  0
LINE
  5
2AD
  8
DIM
 62
     0
 10
0.0
 20
-12.75
 30
0.0
 11
5.0
 21
-12.75
 31
0.0
  0
LINE
  5
2AE
  8
DIM
 62
     0
 10
0.0
 20
-2.75
 30
0.0
 11
0.0
 21
3.2918238983
 31
0.0
  0
LINE
  5
2AF
  8
DIM
 62
     0
 10
-10.0
 20
-12.75
 30
0.0
 11
-16.0418238983
 21
-12.75
 31
0.0
  0
LINE
  5
2B0
  8
DIM
 62
     0
 10
0.0
 20
-22.75
 30
0.0
 11
0.0
 21
-28.7918238983
 31
0.0
  0
LINE
  5
2B1
  8
DIM
 62
     0
 10
10.0
 20
-12.75
 30
0.0
 11
16.0418238983
 21
-12.75
 31
0.0
  0
LINE
  5
2B2
  8
DIM
 62
     0
 10
0.0
 20
-25.5
 30
0.0
 11
0.0
 21
-30.5
 31
0.0
  0
LINE
  5
2B3
  8
DIM
 62
     0
 10
0.0
 20
-25.5
 30
0.0
 11
0.0
 21
-20.5
 31
0.0
  0
LINE
  5
2B4
  8
DIM
 62
     0
 10
0.0
 20
-30.5
 30
0.0
 11
0.0
 21
-32.2
 31
0.0
  0
LINE
  5
2B5
  8
DIM
 62
     0
 10
0.0
 20
-20.5
 30
0.0
 11
0.0
 21
-18.8
 31
0.0
  0
LINE
  5
2B6
  8
DIM
 62
     0
 10
-11.0418238983
 20
-19.125
 30
0.0
 11
-15.3719509172
 21
-21.625
 31
0.0
  0
LINE
  5
2B7
  8
DIM
 62
     0
 10
-11.0418238983
 20
-19.125
 30
0.0
 11
-6.7116968793
 21
-16.625
 31
0.0
  0
LINE
  5
2B8
  8
DIM
 62
     0
 10
-15.3719509172
 20
-21.625
 30
0.0
 11
-16.8441941036
 21
-22.475
 31
0.0
  0
LINE
  5
2B9
  8
DIM
 62
     0
 10
-6.7116968793
 20
-16.625
 30
0.0
 11
-5.2394536929
 21
-15.775
 31
0.0
  0
LINE
  5
2BA
  8
DIM
 62
     0
 10
-11.0418238983
 20
-6.375
 30
0.0
 11
-15.3719509172
 21
-3.875
 31
0.0
  0
LINE
  5
2BB
  8
DIM
 62
     0
 10
-11.0418238983
 20
-6.375
 30
0.0
 11
-6.7116968793
 21
-8.875
 31
0.0
  0
LINE
  5
2BC
  8
DIM
 62
     0
 10
-15.3719509172
 20
-3.875
 30
0.0
 11
-16.8441941036
 21
-3.025
 31
0.0
  0
LINE
  5
2BD
  8
DIM
 62
     0
 10
-6.7116968793
 20
-8.875
 30
0.0
 11
-5.2394536929
 21
-9.725
 31
0.0
  0
ENDBLK
  5
291
  8
0
  0
BLOCK
  8
0
  2
SW_CENTERMARKSYMBOL_8
 70
     0
 10
0.0
 20
0.0
 30
0.0
  3
SW_CENTERMARKSYMBOL_8
  1

  0
LINE
  5
2C2
  8
DIM
 62
     0
 10
0.0
 20
0.0
 30
0.0
 11
0.0
 21
5.0
 31
0.0
  0
LINE
  5
2C3
  8
DIM
 62
     0
 10
0.0
 20
0.0
 30
0.0
 11
-5.0
 21
0.0
 31
0.0
  0
LINE
  5
2C4
  8
DIM
 62
     0
 10
0.0
 20
0.0
 30
0.0
 11
0.0
 21
-5.0
 31
0.0
  0
LINE
  5
2C5
  8
DIM
 62
     0
 10
0.0
 20
0.0
 30
0.0
 11
5.0
 21
0.0
 31
0.0
  0
LINE
  5
2C6
  8
DIM
 62
     0
 10
0.0
 20
5.0
 30
0.0
 11
0.0
 21
7.0
 31
0.0
  0
LINE
  5
2C7
  8
DIM
 62
     0
 10
-5.0
 20
0.0
 30
0.0
 11
-7.0
 21
0.0
 31
0.0
  0
LINE
  5
2C8
  8
DIM
 62
     0
 10
0.0
 20
-5.0
 30
0.0
 11
0.0
 21
-7.0
 31
0.0
  0
LINE
  5
2C9
  8
DIM
 62
     0
 10
5.0
 20
0.0
 30
0.0
 11
7.0
 21
0.0
 31
0.0
  0
ENDBLK
  5
2C1
  8
0
  0
ENDSEC
  0
SECTION
  2
ENTITIES
  0
TEXT
  5
76
  8
TXT
 10
169.1075252337
 20
202.6660106127
 30
0.0
 40
3.5
  1
a
 41
0.7
 11
169.1075252337
 21
201.429600396
 31
0.0
 73
     1
  0
TEXT
  5
77
  8
TXT
 10
141.7134914534
 20
196.2740693973
 30
0.0
 40
3.5
  1
b
 41
0.7
 11
141.7134914534
 21
195.0376591806
 31
0.0
 73
     1
  0
TEXT
  5
78
  8
TXT
 10
136.4955802572
 20
223.9289987374
 30
0.0
 40
3.5
  1
c
 41
0.7
 11
136.4955802572
 21
222.6925885207
 31
0.0
 73
     1
  0
TEXT
  5
79
  8
TXT
 10
167.9334952146
 20
223.9289987374
 30
0.0
 40
3.5
  1
d
 41
0.7
 11
167.9334952146
 21
222.6925885207
 31
0.0
 73
     1
  0
TEXT
  5
7A
  8
TXT
 10
133.7561768791
 20
217.6675053019
 30
0.0
 40
3.5
  1
e
 41
0.7
 11
133.7561768791
 21
216.4310950852
 31
0.0
 73
     1
  0
TEXT
  5
7B
  8
TXT
 10
148.7576715684
 20
191.7083971006
 30
0.0
 40
3.5
  1
f
 41
0.7
 11
148.7576715684
 21
190.4719868838
 31
0.0
 73
     1
  0
TEXT
  5
7C
  8
TXT
 10
173.0209586309
 20
209.188399608
 30
0.0
 40
3.5
  1
g
 41
0.7
 11
173.0209586309
 21
207.9519893913
 31
0.0
 73
     1
  0
LINE
  5
7D
  8
0
  6
CONTINUOUS
 62
     7
 10
163.2619641548
 20
194.0340101585
 30
0.0
 11
161.4889214781
 21
194.0340101585
 31
0.0
  0
LINE
  5
7E
  8
0
  6
CONTINUOUS
 62
     7
 10
161.4889214781
 20
194.0340101585
 30
0.0
 11
160.6024001398
 21
192.4985101585
 31
0.0
  0
LINE
  5
7F
  8
0
  6
CONTINUOUS
 62
     7
 10
161.4889214781
 20
190.9630101585
 30
0.0
 11
163.2619641548
 21
190.9630101585
 31
0.0
  0
LINE
  5
80
  8
0
  6
CONTINUOUS
 62
     7
 10
163.2619641548
 20
190.9630101585
 30
0.0
 11
164.1484854931
 21
192.4985101585
 31
0.0
  0
LINE
  5
81
  8
0
  6
CONTINUOUS
 62
     7
 10
164.1484854931
 20
192.4985101585
 30
0.0
 11
163.2619641548
 21
194.0340101585
 31
0.0
  0
LINE
  5
82
  8
0
  6
CONTINUOUS
 62
     7
 10
160.6024001398
 20
192.4985101585
 30
0.0
 11
161.4889214781
 21
190.9630101585
 31
0.0
  0
CIRCLE
  5
83
  8
0
  6
CONTINUOUS
 62
     7
 10
162.3754428165
 20
192.4985101585
 30
0.0
 40
3.5
  0
CIRCLE
  5
84
  8
0
  6
CONTINUOUS
 62
     7
 10
145.15468836
 20
234.0730891215
 30
0.0
 40
3.5
  0
LINE
  5
85
  8
0
  6
CONTINUOUS
 62
     7
 10
146.0412096984
 20
232.5375891215
 30
0.0
 11
146.9277310367
 21
234.0730891215
 31
0.0
  0
LINE
  5
86
  8
0
  6
CONTINUOUS
 62
     7
 10
146.9277310367
 20
234.0730891215
 30
0.0
 11
146.0412096984
 21
235.6085891215
 31
0.0
  0
LINE
  5
87
  8
0
  6
CONTINUOUS
 62
     7
 10
144.2681670217
 20
232.5375891215
 30
0.0
 11
146.0412096984
 21
232.5375891215
 31
0.0
  0
LINE
  5
88
  8
0
  6
CONTINUOUS
 62
     7
 10
144.2681670217
 20
235.6085891215
 30
0.0
 11
143.3816456833
 21
234.0730891215
 31
0.0
  0
LINE
  5
89
  8
0
  6
CONTINUOUS
 62
     7
 10
143.3816456833
 20
234.0730891215
 30
0.0
 11
144.2681670217
 21
232.5375891215
 31
0.0
  0
LINE
  5
8A
  8
0
  6
CONTINUOUS
 62
     7
 10
146.0412096984
 20
235.6085891215
 30
0.0
 11
144.2681670217
 21
235.6085891215
 31
0.0
  0
CIRCLE
  5
8B
  8
0
  6
CONTINUOUS
 62
     7
 10
132.9777761067
 20
204.6754224118
 30
0.0
 40
3.5
  0
LINE
  5
8C
  8
0
  6
CONTINUOUS
 62
     7
 10
132.0912547684
 20
203.1399224118
 30
0.0
 11
133.8642974451
 21
203.1399224118
 31
0.0
  0
LINE
  5
8D
  8
0
  6
CONTINUOUS
 62
     7
 10
133.8642974451
 20
203.1399224118
 30
0.0
 11
134.7508187834
 21
204.6754224118
 31
0.0
  0
LINE
  5
8E
  8
0
  6
CONTINUOUS
 62
     7
 10
134.7508187834
 20
204.6754224118
 30
0.0
 11
133.8642974451
 21
206.2109224118
 31
0.0
  0
LINE
  5
8F
  8
0
  6
CONTINUOUS
 62
     7
 10
132.0912547684
 20
206.2109224118
 30
0.0
 11
131.2047334301
 21
204.6754224118
 31
0.0
  0
LINE
  5
90
  8
0
  6
CONTINUOUS
 62
     7
 10
131.2047334301
 20
204.6754224118
 30
0.0
 11
132.0912547684
 21
203.1399224118
 31
0.0
  0
LINE
  5
91
  8
0
  6
CONTINUOUS
 62
     7
 10
133.8642974451
 20
206.2109224118
 30
0.0
 11
132.0912547684
 21
206.2109224118
 31
0.0
  0
LINE
  5
92
  8
0
  6
CONTINUOUS
 62
     7
 10
175.4388764081
 20
223.4316768682
 30
0.0
 11
173.6658337314
 21
223.4316768682
 31
0.0
  0
LINE
  5
93
  8
0
  6
CONTINUOUS
 62
     7
 10
173.6658337314
 20
223.4316768682
 30
0.0
 11
172.7793123931
 21
221.8961768682
 31
0.0
  0
LINE
  5
94
  8
0
  6
CONTINUOUS
 62
     7
 10
172.7793123931
 20
221.8961768682
 30
0.0
 11
173.6658337314
 21
220.3606768682
 31
0.0
  0
LINE
  5
95
  8
0
  6
CONTINUOUS
 62
     7
 10
173.6658337314
 20
220.3606768682
 30
0.0
 11
175.4388764081
 21
220.3606768682
 31
0.0
  0
LINE
  5
96
  8
0
  6
CONTINUOUS
 62
     7
 10
175.4388764081
 20
220.3606768682
 30
0.0
 11
176.3253977464
 21
221.8961768682
 31
0.0
  0
LINE
  5
97
  8
0
  6
CONTINUOUS
 62
     7
 10
176.3253977464
 20
221.8961768682
 30
0.0
 11
175.4388764081
 21
223.4316768682
 31
0.0
  0
CIRCLE
  5
98
  8
0
  6
CONTINUOUS
 62
     7
 10
174.5523550697
 20
221.8961768682
 30
0.0
 40
3.5
  0
ARC
  5
99
  8
0
  6
CONTINUOUS
 62
     7
 10
142.72324169
 20
219.66079964
 30
0.0
 40
3.250000000000023
 50
69.8114199238
 51
112.4769610948
  0
ARC
  5
9A
  8
0
  6
CONTINUOUS
 62
     7
 10
142.72324169
 20
219.66079964
 30
0.0
 40
3.250000000000015
 50
301.9275130641
 51
358.0724869359
  0
ARC
  5
9B
  8
0
  6
CONTINUOUS
 62
     7
 10
142.72324169
 20
206.91079964
 30
0.0
 40
3.250000000000012
 50
1.9275130641
 51
58.0724869359
  0
ARC
  5
9C
  8
0
  6
CONTINUOUS
 62
     7
 10
142.72324169
 20
206.91079964
 30
0.0
 40
3.250000000000004
 50
247.5230389052
 51
290.1885800762
  0
ARC
  5
9D
  8
0
  6
CONTINUOUS
 62
     7
 10
153.7650655882
 20
200.53579964
 30
0.0
 40
3.250000000000032
 50
61.9275130641
 51
118.0724869359
  0
ARC
  5
9E
  8
0
  6
CONTINUOUS
 62
     7
 10
153.7650655882
 20
200.53579964
 30
0.0
 40
3.250000000000007
 50
223.0543893908
 51
316.9456106092
  0
ARC
  5
9F
  8
0
  6
CONTINUOUS
 62
     7
 10
164.8068894865
 20
206.91079964
 30
0.0
 40
3.249999999999991
 50
121.9275130641
 51
178.0724869359
  0
ARC
  5
A0
  8
0
  6
CONTINUOUS
 62
     7
 10
164.8068894865
 20
206.91079964
 30
0.0
 40
3.250000000000012
 50
249.8114199238
 51
292.4769610948
  0
ARC
  5
A1
  8
0
  6
CONTINUOUS
 62
     7
 10
164.8068894865
 20
219.66079964
 30
0.0
 40
3.250000000000024
 50
67.5230389052
 51
110.1885800762
  0
ARC
  5
A2
  8
0
  6
CONTINUOUS
 62
     7
 10
164.8068894865
 20
219.66079964
 30
0.0
 40
3.250000000000012
 50
181.9275130641
 51
238.0724869359
  0
ARC
  5
A3
  8
0
  6
CONTINUOUS
 62
     7
 10
153.7650655882
 20
226.03579964
 30
0.0
 40
3.250000000000022
 50
241.9275130641
 51
298.0724869359
  0
CIRCLE
  5
A4
  8
0
  6
CONTINUOUS
 62
     7
 10
153.7650655882
 20
213.28579964
 30
0.0
 40
8.0
  0
CIRCLE
  5
A5
  8
0
  6
CONTINUOUS
 62
     7
 10
153.7650655882
 20
241.28579964
 30
0.0
 40
2.000000000000028
  0
CIRCLE
  5
A6
  8
0
  6
CONTINUOUS
 62
     7
 10
153.7650655882
 20
213.28579964
 30
0.0
 40
7.5
  0
ARC
  5
A7
  8
0
  6
CONTINUOUS
 62
     7
 10
153.7650655882
 20
200.53579964
 30
0.0
 40
1.700000000000001
 50
213.5690248902
 51
326.4309751098
  0
CIRCLE
  5
A8
  8
0
  6
CONTINUOUS
 62
     7
 10
153.7650655882
 20
213.28579964
 30
0.0
 40
31.00000000000006
  0
CIRCLE
  5
A9
  8
0
  6
CONTINUOUS
 62
     7
 10
153.7650655882
 20
213.28579964
 30
0.0
 40
31.5
  0
CIRCLE
  5
AA
  8
0
  6
CONTINUOUS
 62
     7
 10
132.9777761067
 20
204.6754224118
 30
0.0
 40
4.0
  0
CIRCLE
  5
AB
  8
0
  6
CONTINUOUS
 62
     7
 10
162.3754428165
 20
192.4985101585
 30
0.0
 40
4.0
  0
CIRCLE
  5
AC
  8
0
  6
CONTINUOUS
 62
     7
 10
174.5523550697
 20
221.8961768682
 30
0.0
 40
4.0
  0
CIRCLE
  5
AD
  8
0
  6
CONTINUOUS
 62
     7
 10
145.15468836
 20
234.0730891215
 30
0.0
 40
4.0
  0
CIRCLE
  5
AE
  8
0
  6
CONTINUOUS
 62
     7
 10
142.6281337846
 20
202.1488678363
 30
0.0
 40
2.099999999999994
  0
CIRCLE
  5
AF
  8
0
  6
CONTINUOUS
 62
     7
 10
164.9019973919
 20
202.1488678363
 30
0.0
 40
2.099999999999994
  0
CIRCLE
  5
B0
  8
0
  6
CONTINUOUS
 62
     7
 10
164.9019973919
 20
224.4227314437
 30
0.0
 40
2.099999999999994
  0
CIRCLE
  5
B1
  8
0
  6
CONTINUOUS
 62
     7
 10
142.6281337846
 20
224.4227314437
 30
0.0
 40
2.099999999999994
  0
CIRCLE
  5
B2
  8
0
  6
CONTINUOUS
 62
     7
 10
153.7650655882
 20
213.28579964
 30
0.0
 40
10.50000000000003
  0
CIRCLE
  5
B3
  8
0
  6
CONTINUOUS
 62
     7
 10
153.7650655882
 20
241.28579964
 30
0.0
 40
2.750000000000057
  0
CIRCLE
  5
B4
  8
0
  6
CONTINUOUS
 62
     7
 10
164.7055371859
 20
239.0599355366
 30
0.0
 40
2.750000000000028
  0
CIRCLE
  5
B5
  8
0
  6
CONTINUOUS
 62
     7
 10
138.0150655882
 20
213.28579964
 30
0.0
 40
3.000000000000085
  0
CIRCLE
  5
B6
  8
0
  6
CONTINUOUS
 62
     7
 10
153.7650655882
 20
197.53579964
 30
0.0
 40
3.000000000000142
  0
CIRCLE
  5
B7
  8
0
  6
CONTINUOUS
 62
     7
 10
169.5150655882
 20
213.28579964
 30
0.0
 40
3.000000000000057
  0
CIRCLE
  5
B8
  8
0
  6
CONTINUOUS
 62
     7
 10
153.7650655882
 20
213.28579964
 30
0.0
 40
10.0
  0
CIRCLE
  5
B9
  8
0
  6
CONTINUOUS
 62
     7
 10
153.7650655882
 20
197.53579964
 30
0.0
 40
2.500000000000085
  0
CIRCLE
  5
BA
  8
0
  6
CONTINUOUS
 62
     7
 10
169.5150655882
 20
213.28579964
 30
0.0
 40
2.5
  0
CIRCLE
  5
BB
  8
0
  6
CONTINUOUS
 62
     7
 10
138.0150655882
 20
213.28579964
 30
0.0
 40
2.5
  0
CIRCLE
  5
BC
  8
0
  6
CONTINUOUS
 62
     7
 10
164.7055371859
 20
239.0599355366
 30
0.0
 40
2.249999999999972
  0
CIRCLE
  5
BD
  8
0
  6
CONTINUOUS
 62
     7
 10
153.7650655882
 20
241.28579964
 30
0.0
 40
2.25
  0
DIMENSION
  5
BE
  8
DIM
  2
_D
 10
196.9403103986
 20
213.28579964
 30
0.0
 11
196.9403103986
 21
227.28579964
 31
0.0
 70
   160
  1
<>
  3
SLDDIMSTYLE0
 13
161.5150655882
 23
241.28579964
 33
0.0
 14
202.8606097503
 24
213.28579964
 34
0.0
 50
90.0
  0
DIMENSION
  5
CE
  8
DIM
  2
_D_1
 10
185.2650655882
 20
261.2392515424
 30
0.0
 11
153.7650655882
 21
261.2392515424
 31
0.0
 70
   160
  1
%%c<>
  3
SLDDIMSTYLE0
 13
122.2650655882
 23
213.28579964
 33
0.0
 14
185.2650655882
 24
213.28579964
 34
0.0
  0
DIMENSION
  5
D9
  8
DIM
  2
_D_2
 10
161.6400655882
 20
226.9256997496
 30
0.0
 11
175.1346653035
 21
250.2990247637
 31
0.0
 70
   163
  1
<>
  3
SLDDIMSTYLE1
 15
145.8900655882
 25
199.6458995304
 35
0.0
 40
0.0
  0
DIMENSION
  5
E4
  8
DIM
  2
_D_3
 10
155.7136227468
 20
240.16079964
 30
0.0
 11
138.1537290543
 21
250.2990247637
 31
0.0
 70
   163
  1
<>
  3
SLDDIMSTYLE2
 15
151.8165084297
 25
242.41079964
 35
0.0
 40
0.0
  0
DIMENSION
  5
F1
  8
DIM
  2
_D_4
 10
140.1801290977
 20
212.03579964
 30
0.0
 11
95.3280317237
 21
234.0761017456
 31
0.0
 70
   163
  1
3x<>H8\P(e,f,g)
  3
SLDDIMSTYLE3
 15
135.8500020788
 25
214.53579964
 35
0.0
 40
0.0
  0
DIMENSION
  5
105
  8
DIM
  2
_D_5
 10
163.4170731514
 20
203.6337920768
 30
0.0
 11
196.4541415078
 21
187.4602666977
 31
0.0
 70
   163
  1
4x<>(a,b,c,d)
  3
SLDDIMSTYLE4
 15
166.3869216324
 25
200.6639435958
 35
0.0
 40
0.0
  0
INSERT
  5
11C
  8
DIM
  2
SW_CENTERMARKSYMBOL_0
 10
153.7650655882
 20
213.28579964
 30
0.0
  0
INSERT
  5
144
  8
DIM
  2
SW_CENTERMARKSYMBOL_1
 10
142.6281337846
 20
224.4227314437
 30
0.0
  0
INSERT
  5
150
  8
DIM
  2
SW_CENTERMARKSYMBOL_2
 10
138.0150655882
 20
213.28579964
 30
0.0
  0
INSERT
  5
15C
  8
DIM
  2
SW_CENTERMARKSYMBOL_3
 10
169.5150655882
 20
213.28579964
 30
0.0
  0
INSERT
  5
168
  8
DIM
  2
SW_CENTERMARKSYMBOL_4
 10
153.7650655882
 20
241.28579964
 30
0.0
  0
INSERT
  5
174
  8
DIM
  2
SW_CENTERMARKSYMBOL_5
 10
153.7650655882
 20
197.53579964
 30
0.0
  0
LINE
  5
175
  8
0
  6
CENTERX2
 62
     7
 10
202.8606097503
 20
213.28579964
 30
0.0
 11
106.3561567282
 21
213.28579964
 31
0.0
  0
LINE
  5
176
  8
0
  6
CONTINUOUS
 62
     7
 10
200.8606097503
 20
200.58579964
 30
0.0
 11
200.8606097503
 21
213.28579964
 31
0.0
  0
INSERT
  5
177
  8
0
  6
CONTINUOUS
 62
     7
  2
_OPEN30
 10
200.8606097503
 20
213.28579964
 30
0.0
 41
3.0
 42
3.0
 50
90.0
  0
LINE
  5
178
  8
0
  6
CONTINUOUS
 62
     7
 10
108.3561567282
 20
200.58579964
 30
0.0
 11
108.3561567282
 21
213.28579964
 31
0.0
  0
INSERT
  5
179
  8
0
  6
CONTINUOUS
 62
     7
  2
_OPEN30
 10
108.3561567282
 20
213.28579964
 30
0.0
 41
3.0
 42
3.0
 50
90.0
  0
TEXT
  5
17A
  8
0
  6
CONTINUOUS
 62
     7
 10
201.6740668425
 20
201.1530851014
 30
0.0
 40
3.5
  1
A
 41
0.7
 11
201.6740668425
 21
204.6530851014
 31
0.0
 73
     3
  0
TEXT
  5
17B
  8
0
  6
CONTINUOUS
 62
     7
 10
105.5090569052
 20
201.1530851014
 30
0.0
 40
3.5
  1
A
 41
0.7
 11
105.5090569052
 21
204.6530851014
 31
0.0
 73
     3
  0
LINE
  5
17C
  8
0
  6
CONTINUOUS
 62
     7
 10
286.5734372233
 20
181.78579964
 30
0.0
 11
287.0734372233
 21
182.28579964
 31
0.0
  0
LINE
  5
17D
  8
0
  6
CONTINUOUS
 62
     7
 10
287.0734372233
 20
244.28579964
 30
0.0
 11
286.5734372233
 21
244.78579964
 31
0.0
  0
LINE
  5
17E
  8
0
  6
CONTINUOUS
 62
     7
 10
286.5734372233
 20
244.78579964
 30
0.0
 11
281.5734372233
 21
244.78579964
 31
0.0
  0
LINE
  5
17F
  8
0
  6
CONTINUOUS
 62
     7
 10
281.5734372233
 20
181.78579964
 30
0.0
 11
286.5734372233
 21
181.78579964
 31
0.0
  0
LINE
  5
180
  8
0
  6
CONTINUOUS
 62
     7
 10
281.5734372233
 20
244.78579964
 30
0.0
 11
281.0734372233
 21
244.28579964
 31
0.0
  0
LINE
  5
181
  8
0
  6
CONTINUOUS
 62
     7
 10
281.0734372233
 20
182.28579964
 30
0.0
 11
281.5734372233
 21
181.78579964
 31
0.0
  0
LINE
  5
182
  8
0
  6
CONTINUOUS
 62
     7
 10
280.5734372233
 20
181.78579964
 30
0.0
 11
281.0734372233
 21
182.28579964
 31
0.0
  0
LINE
  5
183
  8
0
  6
CONTINUOUS
 62
     7
 10
281.0734372233
 20
244.28579964
 30
0.0
 11
280.5734372233
 21
244.78579964
 31
0.0
  0
LINE
  5
184
  8
0
  6
CONTINUOUS
 62
     7
 10
280.5734372233
 20
244.78579964
 30
0.0
 11
275.0734372233
 21
244.78579964
 31
0.0
  0
LINE
  5
185
  8
0
  6
CONTINUOUS
 62
     7
 10
275.0734372233
 20
181.78579964
 30
0.0
 11
280.5734372233
 21
181.78579964
 31
0.0
  0
LINE
  5
186
  8
0
  6
CONTINUOUS
 62
     7
 10
275.0734372233
 20
244.78579964
 30
0.0
 11
274.5734372233
 21
244.28579964
 31
0.0
  0
LINE
  5
187
  8
0
  6
CONTINUOUS
 62
     7
 10
274.5734372233
 20
182.28579964
 30
0.0
 11
275.0734372233
 21
181.78579964
 31
0.0
  0
LINE
  5
188
  8
0
  6
CONTINUOUS
 62
     7
 10
286.5734372233
 20
213.28579964
 30
0.0
 11
286.5734372233
 21
244.78579964
 31
0.0
  0
LINE
  5
189
  8
0
  6
CONTINUOUS
 62
     7
 10
286.5734372233
 20
181.78579964
 30
0.0
 11
286.5734372233
 21
213.28579964
 31
0.0
  0
LINE
  5
18A
  8
0
  6
CONTINUOUS
 62
     7
 10
287.0734372233
 20
213.28579964
 30
0.0
 11
287.0734372233
 21
182.28579964
 31
0.0
  0
LINE
  5
18B
  8
0
  6
CONTINUOUS
 62
     7
 10
287.0734372233
 20
244.28579964
 30
0.0
 11
287.0734372233
 21
213.28579964
 31
0.0
  0
LINE
  5
18C
  8
0
  6
CONTINUOUS
 62
     7
 10
281.5734372233
 20
213.28579964
 30
0.0
 11
281.5734372233
 21
181.78579964
 31
0.0
  0
LINE
  5
18D
  8
0
  6
CONTINUOUS
 62
     7
 10
281.5734372233
 20
244.78579964
 30
0.0
 11
281.5734372233
 21
213.28579964
 31
0.0
  0
LINE
  5
18E
  8
0
  6
CONTINUOUS
 62
     7
 10
281.0734372233
 20
213.28579964
 30
0.0
 11
281.0734372233
 21
244.28579964
 31
0.0
  0
LINE
  5
18F
  8
0
  6
CONTINUOUS
 62
     7
 10
281.0734372233
 20
182.28579964
 30
0.0
 11
281.0734372233
 21
213.28579964
 31
0.0
  0
LINE
  5
190
  8
0
  6
CONTINUOUS
 62
     7
 10
280.5734372233
 20
213.28579964
 30
0.0
 11
280.5734372233
 21
244.78579964
 31
0.0
  0
LINE
  5
191
  8
0
  6
CONTINUOUS
 62
     7
 10
280.5734372233
 20
181.78579964
 30
0.0
 11
280.5734372233
 21
213.28579964
 31
0.0
  0
LINE
  5
192
  8
0
  6
CONTINUOUS
 62
     7
 10
275.0734372233
 20
213.28579964
 30
0.0
 11
275.0734372233
 21
181.78579964
 31
0.0
  0
LINE
  5
193
  8
0
  6
CONTINUOUS
 62
     7
 10
275.0734372233
 20
244.78579964
 30
0.0
 11
275.0734372233
 21
213.28579964
 31
0.0
  0
LINE
  5
194
  8
0
  6
CONTINUOUS
 62
     7
 10
274.5734372233
 20
213.28579964
 30
0.0
 11
274.5734372233
 21
244.28579964
 31
0.0
  0
LINE
  5
195
  8
0
  6
CONTINUOUS
 62
     7
 10
274.5734372233
 20
182.28579964
 30
0.0
 11
274.5734372233
 21
213.28579964
 31
0.0
  0
DIMENSION
  5
196
  8
DIM
  2
_D_6
 10
287.0734372233
 20
254.3219720498
 30
0.0
 11
280.8234372233
 21
254.3219720498
 31
0.0
 70
   160
  1
<>
  3
SLDDIMSTYLE0
 13
274.5734372233
 23
244.28579964
 33
0.0
 14
287.0734372233
 24
244.28579964
 34
0.0
  0
LINE
  5
1A0
  8
0
  6
CONTINUOUS
 62
     7
 10
173.7354497698
 20
147.0109446331
 30
0.0
 11
172.0150655882
 21
145.2905604515
 31
0.0
  0
LINE
  5
1A1
  8
0
  6
CONTINUOUS
 62
     7
 10
178.2255778304
 20
147.0109446331
 30
0.0
 11
172.1203217093
 21
140.9056885121
 31
0.0
  0
LINE
  5
1A2
  8
0
  6
CONTINUOUS
 62
     7
 10
182.7157058909
 20
147.0109446331
 30
0.0
 11
176.2157058909
 21
140.5109446331
 31
0.0
  0
LINE
  5
1A3
  8
0
  6
CONTINUOUS
 62
     7
 10
185.2650655882
 20
145.0701762699
 30
0.0
 11
180.7058339514
 21
140.5109446331
 31
0.0
  0
LINE
  5
1A4
  8
0
  6
CONTINUOUS
 62
     7
 10
124.344041104
 20
147.0109446331
 30
0.0
 11
122.2650655882
 21
144.9319691174
 31
0.0
  0
LINE
  5
1A5
  8
0
  6
CONTINUOUS
 62
     7
 10
128.8341691645
 20
147.0109446331
 30
0.0
 11
122.5496173764
 21
140.726392845
 31
0.0
  0
LINE
  5
1A6
  8
0
  6
CONTINUOUS
 62
     7
 10
133.324297225
 20
147.0109446331
 30
0.0
 11
126.824297225
 21
140.5109446331
 31
0.0
  0
LINE
  5
1A7
  8
0
  6
CONTINUOUS
 62
     7
 10
135.5150655882
 20
144.7115849358
 30
0.0
 11
131.3144252856
 21
140.5109446331
 31
0.0
  0
LINE
  5
1A8
  8
0
  6
CONTINUOUS
 62
     7
 10
142.3045533461
 20
147.0109446331
 30
0.0
 11
140.5150655882
 21
145.2214568753
 31
0.0
  0
LINE
  5
1A9
  8
0
  6
CONTINUOUS
 62
     7
 10
143.7650655882
 20
143.9813288147
 30
0.0
 11
140.6548734974
 21
140.8711367239
 31
0.0
  0
LINE
  5
1AA
  8
0
  6
CONTINUOUS
 62
     7
 10
164.7551936488
 20
147.0109446331
 30
0.0
 11
163.7650655882
 21
146.0208165726
 31
0.0
  0
LINE
  5
1AB
  8
0
  6
CONTINUOUS
 62
     7
 10
167.0150655882
 20
144.7806885121
 30
0.0
 11
163.7650655882
 21
141.5306885121
 31
0.0
  0
LINE
  5
1AC
  8
0
  6
CONTINUOUS
 62
     7
 10
144.7749375277
 20
136.0109446331
 30
0.0
 11
146.2650655882
 21
137.5010726937
 31
0.0
  0
LINE
  5
1AD
  8
0
  6
CONTINUOUS
 62
     7
 10
140.2848094672
 20
136.0109446331
 30
0.0
 11
144.7848094672
 21
140.5109446331
 31
0.0
  0
LINE
  5
1AE
  8
0
  6
CONTINUOUS
 62
     7
 10
134.2946814066
 20
134.5109446331
 30
0.0
 11
140.2946814066
 21
140.5109446331
 31
0.0
  0
LINE
  5
1AF
  8
0
  6
CONTINUOUS
 62
     7
 10
129.8045533461
 20
134.5109446331
 30
0.0
 11
135.8045533461
 21
140.5109446331
 31
0.0
  0
LINE
  5
1B0
  8
0
  6
CONTINUOUS
 62
     7
 10
125.3144252856
 20
134.5109446331
 30
0.0
 11
131.3144252856
 21
140.5109446331
 31
0.0
  0
LINE
  5
1B1
  8
0
  6
CONTINUOUS
 62
     7
 10
122.2650655882
 20
135.9517129963
 30
0.0
 11
126.824297225
 21
140.5109446331
 31
0.0
  0
LINE
  5
1B2
  8
0
  6
CONTINUOUS
 62
     7
 10
183.6860900725
 20
134.5109446331
 30
0.0
 11
185.2650655882
 21
136.0899201488
 31
0.0
  0
LINE
  5
1B3
  8
0
  6
CONTINUOUS
 62
     7
 10
179.195962012
 20
134.5109446331
 30
0.0
 11
184.9805138001
 21
140.2954964213
 31
0.0
  0
LINE
  5
1B4
  8
0
  6
CONTINUOUS
 62
     7
 10
174.7058339514
 20
134.5109446331
 30
0.0
 11
180.7058339514
 21
140.5109446331
 31
0.0
  0
LINE
  5
1B5
  8
0
  6
CONTINUOUS
 62
     7
 10
170.6153857396
 20
134.9106244818
 30
0.0
 11
176.2157058909
 21
140.5109446331
 31
0.0
  0
LINE
  5
1B6
  8
0
  6
CONTINUOUS
 62
     7
 10
167.2255778304
 20
136.0109446331
 30
0.0
 11
171.7255778304
 21
140.5109446331
 31
0.0
  0
LINE
  5
1B7
  8
0
  6
CONTINUOUS
 62
     7
 10
162.7354497698
 20
136.0109446331
 30
0.0
 11
167.2354497698
 21
140.5109446331
 31
0.0
  0
LINE
  5
1B8
  8
0
  6
CONTINUOUS
 62
     7
 10
161.2650655882
 20
139.0306885121
 30
0.0
 11
162.7453217093
 21
140.5109446331
 31
0.0
  0
LINE
  5
1B9
  8
0
  6
CONTINUOUS
 62
     7
 10
122.7650655882
 20
134.5109446331
 30
0.0
 11
122.2650655882
 21
135.0109446331
 31
0.0
  0
LINE
  5
1BA
  8
0
  6
CONTINUOUS
 62
     7
 10
185.2650655882
 20
135.0109446331
 30
0.0
 11
184.7650655882
 21
134.5109446331
 31
0.0
  0
LINE
  5
1BB
  8
0
  6
CONTINUOUS
 62
     7
 10
185.2650655882
 20
135.0109446331
 30
0.0
 11
185.2650655882
 21
140.0109446331
 31
0.0
  0
LINE
  5
1BC
  8
0
  6
CONTINUOUS
 62
     7
 10
122.2650655882
 20
140.0109446331
 30
0.0
 11
122.2650655882
 21
135.0109446331
 31
0.0
  0
LINE
  5
1BD
  8
0
  6
CONTINUOUS
 62
     7
 10
184.7650655882
 20
140.5109446331
 30
0.0
 11
185.2650655882
 21
140.0109446331
 31
0.0
  0
LINE
  5
1BE
  8
0
  6
CONTINUOUS
 62
     7
 10
122.2650655882
 20
140.0109446331
 30
0.0
 11
122.7650655882
 21
140.5109446331
 31
0.0
  0
LINE
  5
1BF
  8
0
  6
CONTINUOUS
 62
     7
 10
171.0150655882
 20
134.5109446331
 30
0.0
 11
170.5150655882
 21
135.0109446331
 31
0.0
  0
LINE
  5
1C0
  8
0
  6
CONTINUOUS
 62
     7
 10
137.0150655882
 20
135.0109446331
 30
0.0
 11
136.5150655882
 21
134.5109446331
 31
0.0
  0
LINE
  5
1C1
  8
0
  6
CONTINUOUS
 62
     7
 10
137.0150655882
 20
135.0109446331
 30
0.0
 11
170.5150655882
 21
135.0109446331
 31
0.0
  0
LINE
  5
1C2
  8
0
  6
CONTINUOUS
 62
     7
 10
171.0150655882
 20
134.5109446331
 30
0.0
 11
136.5150655882
 21
134.5109446331
 31
0.0
  0
LINE
  5
1C3
  8
0
  6
CONTINUOUS
 62
     7
 10
170.5150655882
 20
135.0109446331
 30
0.0
 11
170.5150655882
 21
136.0109446331
 31
0.0
  0
LINE
  5
1C4
  8
0
  6
CONTINUOUS
 62
     7
 10
137.0150655882
 20
136.0109446331
 30
0.0
 11
137.0150655882
 21
135.0109446331
 31
0.0
  0
LINE
  5
1C5
  8
0
  6
CONTINUOUS
 62
     7
 10
161.7650655882
 20
136.0109446331
 30
0.0
 11
161.2650655882
 21
136.5109446331
 31
0.0
  0
LINE
  5
1C6
  8
0
  6
CONTINUOUS
 62
     7
 10
161.2650655882
 20
136.5109446331
 30
0.0
 11
161.2650655882
 21
140.0109446331
 31
0.0
  0
LINE
  5
1C7
  8
0
  6
CONTINUOUS
 62
     7
 10
161.2650655882
 20
140.0109446331
 30
0.0
 11
161.7650655882
 21
140.5109446331
 31
0.0
  0
LINE
  5
1C8
  8
0
  6
CONTINUOUS
 62
     7
 10
161.7650655882
 20
136.0109446331
 30
0.0
 11
170.5150655882
 21
136.0109446331
 31
0.0
  0
LINE
  5
1C9
  8
0
  6
CONTINUOUS
 62
     7
 10
161.7650655882
 20
140.5109446331
 30
0.0
 11
184.7650655882
 21
140.5109446331
 31
0.0
  0
LINE
  5
1CA
  8
0
  6
CONTINUOUS
 62
     7
 10
171.0150655882
 20
134.5109446331
 30
0.0
 11
184.7650655882
 21
134.5109446331
 31
0.0
  0
LINE
  5
1CB
  8
0
  6
CONTINUOUS
 62
     7
 10
145.7650655882
 20
140.5109446331
 30
0.0
 11
146.2650655882
 21
140.0109446331
 31
0.0
  0
LINE
  5
1CC
  8
0
  6
CONTINUOUS
 62
     7
 10
146.2650655882
 20
140.0109446331
 30
0.0
 11
146.2650655882
 21
136.5109446331
 31
0.0
  0
LINE
  5
1CD
  8
0
  6
CONTINUOUS
 62
     7
 10
146.2650655882
 20
136.5109446331
 30
0.0
 11
145.7650655882
 21
136.0109446331
 31
0.0
  0
LINE
  5
1CE
  8
0
  6
CONTINUOUS
 62
     7
 10
137.0150655882
 20
136.0109446331
 30
0.0
 11
145.7650655882
 21
136.0109446331
 31
0.0
  0
LINE
  5
1CF
  8
0
  6
CONTINUOUS
 62
     7
 10
122.7650655882
 20
140.5109446331
 30
0.0
 11
145.7650655882
 21
140.5109446331
 31
0.0
  0
LINE
  5
1D0
  8
0
  6
CONTINUOUS
 62
     7
 10
122.7650655882
 20
134.5109446331
 30
0.0
 11
136.5150655882
 21
134.5109446331
 31
0.0
  0
LINE
  5
1D1
  8
0
  6
CONTINUOUS
 62
     7
 10
146.2650655882
 20
136.5109446331
 30
0.0
 11
161.2650655882
 21
136.5109446331
 31
0.0
  0
LINE
  5
1D2
  8
0
  6
CONTINUOUS
 62
     7
 10
161.7650655882
 20
136.0109446331
 30
0.0
 11
145.7650655882
 21
136.0109446331
 31
0.0
  0
LINE
  5
1D3
  8
0
  6
CONTINUOUS
 62
     7
 10
161.2650655882
 20
140.0109446331
 30
0.0
 11
146.2650655882
 21
140.0109446331
 31
0.0
  0
LINE
  5
1D4
  8
0
  6
CONTINUOUS
 62
     7
 10
145.7650655882
 20
140.5109446331
 30
0.0
 11
161.7650655882
 21
140.5109446331
 31
0.0
  0
LINE
  5
1D5
  8
0
  6
CONTINUOUS
 62
     7
 10
122.7650655882
 20
140.5109446331
 30
0.0
 11
122.2650655882
 21
141.0109446331
 31
0.0
  0
LINE
  5
1D6
  8
0
  6
CONTINUOUS
 62
     7
 10
185.2650655882
 20
141.0109446331
 30
0.0
 11
184.7650655882
 21
140.5109446331
 31
0.0
  0
LINE
  5
1D7
  8
0
  6
CONTINUOUS
 62
     7
 10
164.2650655882
 20
140.5109446331
 30
0.0
 11
166.5150655882
 21
140.5109446331
 31
0.0
  0
LINE
  5
1D8
  8
0
  6
CONTINUOUS
 62
     7
 10
164.2650655882
 20
140.5109446331
 30
0.0
 11
163.7650655882
 21
141.0109446331
 31
0.0
  0
LINE
  5
1D9
  8
0
  6
CONTINUOUS
 62
     7
 10
163.7650655882
 20
141.0109446331
 30
0.0
 11
163.7650655882
 21
146.5109446331
 31
0.0
  0
LINE
  5
1DA
  8
0
  6
CONTINUOUS
 62
     7
 10
163.7650655882
 20
146.5109446331
 30
0.0
 11
164.2650655882
 21
147.0109446331
 31
0.0
  0
LINE
  5
1DB
  8
0
  6
CONTINUOUS
 62
     7
 10
164.2650655882
 20
147.0109446331
 30
0.0
 11
166.5150655882
 21
147.0109446331
 31
0.0
  0
LINE
  5
1DC
  8
0
  6
CONTINUOUS
 62
     7
 10
166.5150655882
 20
147.0109446331
 30
0.0
 11
167.0150655882
 21
146.5109446331
 31
0.0
  0
LINE
  5
1DD
  8
0
  6
CONTINUOUS
 62
     7
 10
167.0150655882
 20
146.5109446331
 30
0.0
 11
167.0150655882
 21
141.0109446331
 31
0.0
  0
LINE
  5
1DE
  8
0
  6
CONTINUOUS
 62
     7
 10
167.0150655882
 20
141.0109446331
 30
0.0
 11
166.5150655882
 21
140.5109446331
 31
0.0
  0
LINE
  5
1DF
  8
0
  6
CONTINUOUS
 62
     7
 10
143.7650655882
 20
141.0109446331
 30
0.0
 11
143.2650655882
 21
140.5109446331
 31
0.0
  0
LINE
  5
1E0
  8
0
  6
CONTINUOUS
 62
     7
 10
143.7650655882
 20
141.0109446331
 30
0.0
 11
163.7650655882
 21
141.0109446331
 31
0.0
  0
LINE
  5
1E1
  8
0
  6
CONTINUOUS
 62
     7
 10
140.5150655882
 20
141.0109446331
 30
0.0
 11
140.5150655882
 21
146.5109446331
 31
0.0
  0
LINE
  5
1E2
  8
0
  6
CONTINUOUS
 62
     7
 10
140.5150655882
 20
146.5109446331
 30
0.0
 11
141.0150655882
 21
147.0109446331
 31
0.0
  0
LINE
  5
1E3
  8
0
  6
CONTINUOUS
 62
     7
 10
141.0150655882
 20
147.0109446331
 30
0.0
 11
143.2650655882
 21
147.0109446331
 31
0.0
  0
LINE
  5
1E4
  8
0
  6
CONTINUOUS
 62
     7
 10
143.2650655882
 20
147.0109446331
 30
0.0
 11
143.7650655882
 21
146.5109446331
 31
0.0
  0
LINE
  5
1E5
  8
0
  6
CONTINUOUS
 62
     7
 10
143.7650655882
 20
146.5109446331
 30
0.0
 11
143.7650655882
 21
141.0109446331
 31
0.0
  0
LINE
  5
1E6
  8
0
  6
CONTINUOUS
 62
     7
 10
141.0150655882
 20
140.5109446331
 30
0.0
 11
143.2650655882
 21
140.5109446331
 31
0.0
  0
LINE
  5
1E7
  8
0
  6
CONTINUOUS
 62
     7
 10
141.0150655882
 20
140.5109446331
 30
0.0
 11
140.5150655882
 21
141.0109446331
 31
0.0
  0
LINE
  5
1E8
  8
0
  6
CONTINUOUS
 62
     7
 10
172.0150655882
 20
141.0109446331
 30
0.0
 11
172.0150655882
 21
146.5109446331
 31
0.0
  0
LINE
  5
1E9
  8
0
  6
CONTINUOUS
 62
     7
 10
172.0150655882
 20
146.5109446331
 30
0.0
 11
172.5150655882
 21
147.0109446331
 31
0.0
  0
LINE
  5
1EA
  8
0
  6
CONTINUOUS
 62
     7
 10
172.5150655882
 20
147.0109446331
 30
0.0
 11
184.7650655882
 21
147.0109446331
 31
0.0
  0
LINE
  5
1EB
  8
0
  6
CONTINUOUS
 62
     7
 10
184.7650655882
 20
147.0109446331
 30
0.0
 11
185.2650655882
 21
146.5109446331
 31
0.0
  0
LINE
  5
1EC
  8
0
  6
CONTINUOUS
 62
     7
 10
185.2650655882
 20
141.0109446331
 30
0.0
 11
185.2650655882
 21
146.5109446331
 31
0.0
  0
LINE
  5
1ED
  8
0
  6
CONTINUOUS
 62
     7
 10
172.5150655882
 20
140.5109446331
 30
0.0
 11
184.7650655882
 21
140.5109446331
 31
0.0
  0
LINE
  5
1EE
  8
0
  6
CONTINUOUS
 62
     7
 10
172.5150655882
 20
140.5109446331
 30
0.0
 11
172.0150655882
 21
141.0109446331
 31
0.0
  0
LINE
  5
1EF
  8
0
  6
CONTINUOUS
 62
     7
 10
122.7650655882
 20
140.5109446331
 30
0.0
 11
135.0150655882
 21
140.5109446331
 31
0.0
  0
LINE
  5
1F0
  8
0
  6
CONTINUOUS
 62
     7
 10
122.2650655882
 20
146.5109446331
 30
0.0
 11
122.2650655882
 21
141.0109446331
 31
0.0
  0
LINE
  5
1F1
  8
0
  6
CONTINUOUS
 62
     7
 10
122.2650655882
 20
146.5109446331
 30
0.0
 11
122.7650655882
 21
147.0109446331
 31
0.0
  0
LINE
  5
1F2
  8
0
  6
CONTINUOUS
 62
     7
 10
122.7650655882
 20
147.0109446331
 30
0.0
 11
135.0150655882
 21
147.0109446331
 31
0.0
  0
LINE
  5
1F3
  8
0
  6
CONTINUOUS
 62
     7
 10
135.0150655882
 20
147.0109446331
 30
0.0
 11
135.5150655882
 21
146.5109446331
 31
0.0
  0
LINE
  5
1F4
  8
0
  6
CONTINUOUS
 62
     7
 10
135.5150655882
 20
146.5109446331
 30
0.0
 11
135.5150655882
 21
141.0109446331
 31
0.0
  0
LINE
  5
1F5
  8
0
  6
CONTINUOUS
 62
     7
 10
135.5150655882
 20
141.0109446331
 30
0.0
 11
135.0150655882
 21
140.5109446331
 31
0.0
  0
LINE
  5
1F6
  8
0
  6
CONTINUOUS
 62
     7
 10
135.5150655882
 20
141.0109446331
 30
0.0
 11
140.5150655882
 21
141.0109446331
 31
0.0
  0
LINE
  5
1F7
  8
0
  6
CONTINUOUS
 62
     7
 10
167.0150655882
 20
141.0109446331
 30
0.0
 11
172.0150655882
 21
141.0109446331
 31
0.0
  0
LINE
  5
1F8
  8
0
  6
CONTINUOUS
 62
     7
 10
163.7650655882
 20
146.5109446331
 30
0.0
 11
143.7650655882
 21
146.5109446331
 31
0.0
  0
LINE
  5
1F9
  8
0
  6
CONTINUOUS
 62
     7
 10
172.0150655882
 20
146.5109446331
 30
0.0
 11
167.0150655882
 21
146.5109446331
 31
0.0
  0
LINE
  5
1FA
  8
0
  6
CONTINUOUS
 62
     7
 10
140.5150655882
 20
146.5109446331
 30
0.0
 11
135.5150655882
 21
146.5109446331
 31
0.0
  0
LINE
  5
1FB
  8
0
  6
CONTINUOUS
 62
     7
 10
143.2650655882
 20
147.0109446331
 30
0.0
 11
164.2650655882
 21
147.0109446331
 31
0.0
  0
LINE
  5
1FC
  8
0
  6
CONTINUOUS
 62
     7
 10
166.5150655882
 20
147.0109446331
 30
0.0
 11
172.5150655882
 21
147.0109446331
 31
0.0
  0
LINE
  5
1FD
  8
0
  6
CONTINUOUS
 62
     7
 10
135.0150655882
 20
147.0109446331
 30
0.0
 11
141.0150655882
 21
147.0109446331
 31
0.0
  0
DIMENSION
  5
1FE
  8
DIM
  2
_D_7
 10
163.7650655882
 20
154.7838421259
 30
0.0
 11
153.7650655882
 21
154.7838421259
 31
0.0
 70
   160
  1
%%c<>H8
  3
SLDDIMSTYLE5
 13
143.7650655882
 23
146.5109446331
 33
0.0
 14
163.7650655882
 24
146.5109446331
 34
0.0
  0
DIMENSION
  5
213
  8
DIM
  2
_D_8
 10
200.4215315298
 20
134.5109446331
 30
0.0
 11
200.4215315298
 21
144.452201035
 31
0.0
 70
   160
  1
<>
  3
SLDDIMSTYLE6
 13
170.5150655882
 23
136.0109446331
 33
0.0
 14
184.7650655882
 24
134.5109446331
 34
0.0
 50
90.0
  0
DIMENSION
  5
220
  8
DIM
  2
_D_9
 10
170.5150655882
 20
118.1440198813
 30
0.0
 11
153.7650655882
 21
118.1440198813
 31
0.0
 70
   160
  1
%%c<>H8
  3
SLDDIMSTYLE7
 13
137.0150655882
 23
135.0109446331
 33
0.0
 14
170.5150655882
 24
135.0109446331
 34
0.0
  0
TEXT
  5
235
  8
0
  6
CONTINUOUS
 62
     7
 10
150.4776855157
 20
163.2995517323
 30
0.0
 40
3.5
  1
A-A
 41
0.7
 11
150.4776855157
 21
162.0631415156
 31
0.0
 73
     1
  0
LINE
  5
236
  8
DIM
  6
CENTERX2
 10
153.7650655882
 20
127.7117906299
 30
0.0
 11
153.7650655882
 21
151.5109446331
 31
0.0
  0
CIRCLE
  5
237
  8
0
  6
CONTINUOUS
 62
     7
 10
153.7650655882
 20
67.8247033273
 30
0.0
 40
31.50000000000006
  0
CIRCLE
  5
238
  8
0
  6
CONTINUOUS
 62
     7
 10
153.7650655882
 20
67.8247033273
 30
0.0
 40
31.00000000000006
  0
CIRCLE
  5
239
  8
0
  6
CONTINUOUS
 62
     7
 10
132.9777761067
 20
76.4350805555
 30
0.0
 40
1.650000000000006
  0
CIRCLE
  5
23A
  8
0
  6
CONTINUOUS
 62
     7
 10
162.3754428165
 20
88.6119928088
 30
0.0
 40
1.650000000000006
  0
CIRCLE
  5
23B
  8
0
  6
CONTINUOUS
 62
     7
 10
174.5523550697
 20
59.2143260991
 30
0.0
 40
1.650000000000006
  0
CIRCLE
  5
23C
  8
0
  6
CONTINUOUS
 62
     7
 10
145.15468836
 20
47.0374138458
 30
0.0
 40
1.650000000000034
  0
CIRCLE
  5
23D
  8
0
  6
CONTINUOUS
 62
     7
 10
153.7650655882
 20
67.8247033273
 30
0.0
 40
17.25
  0
CIRCLE
  5
23E
  8
0
  6
CONTINUOUS
 62
     7
 10
153.7650655882
 20
39.8247033273
 30
0.0
 40
2.500000000000028
  0
CIRCLE
  5
23F
  8
0
  6
CONTINUOUS
 62
     7
 10
153.7650655882
 20
39.8247033273
 30
0.0
 40
2.000000000000028
  0
CIRCLE
  5
240
  8
0
  6
CONTINUOUS
 62
     7
 10
153.7650655882
 20
67.8247033273
 30
0.0
 40
16.75000000000003
  0
CIRCLE
  5
241
  8
0
  6
CONTINUOUS
 62
     7
 10
142.72324169
 20
61.4497033273
 30
0.0
 40
1.700000000000017
  0
CIRCLE
  5
242
  8
0
  6
CONTINUOUS
 62
     7
 10
142.72324169
 20
74.1997033273
 30
0.0
 40
1.700000000000017
  0
CIRCLE
  5
243
  8
0
  6
CONTINUOUS
 62
     7
 10
153.7650655882
 20
80.5747033273
 30
0.0
 40
1.699999999999989
  0
CIRCLE
  5
244
  8
0
  6
CONTINUOUS
 62
     7
 10
164.8068894865
 20
74.1997033273
 30
0.0
 40
1.700000000000017
  0
CIRCLE
  5
245
  8
0
  6
CONTINUOUS
 62
     7
 10
164.8068894865
 20
61.4497033273
 30
0.0
 40
1.700000000000017
  0
CIRCLE
  5
246
  8
0
  6
CONTINUOUS
 62
     7
 10
153.7650655882
 20
55.0747033273
 30
0.0
 40
1.699999999999989
  0
CIRCLE
  5
247
  8
0
  6
CONTINUOUS
 62
     7
 10
153.7650655882
 20
67.8247033273
 30
0.0
 40
7.999999999999972
  0
CIRCLE
  5
248
  8
0
  6
CONTINUOUS
 62
     7
 10
153.7650655882
 20
67.8247033273
 30
0.0
 40
7.5
  0
ARC
  5
249
  8
0
  6
CONTINUOUS
 62
     7
 10
153.7650655882
 20
83.5747033273
 30
0.0
 40
3.00000000000003
 50
237.0815007435
 51
302.9184992565
  0
ARC
  5
24A
  8
0
  6
CONTINUOUS
 62
     7
 10
153.7650655882
 20
83.5747033273
 30
0.0
 40
2.500000000000106
 50
235.487237245
 51
304.512762755
  0
CIRCLE
  5
24B
  8
0
  6
CENTERX2
 62
     7
 10
153.7650655882
 20
80.5747033273
 30
0.0
 40
3.24999999999997
  0
CIRCLE
  5
24C
  8
0
  6
CENTERX2
 62
     7
 10
164.8068894865
 20
74.1997033273
 30
0.0
 40
3.249999999999993
  0
CIRCLE
  5
24D
  8
0
  6
CENTERX2
 62
     7
 10
164.8068894865
 20
61.4497033273
 30
0.0
 40
3.24999999999997
  0
CIRCLE
  5
24E
  8
0
  6
CENTERX2
 62
     7
 10
153.7650655882
 20
55.0747033273
 30
0.0
 40
3.249999999999995
  0
CIRCLE
  5
24F
  8
0
  6
CENTERX2
 62
     7
 10
142.72324169
 20
61.4497033273
 30
0.0
 40
3.250000000000026
  0
CIRCLE
  5
250
  8
0
  6
CENTERX2
 62
     7
 10
142.72324169
 20
74.1997033273
 30
0.0
 40
3.250000000000024
  0
DIMENSION
  5
251
  8
DIM
  2
_D_10
 10
163.8242672356
 20
75.6589207239
 30
0.0
 11
188.0996557662
 21
94.5648637652
 31
0.0
 70
   163
  1
<>
  3
SLDDIMSTYLE1
 15
143.7058639409
 25
59.9904859306
 35
0.0
 40
0.0
  0
DIMENSION
  5
25B
  8
DIM
  2
_D_11
 10
199.3022642035
 20
39.8247033273
 30
0.0
 11
199.3022642035
 21
53.8247033273
 31
0.0
 70
   160
  1
<>
  3
SLDDIMSTYLE0
 13
190.2650655882
 23
67.8247033273
 33
0.0
 14
160.7650655882
 24
39.8247033273
 34
0.0
 50
90.0
  0
DIMENSION
  5
265
  8
DIM
  2
_D_12
 10
152.7650656005
 20
41.5567541419
 30
0.0
 11
175.5200493443
 21
28.7548949084
 31
0.0
 70
   163
  1
<>H8
  3
SLDDIMSTYLE3
 15
154.7650655759
 25
38.0926525126
 35
0.0
 40
0.0
  0
DIMENSION
  5
276
  8
DIM
  2
_D_13
 10
143.7517430703
 20
72.8461210761
 30
0.0
 11
99.8969089511
 21
100.6664036673
 31
0.0
 70
   163
  1
6x<>\P裏より座ぐりφ6.5深さ3.3
  3
SLDDIMSTYLE8
 15
141.6947403097
 25
75.5532855785
 35
0.0
 40
0.0
  0
INSERT
  5
28E
  8
DIM
  2
SW_CENTERMARKSYMBOL_6
 10
153.7650655882
 20
67.8247033273
 30
0.0
  0
INSERT
  5
2BE
  8
DIM
  2
SW_CENTERMARKSYMBOL_7
 10
153.7650655882
 20
80.5747033273
 30
0.0
  0
INSERT
  5
2CA
  8
DIM
  2
SW_CENTERMARKSYMBOL_8
 10
153.7650655882
 20
39.8247033273
 30
0.0
  0
ENDSEC
  0
EOF
