  0
SECTION
  2
HEADER
  9
$ACADVER
  1
AC1009
  9
$DWGCODEPAGE
  3
dos932
  9
$INSBASE
 10
0.0
 20
0.0
 30
0.0
  9
$EXTMIN
 10
0.0
 20
0.0
 30
0.0
  9
$EXTMAX
 10
420.0
 20
297.0
 30
0.0
  9
$LIMMIN
 10
0.0
 20
0.0
  9
$LIMMAX
 10
420.0
 20
297.0
  9
$ORTHOMODE
 70
     0
  9
$REGENMODE
 70
     1
  9
$FILLMODE
 70
     1
  9
$QTEXTMODE
 70
     0
  9
$MIRRTEXT
 70
     1
  9
$DRAGMODE
 70
     2
  9
$LTSCALE
 40
1.0
  9
$OSMODE
 70
    37
  9
$ATTMODE
 70
     1
  9
$TEXTSIZE
 40
3.5
  9
$TRACEWID
 40
1.0
  9
$TEXTSTYLE
  7
STANDARD
  9
$CLAYER
  8
0
  9
$CELTYPE
  6
BYLAYER
  9
$CECOLOR
 62
   256
  9
$DIMSCALE
 40
1.0
  9
$DIMASZ
 40
3.0
  9
$DIMEXO
 40
0.01
  9
$DIMDLI
 40
3.75
  9
$DIMRND
 40
0.0
  9
$DIMDLE
 40
0.0
  9
$DIMEXE
 40
1.0
  9
$DIMTP
 40
0.0
  9
$DIMTM
 40
0.0
  9
$DIMTXT
 40
3.5
  9
$DIMCEN
 40
2.5
  9
$DIMTSZ
 40
0.0
  9
$DIMTOL
 70
     0
  9
$DIMLIM
 70
     0
  9
$DIMTIH
 70
     1
  9
$DIMTOH
 70
     1
  9
$DIMSE1
 70
     0
  9
$DIMSE2
 70
     0
  9
$DIMTAD
 70
     1
  9
$DIMZIN
 70
     0
  9
$DIMBLK
  1

  9
$DIMASO
 70
     1
  9
$DIMSHO
 70
     1
  9
$DIMPOST
  1

  9
$DIMAPOST
  1

  9
$DIMALT
 70
     0
  9
$DIMALTD
 70
     3
  9
$DIMALTF
 40
0.0393700787
  9
$DIMLFAC
 40
1.0
  9
$DIMTOFL
 70
     1
  9
$DIMTVP
 40
0.0
  9
$DIMTIX
 70
     0
  9
$DIMSOXD
 70
     0
  9
$DIMSAH
 70
     0
  9
$DIMBLK1
  1

  9
$DIMBLK2
  1

  9
$DIMSTYLE
  2
ISO-25
  9
$DIMCLRD
 70
     0
  9
$DIMCLRE
 70
     0
  9
$DIMCLRT
 70
     0
  9
$DIMTFAC
 40
1.0
  9
$DIMGAP
 40
1.524
  9
$LUNITS
 70
     2
  9
$LUPREC
 70
     4
  9
$SKETCHINC
 40
1.0
  9
$FILLETRAD
 40
10.0
  9
$AUNITS
 70
     0
  9
$AUPREC
 70
     2
  9
$MENU
  1
.
  9
$ELEVATION
 40
0.0
  9
$PELEVATION
 40
0.0
  9
$THICKNESS
 40
0.0
  9
$LIMCHECK
 70
     0
  9
$CHAMFERA
 40
0.0
  9
$CHAMFERB
 40
0.0
  9
$SKPOLY
 70
     0
  9
$TDCREATE
 40
2460356.61540309
  9
$TDUPDATE
 40
2460356.615405127
  9
$TDINDWG
 40
0.0000000116
  9
$TDUSRTIMER
 40
0.0000000116
  9
$USRTIMER
 70
     1
  9
$ANGBASE
 50
0.0
  9
$ANGDIR
 70
     0
  9
$PDMODE
 70
     0
  9
$PDSIZE
 40
-1.0
  9
$PLINEWID
 40
0.0
  9
$COORDS
 70
     1
  9
$SPLFRAME
 70
     0
  9
$SPLINETYPE
 70
     6
  9
$SPLINESEGS
 70
     8
  9
$ATTDIA
 70
     0
  9
$ATTREQ
 70
     1
  9
$HANDLING
 70
     1
  9
$HANDSEED
  5
26E
  9
$SURFTAB1
 70
     6
  9
$SURFTAB2
 70
     6
  9
$SURFTYPE
 70
     6
  9
$SURFU
 70
     6
  9
$SURFV
 70
     6
  9
$UCSNAME
  2

  9
$UCSORG
 10
0.0
 20
0.0
 30
0.0
  9
$UCSXDIR
 10
1.0
 20
0.0
 30
0.0
  9
$UCSYDIR
 10
0.0
 20
1.0
 30
0.0
  9
$PUCSNAME
  2

  9
$PUCSORG
 10
0.0
 20
0.0
 30
0.0
  9
$PUCSXDIR
 10
1.0
 20
0.0
 30
0.0
  9
$PUCSYDIR
 10
0.0
 20
1.0
 30
0.0
  9
$USERI1
 70
     0
  9
$USERI2
 70
     0
  9
$USERI3
 70
     0
  9
$USERI4
 70
     0
  9
$USERI5
 70
     0
  9
$USERR1
 40
0.0
  9
$USERR2
 40
0.0
  9
$USERR3
 40
0.0
  9
$USERR4
 40
0.0
  9
$USERR5
 40
0.0
  9
$WORLDVIEW
 70
     1
  9
$SHADEDGE
 70
     3
  9
$SHADEDIF
 70
    70
  9
$TILEMODE
 70
     1
  9
$MAXACTVP
 70
    64
  9
$PLIMCHECK
 70
     0
  9
$PEXTMIN
 10
1.0000000000E+20
 20
1.0000000000E+20
 30
1.0000000000E+20
  9
$PEXTMAX
 10
-1.0000000000E+20
 20
-1.0000000000E+20
 30
-1.0000000000E+20
  9
$PLIMMIN
 10
0.0
 20
0.0
  9
$PLIMMAX
 10
420.0
 20
297.0
  9
$UNITMODE
 70
     0
  9
$VISRETAIN
 70
     1
  9
$PLINEGEN
 70
     0
  9
$PSLTSCALE
 70
     1
  0
ENDSEC
  0
SECTION
  2
TABLES
  0
TABLE
  2
VPORT
 70
     1
  0
VPORT
  2
*ACTIVE
 70
     0
 10
0.0
 20
0.0
 11
1.0
 21
1.0
 12
210.0
 22
148.5
 13
0.0
 23
0.0
 14
10.0
 24
10.0
 15
10.0
 25
10.0
 16
0.0
 26
0.0
 36
1.0
 17
0.0
 27
0.0
 37
0.0
 40
297.0
 41
1.4141414141
 42
50.0
 43
0.0
 44
0.0
 50
0.0
 51
0.0
 71
     0
 72
  2000
 73
     1
 74
     3
 75
     0
 76
     0
 77
     0
 78
     0
  0
ENDTAB
  0
TABLE
  2
LTYPE
 70
     6
  0
LTYPE
  2
CONTINUOUS
 70
     0
  3
Solid line
 72
    65
 73
     0
 40
0.0
  0
LTYPE
  2
HIDDEN
 70
     0
  3
Hidden __ __ __ __ __ __ __ __ __ __ __ __ __ __
 72
    65
 73
     2
 40
1.905
 49
1.27
 49
-0.635
  0
LTYPE
  2
PHANTOM
 70
     0
  3
Phantom ______  __  __  ______  __  __  ______
 72
    65
 73
     6
 40
12.7
 49
6.35
 49
-1.27
 49
1.27
 49
-1.27
 49
1.27
 49
-1.27
  0
LTYPE
  2
CENTER
 70
     0
  3
Center ____ _ ____ _ ____ _ ____ _ ____ _ ____
 72
    65
 73
     4
 40
10.16
 49
6.35
 49
-1.27
 49
1.27
 49
-1.27
  0
LTYPE
  2
CENTERX2
 70
     0
  3
Center (2x) ________  __  ________  __  _____
 72
    65
 73
     4
 40
20.32
 49
12.7
 49
-2.54
 49
2.54
 49
-2.54
  0
LTYPE
  2
DOT2
 70
     0
  3
Dot (.5x) ........................................
 72
    65
 73
     2
 40
0.635
 49
0.0
 49
-0.635
  0
ENDTAB
  0
TABLE
  2
LAYER
 70
     4
  0
LAYER
  2
0
 70
     0
 62
     7
  6
CONTINUOUS
  0
LAYER
  2
DIM
 70
     0
 62
     7
  6
CONTINUOUS
  0
LAYER
  2
TXT
 70
     0
 62
     7
  6
CONTINUOUS
  0
LAYER
  2
FRAME
 70
     0
 62
     7
  6
CONTINUOUS
  0
ENDTAB
  0
TABLE
  2
STYLE
 70
     1
  0
STYLE
  2
STANDARD
 70
     0
 40
0.0
 41
1.0
 50
0.0
 71
     0
 42
3.5
  3
txt
  4
bigfont
  0
ENDTAB
  0
TABLE
  2
VIEW
 70
     0
  0
ENDTAB
  0
TABLE
  2
UCS
 70
     0
  0
ENDTAB
  0
TABLE
  2
APPID
 70
     1
  0
APPID
  2
ACAD
 70
     0
  0
ENDTAB
  0
TABLE
  2
DIMSTYLE
 70
     4
  0
DIMSTYLE
  2
ISO-25
 70
     0
  3

  4

  5

  6

  7

 40
1.0
 41
2.5
 42
0.625
 43
3.75
 44
1.25
 45
0.0
 46
0.0
 47
0.0
 48
0.0
140
2.5
141
2.5
142
0.0
143
0.0393700787
144
1.0
145
0.0
146
1.0
147
0.625
 71
     0
 72
     0
 73
     0
 74
     0
 75
     0
 76
     0
 77
     1
 78
     8
170
     0
171
     3
172
     1
173
     0
174
     0
175
     0
176
     0
177
     0
178
     0
  0
DIMSTYLE
  2
SLDDIMSTYLE0
 70
     0
  3

  4

  5

  6
OPEN30
  7
OPEN30
 40
1.0
 41
3.0
 42
0.0625
 43
0.38
 44
0.0
 45
0.000000001
 46
0.0
 47
0.3
 48
0.3
140
3.5
141
0.09
142
0.0
143
25.4
144
1.0
145
0.0
146
1.0
147
0.875
 71
     1
 72
     0
 73
     0
 74
     0
 75
     0
 76
     0
 77
     3
 78
    12
170
     0
171
     2
172
     1
173
     1
174
     0
175
     0
176
     0
177
     0
178
     0
  0
DIMSTYLE
  2
SLDDIMSTYLE1
 70
     0
  3

  4

  5

  6
OPEN30
  7
OPEN30
 40
1.0
 41
3.0
 42
0.0625
 43
0.38
 44
0.0
 45
0.000000001
 46
0.0
 47
0.0
 48
0.0
140
3.5
141
0.09
142
0.0
143
25.4
144
1.0
145
0.0
146
1.0
147
0.875
 71
     0
 72
     0
 73
     0
 74
     0
 75
     0
 76
     0
 77
     3
 78
    12
170
     0
171
     2
172
     0
173
     1
174
     0
175
     0
176
     0
177
     0
178
     0
  0
DIMSTYLE
  2
SLDDIMSTYLE2
 70
     0
  3

  4

  5

  6
NONE
  7
OPEN30
 40
1.0
 41
3.0
 42
0.0625
 43
0.38
 44
0.0
 45
0.000000001
 46
0.0
 47
0.014
 48
0.0
140
3.5
141
0.0
142
0.0
143
25.4
144
1.0
145
0.0
146
1.0
147
0.875
 71
     1
 72
     0
 73
     1
 74
     1
 75
     0
 76
     0
 77
     0
 78
    12
170
     0
171
     2
172
     1
173
     1
174
     0
175
     0
176
     0
177
     0
178
     0
  0
ENDTAB
  0
ENDSEC
  0
SECTION
  2
BLOCKS
  0
BLOCK
  8
0
  2
$MODEL_SPACE
 70
     0
 10
0.0
 20
0.0
 30
0.0
  3
$MODEL_SPACE
  1

  0
ENDBLK
  5
21
  8
0
  0
BLOCK
 67
     1
  8
0
  2
$PAPER_SPACE
 70
     0
 10
0.0
 20
0.0
 30
0.0
  3
$PAPER_SPACE
  1

  0
ENDBLK
  5
1D
 67
     1
  8
0
  0
BLOCK
  8
0
  2
_OPEN30
 70
     0
 10
0.0
 20
0.0
 30
0.0
  3
_OPEN30
  1

  0
LINE
  5
9A
  8
0
  6
BYBLOCK
 62
     0
 10
-1.0
 20
0.267949
 30
0.0
 11
0.0
 21
0.0
 31
0.0
  0
LINE
  5
9B
  8
0
  6
BYBLOCK
 62
     0
 10
0.0
 20
0.0
 30
0.0
 11
-1.0
 21
-0.267949
 31
0.0
  0
LINE
  5
9C
  8
0
  6
BYBLOCK
 62
     0
 10
0.0
 20
0.0
 30
0.0
 11
-1.0
 21
0.0
 31
0.0
  0
ENDBLK
  5
99
  8
0
  0
BLOCK
  8
0
  2
_D
 70
     0
 10
0.0
 20
0.0
 30
0.0
  3
_D
  1

  0
INSERT
  5
A0
  8
DIM
  2
_OPEN30
 10
135.5289254109
 20
178.0621972792
 30
0.0
 41
3.0
 42
3.0
 50
0.0
  0
INSERT
  5
A1
  8
DIM
  2
_OPEN30
 10
155.0289254109
 20
178.0621972792
 30
0.0
 41
3.0
 42
3.0
 50
180.0
  0
LINE
  5
A2
  8
DIM
 10
135.5289254109
 20
205.8685377772
 30
0.0
 11
135.5289254109
 21
177.0621972792
 31
0.0
  0
LINE
  5
A3
  8
DIM
 10
155.0289254109
 20
204.3845006321
 30
0.0
 11
155.0289254109
 21
177.0621972792
 31
0.0
  0
LINE
  5
A4
  8
DIM
 10
135.5289254109
 20
178.0621972792
 30
0.0
 11
129.1789254109
 21
178.0621972792
 31
0.0
  0
LINE
  5
A5
  8
DIM
 10
135.5289254109
 20
178.0621972792
 30
0.0
 11
155.0289254109
 21
178.0621972792
 31
0.0
  0
LINE
  5
A6
  8
DIM
 10
155.0289254109
 20
178.0621972792
 30
0.0
 11
161.3789254109
 21
178.0621972792
 31
0.0
  0
TEXT
  5
A7
  8
DIM
 10
136.6225018719
 20
179.298607263
 30
0.0
 40
3.5
  1
19.5
 41
0.7
 11
136.6225018719
 21
178.0621970463
 31
0.0
 73
     1
  0
TEXT
  5
A8
  8
DIM
 10
144.7697238619
 20
179.298607263
 30
0.0
 40
3.5
  1
 
 41
0.7
 11
144.7697238619
 21
178.0621970463
 31
0.0
 73
     1
  0
TEXT
  5
A9
  8
DIM
 10
146.8065291265
 20
179.0997675514
 30
0.0
 40
2.45
  1
±0.3
 41
0.7
 11
146.8065291265
 21
178.2342803997
 31
0.0
 73
     1
  0
ENDBLK
  5
9F
  8
0
  0
BLOCK
  8
0
  2
_D_1
 70
     0
 10
0.0
 20
0.0
 30
0.0
  3
_D_1
  1

  0
INSERT
  5
AF
  8
DIM
  2
_OPEN30
 10
114.3289254109
 20
262.1800525443
 30
-4.0
 41
3.0
 42
3.0
 50
180.0
  0
INSERT
  5
B0
  8
DIM
  2
_OPEN30
 10
169.3289254109
 20
262.1800525443
 30
-4.0
 41
3.0
 42
3.0
 50
0.0
  0
LINE
  5
B1
  8
DIM
 10
114.3289254109
 20
238.4045006321
 30
0.0
 11
114.3289254109
 21
263.1800525443
 31
0.0
  0
LINE
  5
B2
  8
DIM
 10
169.3289254109
 20
238.4045006321
 30
0.0
 11
169.3289254109
 21
263.1800525443
 31
0.0
  0
LINE
  5
B3
  8
DIM
 10
114.3289254109
 20
262.1800525443
 30
0.0
 11
169.3289254109
 21
262.1800525443
 31
0.0
  0
TEXT
  5
B4
  8
DIM
 10
139.7921199134
 20
263.4164625282
 30
-4.0
 40
3.5
  1
55
 41
0.7
 11
139.7921199134
 21
262.1800523115
 31
-4.0
 73
     1
  0
ENDBLK
  5
AE
  8
0
  0
BLOCK
  8
0
  2
_D_2
 70
     0
 10
0.0
 20
0.0
 30
0.0
  3
_D_2
  1

  0
INSERT
  5
B9
  8
DIM
  2
_OPEN30
 10
196.8995307409
 20
243.3945006321
 30
-4.0
 41
3.0
 42
3.0
 50
90.0
  0
INSERT
  5
BA
  8
DIM
  2
_OPEN30
 10
196.8995307409
 20
193.3945006321
 30
-4.0
 41
3.0
 42
3.0
 50
270.0
  0
LINE
  5
BB
  8
DIM
 10
164.3389254109
 20
243.3945006321
 30
0.0
 11
197.8995307409
 21
243.3945006321
 31
0.0
  0
LINE
  5
BC
  8
DIM
 10
164.3389254109
 20
193.3945006321
 30
0.0
 11
197.8995307409
 21
193.3945006321
 31
0.0
  0
LINE
  5
BD
  8
DIM
 10
196.8995307409
 20
243.3945006321
 30
0.0
 11
196.8995307409
 21
193.3945006321
 31
0.0
  0
TEXT
  5
BE
  8
DIM
 10
195.663120757
 20
216.3576951346
 30
-4.0
 40
3.5
  1
50
 50
90.0
 41
0.7
 11
196.8995309738
 21
216.3576951346
 31
-4.0
 73
     1
  0
ENDBLK
  5
B8
  8
0
  0
BLOCK
  8
0
  2
_D_3
 70
     0
 10
0.0
 20
0.0
 30
0.0
  3
_D_3
  1

  0
INSERT
  5
C3
  8
DIM
  2
_OPEN30
 10
186.3995307409
 20
225.8945006321
 30
-4.0
 41
3.0
 42
3.0
 50
90.0
  0
INSERT
  5
C4
  8
DIM
  2
_OPEN30
 10
186.3995307409
 20
210.8945006321
 30
-4.0
 41
3.0
 42
3.0
 50
270.0
  0
LINE
  5
C5
  8
DIM
 10
161.5389254109
 20
225.8945006321
 30
0.0
 11
187.3995307409
 21
225.8945006321
 31
0.0
  0
LINE
  5
C6
  8
DIM
 10
161.5389254109
 20
210.8945006321
 30
0.0
 11
187.3995307409
 21
210.8945006321
 31
0.0
  0
LINE
  5
C7
  8
DIM
 10
186.3995307409
 20
225.8945006321
 30
0.0
 11
186.3995307409
 21
210.8945006321
 31
0.0
  0
TEXT
  5
C8
  8
DIM
 10
185.163120757
 20
216.3576951346
 30
-4.0
 40
3.5
  1
15
 50
90.0
 41
0.7
 11
186.3995309738
 21
216.3576951346
 31
-4.0
 73
     1
  0
ENDBLK
  5
C2
  8
0
  0
BLOCK
  8
0
  2
_D_4
 70
     0
 10
0.0
 20
0.0
 30
0.0
  3
_D_4
  1

  0
INSERT
  5
CD
  8
DIM
  2
_OPEN30
 10
169.3289254109
 20
250.5005491535
 30
-4.0
 41
3.0
 42
3.0
 50
0.0
  0
INSERT
  5
CE
  8
DIM
  2
_OPEN30
 10
155.0289254109
 20
250.5005491535
 30
-4.0
 41
3.0
 42
3.0
 50
180.0
  0
LINE
  5
CF
  8
DIM
 10
169.3289254109
 20
238.4045006321
 30
0.0
 11
169.3289254109
 21
251.5005491535
 31
0.0
  0
LINE
  5
D0
  8
DIM
 10
155.0289254109
 20
232.4045006321
 30
0.0
 11
155.0289254109
 21
251.5005491535
 31
0.0
  0
LINE
  5
D1
  8
DIM
 10
169.3289254109
 20
250.5005491535
 30
0.0
 11
155.0289254109
 21
250.5005491535
 31
0.0
  0
TEXT
  5
D2
  8
DIM
 10
158.1053144159
 20
251.7369591374
 30
-4.0
 40
3.5
  1
14.3
 50
0.0
 41
0.7
 11
158.1053144159
 21
250.5005489207
 31
-4.0
 73
     1
  0
ENDBLK
  5
CC
  8
0
  0
BLOCK
  8
0
  2
_D_5
 70
     0
 10
0.0
 20
0.0
 30
0.0
  3
_D_5
  1

  0
INSERT
  5
D7
  8
DIM
  2
_OPEN30
 10
127.5289254109
 20
250.5005491535
 30
-4.0
 41
3.0
 42
3.0
 50
180.0
  0
INSERT
  5
D8
  8
DIM
  2
_OPEN30
 10
143.5289254109
 20
250.5005491535
 30
-4.0
 41
3.0
 42
3.0
 50
0.0
  0
LINE
  5
D9
  8
DIM
 10
127.5289254109
 20
225.1045006321
 30
0.0
 11
127.5289254109
 21
251.5005491535
 31
0.0
  0
LINE
  5
DA
  8
DIM
 10
143.5289254109
 20
225.1045006321
 30
0.0
 11
143.5289254109
 21
251.5005491535
 31
0.0
  0
LINE
  5
DB
  8
DIM
 10
127.5289254109
 20
250.5005491535
 30
0.0
 11
143.5289254109
 21
250.5005491535
 31
0.0
  0
TEXT
  5
DC
  8
DIM
 10
133.4921199134
 20
251.7369591374
 30
-4.0
 40
3.5
  1
16
 41
0.7
 11
133.4921199134
 21
250.5005489207
 31
-4.0
 73
     1
  0
ENDBLK
  5
D6
  8
0
  0
BLOCK
  8
0
  2
_NONE
 70
     0
 10
0.0
 20
0.0
 30
0.0
  3
_NONE
  1

  0
ENDBLK
  5
E1
  8
0
  0
BLOCK
  8
0
  2
_D_6
 70
     0
 10
0.0
 20
0.0
 30
0.0
  3
_D_6
  1

  0
ARC
  5
E5
  8
DIM
 10
190.7786593707
 20
177.8722641491
 30
0.0
 40
6.37621018554247
 50
153.4349488229
 51
206.5650511771
  0
ARC
  5
E6
  8
DIM
 10
187.9271312552
 20
177.8722641491
 30
0.0
 40
6.37621018554247
 50
333.4349488229
 51
26.5650511771
  0
INSERT
  5
E7
  8
DIM
  2
_OPEN30
 10
155.4171539762
 20
209.4456118921
 30
-4.0
 41
3.0
 42
3.0
 50
104.9999999075
  0
LINE
  5
E8
  8
DIM
 10
155.4171539762
 20
209.4456118921
 30
0.0
 11
164.6873811119
 21
174.8486530003
 31
0.0
  0
LINE
  5
E9
  8
DIM
 10
154.6406968456
 20
212.3433893722
 30
0.0
 11
155.4171539762
 21
209.4456118921
 31
0.0
  0
LINE
  5
EA
  8
DIM
 10
164.6873811119
 20
174.8486530003
 30
0.0
 11
206.5241803699
 21
174.8486530003
 31
0.0
  0
TEXT
  5
EB
  8
DIM
 10
166.2748811119
 20
176.0850634498
 30
-4.0
 40
3.5
  1
2x
 41
0.7
 11
166.2748811119
 21
174.8486532331
 31
-4.0
 73
     1
  0
TEXT
  5
EC
  8
DIM
 10
170.3484921069
 20
176.0850634498
 30
-4.0
 40
3.5
  1
%%c
 41
0.7
 11
170.3484921069
 21
174.8486532331
 31
-4.0
 73
     1
  0
TEXT
  5
ED
  8
DIM
 10
174.2184228548
 20
176.0850634498
 30
-4.0
 40
3.5
  1
3
 41
0.7
 11
174.2184228548
 21
174.8486532331
 31
-4.0
 73
     1
  0
TEXT
  5
EE
  8
DIM
 10
176.2552281194
 20
176.0850634498
 30
-4.0
 40
3.5
  1
 H8 
 41
0.525
 11
176.2552281194
 21
174.8486532331
 31
-4.0
 73
     1
  0
TEXT
  5
EF
  8
DIM
 10
185.0756036053
 20
178.7377513881
 30
-4.0
 40
2.45
  1
+
 41
0.7
 11
185.0756036053
 21
177.8722642364
 31
-4.0
 73
     1
  0
TEXT
  5
F0
  8
DIM
 10
185.0756036053
 20
175.8862235054
 30
-4.0
 40
2.45
  1
 
 41
0.7
 11
185.0756036053
 21
175.0207363536
 31
-4.0
 73
     1
  0
TEXT
  5
F1
  8
DIM
 10
186.5013675466
 20
178.7377513881
 30
-4.0
 40
2.45
  1
0.014
 41
0.7
 11
186.5013675466
 21
177.8722642364
 31
-4.0
 73
     1
  0
TEXT
  5
F2
  8
DIM
 10
186.5013675466
 20
175.8862235054
 30
-4.0
 40
2.45
  1
0
 41
0.7
 11
186.5013675466
 21
175.0207363536
 31
-4.0
 73
     1
  0
TEXT
  5
F3
  8
DIM
 10
194.3033431941
 20
176.0850634498
 30
-4.0
 40
3.5
  1
 深さ3
 41
0.7
 11
194.3033431941
 21
174.8486532331
 31
-4.0
 73
     1
  0
ENDBLK
  5
E4
  8
0
  0
BLOCK
  8
0
  2
SW_CENTERMARKSYMBOL_0
 70
     0
 10
0.0
 20
0.0
 30
0.0
  3
SW_CENTERMARKSYMBOL_0
  1

  0
LINE
  5
F7
  8
DIM
 62
     0
 10
0.0
 20
0.0
 30
0.0
 11
0.0
 21
5.0
 31
0.0
  0
LINE
  5
F8
  8
DIM
 62
     0
 10
0.0
 20
0.0
 30
0.0
 11
-5.0
 21
0.0
 31
0.0
  0
LINE
  5
F9
  8
DIM
 62
     0
 10
0.0
 20
0.0
 30
0.0
 11
0.0
 21
-5.0
 31
0.0
  0
LINE
  5
FA
  8
DIM
 62
     0
 10
0.0
 20
0.0
 30
0.0
 11
5.0
 21
0.0
 31
0.0
  0
LINE
  5
FB
  8
DIM
 62
     0
 10
0.0
 20
5.0
 30
0.0
 11
0.0
 21
9.0
 31
0.0
  0
LINE
  5
FC
  8
DIM
 62
     0
 10
-5.0
 20
0.0
 30
0.0
 11
-9.0
 21
0.0
 31
0.0
  0
LINE
  5
FD
  8
DIM
 62
     0
 10
0.0
 20
-5.0
 30
0.0
 11
0.0
 21
-9.0
 31
0.0
  0
LINE
  5
FE
  8
DIM
 62
     0
 10
5.0
 20
0.0
 30
0.0
 11
9.0
 21
0.0
 31
0.0
  0
ENDBLK
  5
F6
  8
0
  0
BLOCK
  8
0
  2
SW_CENTERMARKSYMBOL_1
 70
     0
 10
0.0
 20
0.0
 30
0.0
  3
SW_CENTERMARKSYMBOL_1
  1

  0
LINE
  5
103
  8
DIM
 62
     0
 10
0.0
 20
0.0
 30
0.0
 11
0.0
 21
5.0
 31
0.0
  0
LINE
  5
104
  8
DIM
 62
     0
 10
0.0
 20
0.0
 30
0.0
 11
-5.0
 21
0.0
 31
0.0
  0
LINE
  5
105
  8
DIM
 62
     0
 10
0.0
 20
0.0
 30
0.0
 11
0.0
 21
-5.0
 31
0.0
  0
LINE
  5
106
  8
DIM
 62
     0
 10
0.0
 20
0.0
 30
0.0
 11
5.0
 21
0.0
 31
0.0
  0
LINE
  5
107
  8
DIM
 62
     0
 10
0.0
 20
5.0
 30
0.0
 11
0.0
 21
9.0
 31
0.0
  0
LINE
  5
108
  8
DIM
 62
     0
 10
-5.0
 20
0.0
 30
0.0
 11
-9.0
 21
0.0
 31
0.0
  0
LINE
  5
109
  8
DIM
 62
     0
 10
0.0
 20
-5.0
 30
0.0
 11
0.0
 21
-9.0
 31
0.0
  0
LINE
  5
10A
  8
DIM
 62
     0
 10
5.0
 20
0.0
 30
0.0
 11
9.0
 21
0.0
 31
0.0
  0
ENDBLK
  5
102
  8
0
  0
BLOCK
  8
0
  2
SW_CENTERMARKSYMBOL_2
 70
     0
 10
0.0
 20
0.0
 30
0.0
  3
SW_CENTERMARKSYMBOL_2
  1

  0
LINE
  5
10F
  8
DIM
 62
     0
 10
0.0
 20
0.0
 30
0.0
 11
0.0
 21
5.0
 31
0.0
  0
LINE
  5
110
  8
DIM
 62
     0
 10
0.0
 20
0.0
 30
0.0
 11
-5.0
 21
0.0
 31
0.0
  0
LINE
  5
111
  8
DIM
 62
     0
 10
0.0
 20
0.0
 30
0.0
 11
0.0
 21
-5.0
 31
0.0
  0
LINE
  5
112
  8
DIM
 62
     0
 10
0.0
 20
0.0
 30
0.0
 11
5.0
 21
0.0
 31
0.0
  0
LINE
  5
113
  8
DIM
 62
     0
 10
0.0
 20
5.0
 30
0.0
 11
0.0
 21
9.0
 31
0.0
  0
LINE
  5
114
  8
DIM
 62
     0
 10
-5.0
 20
0.0
 30
0.0
 11
-9.0
 21
0.0
 31
0.0
  0
LINE
  5
115
  8
DIM
 62
     0
 10
0.0
 20
-5.0
 30
0.0
 11
0.0
 21
-9.0
 31
0.0
  0
LINE
  5
116
  8
DIM
 62
     0
 10
5.0
 20
0.0
 30
0.0
 11
9.0
 21
0.0
 31
0.0
  0
ENDBLK
  5
10E
  8
0
  0
BLOCK
  8
0
  2
SW_CENTERMARKSYMBOL_3
 70
     0
 10
0.0
 20
0.0
 30
0.0
  3
SW_CENTERMARKSYMBOL_3
  1

  0
LINE
  5
11B
  8
DIM
 62
     0
 10
0.0
 20
0.0
 30
0.0
 11
0.0
 21
5.0
 31
0.0
  0
LINE
  5
11C
  8
DIM
 62
     0
 10
0.0
 20
0.0
 30
0.0
 11
-5.0
 21
0.0
 31
0.0
  0
LINE
  5
11D
  8
DIM
 62
     0
 10
0.0
 20
0.0
 30
0.0
 11
0.0
 21
-5.0
 31
0.0
  0
LINE
  5
11E
  8
DIM
 62
     0
 10
0.0
 20
0.0
 30
0.0
 11
5.0
 21
0.0
 31
0.0
  0
LINE
  5
11F
  8
DIM
 62
     0
 10
0.0
 20
5.0
 30
0.0
 11
0.0
 21
9.0
 31
0.0
  0
LINE
  5
120
  8
DIM
 62
     0
 10
-5.0
 20
0.0
 30
0.0
 11
-9.0
 21
0.0
 31
0.0
  0
LINE
  5
121
  8
DIM
 62
     0
 10
0.0
 20
-5.0
 30
0.0
 11
0.0
 21
-9.0
 31
0.0
  0
LINE
  5
122
  8
DIM
 62
     0
 10
5.0
 20
0.0
 30
0.0
 11
9.0
 21
0.0
 31
0.0
  0
ENDBLK
  5
11A
  8
0
  0
BLOCK
  8
0
  2
SW_CENTERMARKSYMBOL_4
 70
     0
 10
0.0
 20
0.0
 30
0.0
  3
SW_CENTERMARKSYMBOL_4
  1

  0
LINE
  5
127
  8
DIM
 62
     0
 10
0.0
 20
0.0
 30
0.0
 11
0.0
 21
5.0
 31
0.0
  0
LINE
  5
128
  8
DIM
 62
     0
 10
0.0
 20
0.0
 30
0.0
 11
-5.0
 21
0.0
 31
0.0
  0
LINE
  5
129
  8
DIM
 62
     0
 10
0.0
 20
0.0
 30
0.0
 11
0.0
 21
-5.0
 31
0.0
  0
LINE
  5
12A
  8
DIM
 62
     0
 10
0.0
 20
0.0
 30
0.0
 11
5.0
 21
0.0
 31
0.0
  0
LINE
  5
12B
  8
DIM
 62
     0
 10
0.0
 20
5.0
 30
0.0
 11
0.0
 21
6.5
 31
0.0
  0
LINE
  5
12C
  8
DIM
 62
     0
 10
-5.0
 20
0.0
 30
0.0
 11
-6.5
 21
0.0
 31
0.0
  0
LINE
  5
12D
  8
DIM
 62
     0
 10
0.0
 20
-5.0
 30
0.0
 11
0.0
 21
-6.5
 31
0.0
  0
LINE
  5
12E
  8
DIM
 62
     0
 10
5.0
 20
0.0
 30
0.0
 11
6.5
 21
0.0
 31
0.0
  0
ENDBLK
  5
126
  8
0
  0
BLOCK
  8
0
  2
SW_CENTERMARKSYMBOL_5
 70
     0
 10
0.0
 20
0.0
 30
0.0
  3
SW_CENTERMARKSYMBOL_5
  1

  0
LINE
  5
133
  8
DIM
 62
     0
 10
0.0
 20
0.0
 30
0.0
 11
0.0
 21
5.0
 31
0.0
  0
LINE
  5
134
  8
DIM
 62
     0
 10
0.0
 20
0.0
 30
0.0
 11
-5.0
 21
0.0
 31
0.0
  0
LINE
  5
135
  8
DIM
 62
     0
 10
0.0
 20
0.0
 30
0.0
 11
0.0
 21
-5.0
 31
0.0
  0
LINE
  5
136
  8
DIM
 62
     0
 10
0.0
 20
0.0
 30
0.0
 11
5.0
 21
0.0
 31
0.0
  0
LINE
  5
137
  8
DIM
 62
     0
 10
0.0
 20
5.0
 30
0.0
 11
0.0
 21
6.5
 31
0.0
  0
LINE
  5
138
  8
DIM
 62
     0
 10
-5.0
 20
0.0
 30
0.0
 11
-6.5
 21
0.0
 31
0.0
  0
LINE
  5
139
  8
DIM
 62
     0
 10
0.0
 20
-5.0
 30
0.0
 11
0.0
 21
-6.5
 31
0.0
  0
LINE
  5
13A
  8
DIM
 62
     0
 10
5.0
 20
0.0
 30
0.0
 11
6.5
 21
0.0
 31
0.0
  0
ENDBLK
  5
132
  8
0
  0
BLOCK
  8
0
  2
SW_CENTERMARKSYMBOL_6
 70
     0
 10
0.0
 20
0.0
 30
0.0
  3
SW_CENTERMARKSYMBOL_6
  1

  0
LINE
  5
13F
  8
DIM
 62
     0
 10
0.0
 20
0.0
 30
0.0
 11
0.0
 21
5.0
 31
0.0
  0
LINE
  5
140
  8
DIM
 62
     0
 10
0.0
 20
0.0
 30
0.0
 11
-5.0
 21
0.0
 31
0.0
  0
LINE
  5
141
  8
DIM
 62
     0
 10
0.0
 20
0.0
 30
0.0
 11
0.0
 21
-5.0
 31
0.0
  0
LINE
  5
142
  8
DIM
 62
     0
 10
0.0
 20
0.0
 30
0.0
 11
5.0
 21
0.0
 31
0.0
  0
LINE
  5
143
  8
DIM
 62
     0
 10
0.0
 20
5.0
 30
0.0
 11
0.0
 21
6.7
 31
0.0
  0
LINE
  5
144
  8
DIM
 62
     0
 10
-5.0
 20
0.0
 30
0.0
 11
-6.7
 21
0.0
 31
0.0
  0
LINE
  5
145
  8
DIM
 62
     0
 10
0.0
 20
-5.0
 30
0.0
 11
0.0
 21
-6.7
 31
0.0
  0
LINE
  5
146
  8
DIM
 62
     0
 10
5.0
 20
0.0
 30
0.0
 11
6.7
 21
0.0
 31
0.0
  0
ENDBLK
  5
13E
  8
0
  0
BLOCK
  8
0
  2
SW_CENTERMARKSYMBOL_7
 70
     0
 10
0.0
 20
0.0
 30
0.0
  3
SW_CENTERMARKSYMBOL_7
  1

  0
LINE
  5
14B
  8
DIM
 62
     0
 10
0.0
 20
0.0
 30
0.0
 11
0.0
 21
5.0
 31
0.0
  0
LINE
  5
14C
  8
DIM
 62
     0
 10
0.0
 20
0.0
 30
0.0
 11
-5.0
 21
0.0
 31
0.0
  0
LINE
  5
14D
  8
DIM
 62
     0
 10
0.0
 20
0.0
 30
0.0
 11
0.0
 21
-5.0
 31
0.0
  0
LINE
  5
14E
  8
DIM
 62
     0
 10
0.0
 20
0.0
 30
0.0
 11
5.0
 21
0.0
 31
0.0
  0
LINE
  5
14F
  8
DIM
 62
     0
 10
0.0
 20
5.0
 30
0.0
 11
0.0
 21
6.7
 31
0.0
  0
LINE
  5
150
  8
DIM
 62
     0
 10
-5.0
 20
0.0
 30
0.0
 11
-6.7
 21
0.0
 31
0.0
  0
LINE
  5
151
  8
DIM
 62
     0
 10
0.0
 20
-5.0
 30
0.0
 11
0.0
 21
-6.7
 31
0.0
  0
LINE
  5
152
  8
DIM
 62
     0
 10
5.0
 20
0.0
 30
0.0
 11
6.7
 21
0.0
 31
0.0
  0
ENDBLK
  5
14A
  8
0
  0
BLOCK
  8
0
  2
_D_7
 70
     0
 10
0.0
 20
0.0
 30
0.0
  3
_D_7
  1

  0
INSERT
  5
171
  8
DIM
  2
_OPEN30
 10
234.340783818
 20
256.989149873
 30
0.0
 41
3.0
 42
3.0
 50
180.0
  0
INSERT
  5
172
  8
DIM
  2
_OPEN30
 10
242.340783818
 20
256.989149873
 30
0.0
 41
3.0
 42
3.0
 50
0.0
  0
LINE
  5
173
  8
DIM
 10
234.340783818
 20
238.4045006321
 30
0.0
 11
234.340783818
 21
257.989149873
 31
0.0
  0
LINE
  5
174
  8
DIM
 10
242.340783818
 20
238.4045006321
 30
0.0
 11
242.340783818
 21
257.989149873
 31
0.0
  0
LINE
  5
175
  8
DIM
 10
234.340783818
 20
256.989149873
 30
0.0
 11
242.340783818
 21
256.989149873
 31
0.0
  0
TEXT
  5
176
  8
DIM
 10
237.3223810692
 20
258.2255598569
 30
0.0
 40
3.5
  1
8
 41
0.7
 11
237.3223810692
 21
256.9891496402
 31
0.0
 73
     1
  0
ENDBLK
  5
170
  8
0
  0
BLOCK
  8
0
  2
SW_NOTE_0
 70
     0
 10
0.0
 20
0.0
 30
0.0
  3
SW_NOTE_0
  1

  0
LINE
  5
1AA
  8
TXT
 62
     0
 10
76.4729491711
 20
-12.4331737168
 30
0.0
 11
27.7160338939
 21
-12.4331737168
 31
0.0
  0
TEXT
  5
1AB
  8
TXT
 62
     0
 10
28.1161258435
 20
-11.0894511795
 30
0.0
 40
3.5
  1
4xφ4.5,8深座ぐり深さ5.3
 41
0.7
 11
28.1161258435
 21
-12.3258613962
 31
0.0
 73
     1
  0
LINE
  5
1AC
  8
TXT
 62
     0
 10
27.7160338939
 20
-12.4331737168
 30
0.0
 11
0.0
 21
0.0
 31
0.0
  0
INSERT
  5
1AD
  8
TXT
 62
     0
  2
_OPEN30
 10
0.0
 20
0.0
 30
4.0
 41
3.0
 42
3.0
 50
155.8394071761
  0
ENDBLK
  5
1A9
  8
0
  0
BLOCK
  8
0
  2
_D_8
 70
     0
 10
0.0
 20
0.0
 30
0.0
  3
_D_8
  1

  0
INSERT
  5
1CF
  8
DIM
  2
_OPEN30
 10
183.6827786177
 20
124.5053389122
 30
4.0
 41
3.0
 42
3.0
 50
90.0
  0
INSERT
  5
1D0
  8
DIM
  2
_OPEN30
 10
183.6827786177
 20
85.5053389122
 30
4.0
 41
3.0
 42
3.0
 50
270.0
  0
LINE
  5
1D1
  8
DIM
 10
170.7889254109
 20
124.5053389122
 30
0.0
 11
184.6827786177
 21
124.5053389122
 31
0.0
  0
LINE
  5
1D2
  8
DIM
 10
170.7889254109
 20
85.5053389122
 30
0.0
 11
184.6827786177
 21
85.5053389122
 31
0.0
  0
LINE
  5
1D3
  8
DIM
 10
183.6827786177
 20
124.5053389122
 30
0.0
 11
183.6827786177
 21
85.5053389122
 31
0.0
  0
TEXT
  5
1D4
  8
DIM
 10
182.4463686338
 20
102.9685334147
 30
4.0
 40
3.5
  1
39
 50
90.0
 41
0.7
 11
183.6827788505
 21
102.9685334147
 31
4.0
 73
     1
  0
ENDBLK
  5
1CE
  8
0
  0
BLOCK
  8
0
  2
_D_9
 70
     0
 10
0.0
 20
0.0
 30
0.0
  3
_D_9
  1

  0
INSERT
  5
1D9
  8
DIM
  2
_OPEN30
 10
163.5289254109
 20
141.2466102222
 30
4.0
 41
3.0
 42
3.0
 50
0.0
  0
INSERT
  5
1DA
  8
DIM
  2
_OPEN30
 10
145.5289254109
 20
141.2466102222
 30
4.0
 41
3.0
 42
3.0
 50
180.0
  0
LINE
  5
1DB
  8
DIM
 10
163.5289254109
 20
131.7653389122
 30
0.0
 11
163.5289254109
 21
142.2466102222
 31
0.0
  0
LINE
  5
1DC
  8
DIM
 10
145.5289254109
 20
131.7653389122
 30
0.0
 11
145.5289254109
 21
142.2466102222
 31
0.0
  0
LINE
  5
1DD
  8
DIM
 10
163.5289254109
 20
141.2466102222
 30
0.0
 11
145.5289254109
 21
141.2466102222
 31
0.0
  0
TEXT
  5
1DE
  8
DIM
 10
152.4921199134
 20
142.483020206
 30
4.0
 40
3.5
  1
18
 50
0.0
 41
0.7
 11
152.4921199134
 21
141.2466099893
 31
4.0
 73
     1
  0
ENDBLK
  5
1D8
  8
0
  0
BLOCK
  8
0
  2
_D_10
 70
     0
 10
0.0
 20
0.0
 30
0.0
  3
_D_10
  1

  0
INSERT
  5
1E3
  8
DIM
  2
_OPEN30
 10
154.5289254109
 20
134.680392868
 30
4.0
 41
3.0
 42
3.0
 50
180.0
  0
INSERT
  5
1E4
  8
DIM
  2
_OPEN30
 10
163.5289254109
 20
134.680392868
 30
4.0
 41
3.0
 42
3.0
 50
0.0
  0
LINE
  5
1E5
  8
DIM
 10
154.5289254109
 20
131.0153389122
 30
0.0
 11
154.5289254109
 21
135.680392868
 31
0.0
  0
LINE
  5
1E6
  8
DIM
 10
163.5289254109
 20
131.7653389122
 30
0.0
 11
163.5289254109
 21
135.680392868
 31
0.0
  0
LINE
  5
1E7
  8
DIM
 10
154.5289254109
 20
134.680392868
 30
0.0
 11
163.5289254109
 21
134.680392868
 31
0.0
  0
TEXT
  5
1E8
  8
DIM
 10
158.0105226621
 20
135.9168028519
 30
4.0
 40
3.5
  1
9
 41
0.7
 11
158.0105226621
 21
134.6803926352
 31
4.0
 73
     1
  0
ENDBLK
  5
1E2
  8
0
  0
BLOCK
  8
0
  2
_D_11
 70
     0
 10
0.0
 20
0.0
 30
0.0
  3
_D_11
  1

  0
INSERT
  5
1ED
  8
DIM
  2
_OPEN30
 10
169.3289254109
 20
67.0483541206
 30
4.0
 41
3.0
 42
3.0
 50
0.0
  0
INSERT
  5
1EE
  8
DIM
  2
_OPEN30
 10
154.5289254109
 20
67.0483541206
 30
4.0
 41
3.0
 42
3.0
 50
180.0
  0
LINE
  5
1EF
  8
DIM
 10
169.3289254109
 20
84.9953389122
 30
0.0
 11
169.3289254109
 21
66.0483541206
 31
0.0
  0
LINE
  5
1F0
  8
DIM
 10
154.5289254109
 20
78.9953389122
 30
0.0
 11
154.5289254109
 21
66.0483541206
 31
0.0
  0
LINE
  5
1F1
  8
DIM
 10
169.3289254109
 20
67.0483541206
 30
0.0
 11
154.5289254109
 21
67.0483541206
 31
0.0
  0
TEXT
  5
1F2
  8
DIM
 10
157.8553144159
 20
68.2847641045
 30
4.0
 40
3.5
  1
14.8
 50
0.0
 41
0.7
 11
157.8553144159
 21
67.0483538878
 31
4.0
 73
     1
  0
ENDBLK
  5
1EC
  8
0
  0
BLOCK
  8
0
  2
_D_12
 70
     0
 10
0.0
 20
0.0
 30
0.0
  3
_D_12
  1

  0
ARC
  5
1F7
  8
DIM
 10
193.6189877236
 20
74.5117626763
 30
0.0
 40
6.37621018554247
 50
153.4349488229
 51
206.5650511771
  0
ARC
  5
1F8
  8
DIM
 10
190.767459608
 20
74.5117626763
 30
0.0
 40
6.37621018554247
 50
333.4349488229
 51
26.5650511771
  0
INSERT
  5
1F9
  8
DIM
  2
_OPEN30
 10
155.5488781464
 20
84.405476913
 30
4.0
 41
3.0
 42
3.0
 50
132.8411808162
  0
LINE
  5
1FA
  8
DIM
 10
155.5488781464
 20
84.405476913
 30
0.0
 11
167.5277094648
 21
71.4881515275
 31
0.0
  0
LINE
  5
1FB
  8
DIM
 10
153.5089726754
 20
86.6052009114
 30
0.0
 11
155.5488781464
 21
84.405476913
 31
0.0
  0
LINE
  5
1FC
  8
DIM
 10
167.5277094648
 20
71.4881515275
 30
0.0
 11
209.3645087228
 21
71.4881515275
 31
0.0
  0
TEXT
  5
1FD
  8
DIM
 10
169.1152094648
 20
72.7245619771
 30
4.0
 40
3.5
  1
2x
 41
0.7
 11
169.1152094648
 21
71.4881517603
 31
4.0
 73
     1
  0
TEXT
  5
1FE
  8
DIM
 10
173.1888204597
 20
72.7245619771
 30
4.0
 40
3.5
  1
%%c
 41
0.7
 11
173.1888204597
 21
71.4881517603
 31
4.0
 73
     1
  0
TEXT
  5
1FF
  8
DIM
 10
177.0587512076
 20
72.7245619771
 30
4.0
 40
3.5
  1
3
 41
0.7
 11
177.0587512076
 21
71.4881517603
 31
4.0
 73
     1
  0
TEXT
  5
200
  8
DIM
 10
179.0955564723
 20
72.7245619771
 30
4.0
 40
3.5
  1
 H8 
 41
0.525
 11
179.0955564723
 21
71.4881517603
 31
4.0
 73
     1
  0
TEXT
  5
201
  8
DIM
 10
187.9159319581
 20
75.3772499153
 30
4.0
 40
2.45
  1
+
 41
0.7
 11
187.9159319581
 21
74.5117627636
 31
4.0
 73
     1
  0
TEXT
  5
202
  8
DIM
 10
187.9159319581
 20
72.5257220326
 30
4.0
 40
2.45
  1
 
 41
0.7
 11
187.9159319581
 21
71.6602348809
 31
4.0
 73
     1
  0
TEXT
  5
203
  8
DIM
 10
189.3416958995
 20
75.3772499153
 30
4.0
 40
2.45
  1
0.014
 41
0.7
 11
189.3416958995
 21
74.5117627636
 31
4.0
 73
     1
  0
TEXT
  5
204
  8
DIM
 10
189.3416958995
 20
72.5257220326
 30
4.0
 40
2.45
  1
0
 41
0.7
 11
189.3416958995
 21
71.6602348809
 31
4.0
 73
     1
  0
TEXT
  5
205
  8
DIM
 10
197.1436715469
 20
72.7245619771
 30
4.0
 40
3.5
  1
 深さ3
 41
0.7
 11
197.1436715469
 21
71.4881517603
 31
4.0
 73
     1
  0
ENDBLK
  5
1F6
  8
0
  0
BLOCK
  8
0
  2
SW_NOTE_0_1
 70
     0
 10
0.0
 20
0.0
 30
0.0
  3
SW_NOTE_0_1
  1

  0
LINE
  5
209
  8
TXT
 62
     0
 10
-61.667419701
 20
26.6544524053
 30
0.0
 11
-8.5840475312
 21
26.6544524053
 31
0.0
  0
TEXT
  5
20A
  8
TXT
 62
     0
 10
-62.0489426619
 20
27.9302780785
 30
0.0
 40
3.5
  1
2xφ3.4,6.5深座ぐり深さ5.3
 41
0.7
 11
-62.0489426619
 21
26.6938678618
 31
0.0
 73
     1
  0
LINE
  5
20B
  8
TXT
 62
     0
 10
-8.5840475312
 20
26.6544524053
 30
0.0
 11
0.0
 21
0.0
 31
0.0
  0
INSERT
  5
20C
  8
TXT
 62
     0
  2
_OPEN30
 10
0.0
 20
0.0
 30
4.0
 41
3.0
 42
3.0
 50
287.8511174295
  0
ENDBLK
  5
208
  8
0
  0
BLOCK
  8
0
  2
SW_CENTERMARKSYMBOL_8
 70
     0
 10
0.0
 20
0.0
 30
0.0
  3
SW_CENTERMARKSYMBOL_8
  1

  0
LINE
  5
211
  8
DIM
 62
     0
 10
0.0
 20
0.0
 30
0.0
 11
0.0
 21
5.0
 31
0.0
  0
LINE
  5
212
  8
DIM
 62
     0
 10
0.0
 20
0.0
 30
0.0
 11
-5.0
 21
0.0
 31
0.0
  0
LINE
  5
213
  8
DIM
 62
     0
 10
0.0
 20
0.0
 30
0.0
 11
0.0
 21
-5.0
 31
0.0
  0
LINE
  5
214
  8
DIM
 62
     0
 10
0.0
 20
0.0
 30
0.0
 11
5.0
 21
0.0
 31
0.0
  0
LINE
  5
215
  8
DIM
 62
     0
 10
0.0
 20
5.0
 30
0.0
 11
0.0
 21
7.25
 31
0.0
  0
LINE
  5
216
  8
DIM
 62
     0
 10
-5.0
 20
0.0
 30
0.0
 11
-7.25
 21
0.0
 31
0.0
  0
LINE
  5
217
  8
DIM
 62
     0
 10
0.0
 20
-5.0
 30
0.0
 11
0.0
 21
-7.25
 31
0.0
  0
LINE
  5
218
  8
DIM
 62
     0
 10
5.0
 20
0.0
 30
0.0
 11
7.25
 21
0.0
 31
0.0
  0
ENDBLK
  5
210
  8
0
  0
BLOCK
  8
0
  2
SW_CENTERMARKSYMBOL_9
 70
     0
 10
0.0
 20
0.0
 30
0.0
  3
SW_CENTERMARKSYMBOL_9
  1

  0
LINE
  5
21D
  8
DIM
 62
     0
 10
0.0
 20
0.0
 30
0.0
 11
0.0
 21
5.0
 31
0.0
  0
LINE
  5
21E
  8
DIM
 62
     0
 10
0.0
 20
0.0
 30
0.0
 11
-5.0
 21
0.0
 31
0.0
  0
LINE
  5
21F
  8
DIM
 62
     0
 10
0.0
 20
0.0
 30
0.0
 11
0.0
 21
-5.0
 31
0.0
  0
LINE
  5
220
  8
DIM
 62
     0
 10
0.0
 20
0.0
 30
0.0
 11
5.0
 21
0.0
 31
0.0
  0
LINE
  5
221
  8
DIM
 62
     0
 10
0.0
 20
5.0
 30
0.0
 11
0.0
 21
7.25
 31
0.0
  0
LINE
  5
222
  8
DIM
 62
     0
 10
-5.0
 20
0.0
 30
0.0
 11
-7.25
 21
0.0
 31
0.0
  0
LINE
  5
223
  8
DIM
 62
     0
 10
0.0
 20
-5.0
 30
0.0
 11
0.0
 21
-7.25
 31
0.0
  0
LINE
  5
224
  8
DIM
 62
     0
 10
5.0
 20
0.0
 30
0.0
 11
7.25
 21
0.0
 31
0.0
  0
ENDBLK
  5
21C
  8
0
  0
BLOCK
  8
0
  2
SW_CENTERMARKSYMBOL_10
 70
     0
 10
0.0
 20
0.0
 30
0.0
  3
SW_CENTERMARKSYMBOL_10
  1

  0
LINE
  5
229
  8
DIM
 62
     0
 10
0.0
 20
0.0
 30
0.0
 11
0.0
 21
5.0
 31
0.0
  0
LINE
  5
22A
  8
DIM
 62
     0
 10
0.0
 20
0.0
 30
0.0
 11
-5.0
 21
0.0
 31
0.0
  0
LINE
  5
22B
  8
DIM
 62
     0
 10
0.0
 20
0.0
 30
0.0
 11
0.0
 21
-5.0
 31
0.0
  0
LINE
  5
22C
  8
DIM
 62
     0
 10
0.0
 20
0.0
 30
0.0
 11
5.0
 21
0.0
 31
0.0
  0
LINE
  5
22D
  8
DIM
 62
     0
 10
0.0
 20
5.0
 30
0.0
 11
0.0
 21
7.25
 31
0.0
  0
LINE
  5
22E
  8
DIM
 62
     0
 10
-5.0
 20
0.0
 30
0.0
 11
-7.25
 21
0.0
 31
0.0
  0
LINE
  5
22F
  8
DIM
 62
     0
 10
0.0
 20
-5.0
 30
0.0
 11
0.0
 21
-7.25
 31
0.0
  0
LINE
  5
230
  8
DIM
 62
     0
 10
5.0
 20
0.0
 30
0.0
 11
7.25
 21
0.0
 31
0.0
  0
ENDBLK
  5
228
  8
0
  0
BLOCK
  8
0
  2
SW_CENTERMARKSYMBOL_11
 70
     0
 10
0.0
 20
0.0
 30
0.0
  3
SW_CENTERMARKSYMBOL_11
  1

  0
LINE
  5
235
  8
DIM
 62
     0
 10
0.0
 20
0.0
 30
0.0
 11
0.0
 21
5.0
 31
0.0
  0
LINE
  5
236
  8
DIM
 62
     0
 10
0.0
 20
0.0
 30
0.0
 11
-5.0
 21
0.0
 31
0.0
  0
LINE
  5
237
  8
DIM
 62
     0
 10
0.0
 20
0.0
 30
0.0
 11
0.0
 21
-5.0
 31
0.0
  0
LINE
  5
238
  8
DIM
 62
     0
 10
0.0
 20
0.0
 30
0.0
 11
5.0
 21
0.0
 31
0.0
  0
LINE
  5
239
  8
DIM
 62
     0
 10
0.0
 20
5.0
 30
0.0
 11
0.0
 21
7.25
 31
0.0
  0
LINE
  5
23A
  8
DIM
 62
     0
 10
-5.0
 20
0.0
 30
0.0
 11
-7.25
 21
0.0
 31
0.0
  0
LINE
  5
23B
  8
DIM
 62
     0
 10
0.0
 20
-5.0
 30
0.0
 11
0.0
 21
-7.25
 31
0.0
  0
LINE
  5
23C
  8
DIM
 62
     0
 10
5.0
 20
0.0
 30
0.0
 11
7.25
 21
0.0
 31
0.0
  0
ENDBLK
  5
234
  8
0
  0
BLOCK
  8
0
  2
SW_CENTERMARKSYMBOL_12
 70
     0
 10
0.0
 20
0.0
 30
0.0
  3
SW_CENTERMARKSYMBOL_12
  1

  0
LINE
  5
241
  8
DIM
 62
     0
 10
0.0
 20
0.0
 30
0.0
 11
0.0
 21
5.0
 31
0.0
  0
LINE
  5
242
  8
DIM
 62
     0
 10
0.0
 20
0.0
 30
0.0
 11
-5.0
 21
0.0
 31
0.0
  0
LINE
  5
243
  8
DIM
 62
     0
 10
0.0
 20
0.0
 30
0.0
 11
0.0
 21
-5.0
 31
0.0
  0
LINE
  5
244
  8
DIM
 62
     0
 10
0.0
 20
0.0
 30
0.0
 11
5.0
 21
0.0
 31
0.0
  0
LINE
  5
245
  8
DIM
 62
     0
 10
0.0
 20
5.0
 30
0.0
 11
0.0
 21
8.25
 31
0.0
  0
LINE
  5
246
  8
DIM
 62
     0
 10
-5.0
 20
0.0
 30
0.0
 11
-8.25
 21
0.0
 31
0.0
  0
LINE
  5
247
  8
DIM
 62
     0
 10
0.0
 20
-5.0
 30
0.0
 11
0.0
 21
-8.25
 31
0.0
  0
LINE
  5
248
  8
DIM
 62
     0
 10
5.0
 20
0.0
 30
0.0
 11
8.25
 21
0.0
 31
0.0
  0
ENDBLK
  5
240
  8
0
  0
BLOCK
  8
0
  2
SW_CENTERMARKSYMBOL_13
 70
     0
 10
0.0
 20
0.0
 30
0.0
  3
SW_CENTERMARKSYMBOL_13
  1

  0
LINE
  5
24D
  8
DIM
 62
     0
 10
0.0
 20
0.0
 30
0.0
 11
0.0
 21
5.0
 31
0.0
  0
LINE
  5
24E
  8
DIM
 62
     0
 10
0.0
 20
0.0
 30
0.0
 11
-5.0
 21
0.0
 31
0.0
  0
LINE
  5
24F
  8
DIM
 62
     0
 10
0.0
 20
0.0
 30
0.0
 11
0.0
 21
-5.0
 31
0.0
  0
LINE
  5
250
  8
DIM
 62
     0
 10
0.0
 20
0.0
 30
0.0
 11
5.0
 21
0.0
 31
0.0
  0
LINE
  5
251
  8
DIM
 62
     0
 10
0.0
 20
5.0
 30
0.0
 11
0.0
 21
8.25
 31
0.0
  0
LINE
  5
252
  8
DIM
 62
     0
 10
-5.0
 20
0.0
 30
0.0
 11
-8.25
 21
0.0
 31
0.0
  0
LINE
  5
253
  8
DIM
 62
     0
 10
0.0
 20
-5.0
 30
0.0
 11
0.0
 21
-8.25
 31
0.0
  0
LINE
  5
254
  8
DIM
 62
     0
 10
5.0
 20
0.0
 30
0.0
 11
8.25
 21
0.0
 31
0.0
  0
ENDBLK
  5
24C
  8
0
  0
BLOCK
  8
0
  2
SW_CENTERMARKSYMBOL_14
 70
     0
 10
0.0
 20
0.0
 30
0.0
  3
SW_CENTERMARKSYMBOL_14
  1

  0
LINE
  5
259
  8
DIM
 62
     0
 10
0.0
 20
0.0
 30
0.0
 11
0.0
 21
5.0
 31
0.0
  0
LINE
  5
25A
  8
DIM
 62
     0
 10
0.0
 20
0.0
 30
0.0
 11
-5.0
 21
0.0
 31
0.0
  0
LINE
  5
25B
  8
DIM
 62
     0
 10
0.0
 20
0.0
 30
0.0
 11
0.0
 21
-5.0
 31
0.0
  0
LINE
  5
25C
  8
DIM
 62
     0
 10
0.0
 20
0.0
 30
0.0
 11
5.0
 21
0.0
 31
0.0
  0
LINE
  5
25D
  8
DIM
 62
     0
 10
0.0
 20
5.0
 30
0.0
 11
0.0
 21
6.5
 31
0.0
  0
LINE
  5
25E
  8
DIM
 62
     0
 10
-5.0
 20
0.0
 30
0.0
 11
-6.5
 21
0.0
 31
0.0
  0
LINE
  5
25F
  8
DIM
 62
     0
 10
0.0
 20
-5.0
 30
0.0
 11
0.0
 21
-6.5
 31
0.0
  0
LINE
  5
260
  8
DIM
 62
     0
 10
5.0
 20
0.0
 30
0.0
 11
6.5
 21
0.0
 31
0.0
  0
ENDBLK
  5
258
  8
0
  0
BLOCK
  8
0
  2
SW_CENTERMARKSYMBOL_15
 70
     0
 10
0.0
 20
0.0
 30
0.0
  3
SW_CENTERMARKSYMBOL_15
  1

  0
LINE
  5
265
  8
DIM
 62
     0
 10
0.0
 20
0.0
 30
0.0
 11
0.0
 21
5.0
 31
0.0
  0
LINE
  5
266
  8
DIM
 62
     0
 10
0.0
 20
0.0
 30
0.0
 11
-5.0
 21
0.0
 31
0.0
  0
LINE
  5
267
  8
DIM
 62
     0
 10
0.0
 20
0.0
 30
0.0
 11
0.0
 21
-5.0
 31
0.0
  0
LINE
  5
268
  8
DIM
 62
     0
 10
0.0
 20
0.0
 30
0.0
 11
5.0
 21
0.0
 31
0.0
  0
LINE
  5
269
  8
DIM
 62
     0
 10
0.0
 20
5.0
 30
0.0
 11
0.0
 21
6.5
 31
0.0
  0
LINE
  5
26A
  8
DIM
 62
     0
 10
-5.0
 20
0.0
 30
0.0
 11
-6.5
 21
0.0
 31
0.0
  0
LINE
  5
26B
  8
DIM
 62
     0
 10
0.0
 20
-5.0
 30
0.0
 11
0.0
 21
-6.5
 31
0.0
  0
LINE
  5
26C
  8
DIM
 62
     0
 10
5.0
 20
0.0
 30
0.0
 11
6.5
 21
0.0
 31
0.0
  0
ENDBLK
  5
264
  8
0
  0
ENDSEC
  0
SECTION
  2
ENTITIES
  0
LINE
  5
76
  8
0
  6
CONTINUOUS
 62
     7
 10
164.3289254109
 20
242.8945006321
 30
0.0
 11
119.3289254109
 21
242.8945006321
 31
0.0
  0
LINE
  5
77
  8
0
  6
CONTINUOUS
 62
     7
 10
119.3289254109
 20
243.3945006321
 30
0.0
 11
164.3289254109
 21
243.3945006321
 31
0.0
  0
CIRCLE
  5
78
  8
0
  6
CONTINUOUS
 62
     7
 10
163.5289254109
 20
198.8945006321
 30
0.0
 40
4.0
  0
CIRCLE
  5
79
  8
0
  6
CONTINUOUS
 62
     7
 10
127.5289254109
 20
218.3945006321
 30
0.0
 40
1.699999999999989
  0
CIRCLE
  5
7A
  8
0
  6
CONTINUOUS
 62
     7
 10
143.5289254109
 20
218.3945006321
 30
0.0
 40
1.700000000000017
  0
ARC
  5
7B
  8
0
  6
CONTINUOUS
 62
     7
 10
164.3289254109
 20
238.3945006321
 30
0.0
 40
4.499999999999972
 50
0.0
 51
90.0
  0
LINE
  5
7C
  8
0
  6
CONTINUOUS
 62
     7
 10
168.8289254109
 20
198.3945006321
 30
0.0
 11
168.8289254109
 21
238.3945006321
 31
0.0
  0
ARC
  5
7D
  8
0
  6
CONTINUOUS
 62
     7
 10
164.3289254109
 20
198.3945006321
 30
0.0
 40
4.5
 50
270.0
 51
0.0
  0
LINE
  5
7E
  8
0
  6
CONTINUOUS
 62
     7
 10
119.3289254109
 20
193.8945006321
 30
0.0
 11
164.3289254109
 21
193.8945006321
 31
0.0
  0
ARC
  5
7F
  8
0
  6
CONTINUOUS
 62
     7
 10
119.3289254109
 20
198.3945006321
 30
0.0
 40
4.5
 50
180.0
 51
270.0
  0
LINE
  5
80
  8
0
  6
CONTINUOUS
 62
     7
 10
114.8289254109
 20
238.3945006321
 30
0.0
 11
114.8289254109
 21
198.3945006321
 31
0.0
  0
ARC
  5
81
  8
0
  6
CONTINUOUS
 62
     7
 10
119.3289254109
 20
238.3945006321
 30
0.0
 40
4.5
 50
90.0
 51
180.0
  0
CIRCLE
  5
82
  8
0
  6
CONTINUOUS
 62
     7
 10
155.0289254109
 20
225.8945006321
 30
0.0
 40
2.0
  0
CIRCLE
  5
83
  8
0
  6
CONTINUOUS
 62
     7
 10
155.0289254109
 20
210.8945006321
 30
0.0
 40
1.999999999999972
  0
CIRCLE
  5
84
  8
0
  6
CONTINUOUS
 62
     7
 10
163.5289254109
 20
237.8945006321
 30
0.0
 40
4.0
  0
CIRCLE
  5
85
  8
0
  6
CONTINUOUS
 62
     7
 10
145.5289254109
 20
198.8945006321
 30
0.0
 40
3.999999999999972
  0
CIRCLE
  5
86
  8
0
  6
CONTINUOUS
 62
     7
 10
145.5289254109
 20
237.8945006321
 30
0.0
 40
4.0
  0
ARC
  5
87
  8
0
  6
CONTINUOUS
 62
     7
 10
119.3289254109
 20
198.3945006321
 30
0.0
 40
5.0
 50
180.0
 51
270.0
  0
LINE
  5
88
  8
0
  6
CONTINUOUS
 62
     7
 10
169.3289254109
 20
238.3945006321
 30
0.0
 11
169.3289254109
 21
198.3945006321
 31
0.0
  0
ARC
  5
89
  8
0
  6
CONTINUOUS
 62
     7
 10
164.3289254109
 20
238.3945006321
 30
0.0
 40
5.0
 50
0.0
 51
90.0
  0
ARC
  5
8A
  8
0
  6
CONTINUOUS
 62
     7
 10
164.3289254109
 20
198.3945006321
 30
0.0
 40
5.0
 50
270.0
 51
0.0
  0
CIRCLE
  5
8B
  8
0
  6
CONTINUOUS
 62
     7
 10
155.0289254109
 20
210.8945006321
 30
0.0
 40
1.5
  0
LINE
  5
8C
  8
0
  6
CONTINUOUS
 62
     7
 10
114.3289254109
 20
198.3945006321
 30
0.0
 11
114.3289254109
 21
238.3945006321
 31
0.0
  0
LINE
  5
8D
  8
0
  6
CONTINUOUS
 62
     7
 10
164.3289254109
 20
193.3945006321
 30
0.0
 11
119.3289254109
 21
193.3945006321
 31
0.0
  0
CIRCLE
  5
8E
  8
0
  6
CONTINUOUS
 62
     7
 10
155.0289254109
 20
225.8945006321
 30
0.0
 40
1.5
  0
ARC
  5
8F
  8
0
  6
CONTINUOUS
 62
     7
 10
119.3289254109
 20
238.3945006321
 30
0.0
 40
5.0
 50
90.0
 51
180.0
  0
CIRCLE
  5
90
  8
0
  6
CONTINUOUS
 62
     7
 10
163.5289254109
 20
237.8945006321
 30
0.0
 40
2.25
  0
CIRCLE
  5
91
  8
0
  6
CONTINUOUS
 62
     7
 10
145.5289254109
 20
237.8945006321
 30
0.0
 40
2.25
  0
CIRCLE
  5
92
  8
0
  6
CONTINUOUS
 62
     7
 10
145.5289254109
 20
198.8945006321
 30
0.0
 40
2.249999999999972
  0
CIRCLE
  5
93
  8
0
  6
CONTINUOUS
 62
     7
 10
163.5289254109
 20
198.8945006321
 30
0.0
 40
2.25
  0
LINE
  5
94
  8
0
  6
CENTERX2
 62
     7
 10
135.5289254109
 20
229.1312599122
 30
0.0
 11
135.5289254109
 21
205.8785377772
 31
0.0
  0
DIMENSION
  5
95
  8
DIM
  2
_D
 10
155.0289254109
 20
178.0621972792
 30
0.0
 11
145.2789254109
 21
178.0621972792
 31
0.0
 70
   160
  1
<>
  3
SLDDIMSTYLE0
 13
135.5289254109
 23
205.8785377772
 33
0.0
 14
155.0289254109
 24
204.3945006321
 34
0.0
  0
DIMENSION
  5
AA
  8
DIM
  2
_D_1
 10
169.3289254109
 20
262.1800525443
 30
0.0
 11
141.8289254109
 21
262.1800525443
 31
0.0
 70
   160
  1
<>
  3
SLDDIMSTYLE1
 13
114.3289254109
 23
238.3945006321
 33
0.0
 14
169.3289254109
 24
238.3945006321
 34
0.0
  0
DIMENSION
  5
B5
  8
DIM
  2
_D_2
 10
196.8995307409
 20
193.3945006321
 30
0.0
 11
196.8995307409
 21
218.3945006321
 31
0.0
 70
   160
  1
<>
  3
SLDDIMSTYLE1
 13
164.3289254109
 23
243.3945006321
 33
0.0
 14
164.3289254109
 24
193.3945006321
 34
0.0
 50
90.0
  0
DIMENSION
  5
BF
  8
DIM
  2
_D_3
 10
186.3995307409
 20
210.8945006321
 30
0.0
 11
186.3995307409
 21
218.3945006321
 31
0.0
 70
   160
  1
<>
  3
SLDDIMSTYLE1
 13
161.5289254109
 23
225.8945006321
 33
0.0
 14
161.5289254109
 24
210.8945006321
 34
0.0
 50
90.0
  0
DIMENSION
  5
C9
  8
DIM
  2
_D_4
 10
155.0289254109
 20
250.5005491535
 30
0.0
 11
162.1789254109
 21
250.5005491535
 31
0.0
 70
   160
  1
<>
  3
SLDDIMSTYLE1
 13
169.3289254109
 23
238.3945006321
 33
0.0
 14
155.0289254109
 24
232.3945006321
 34
0.0
  0
DIMENSION
  5
D3
  8
DIM
  2
_D_5
 10
143.5289254109
 20
250.5005491535
 30
0.0
 11
135.5289254109
 21
250.5005491535
 31
0.0
 70
   160
  1
<>
  3
SLDDIMSTYLE1
 13
127.5289254109
 23
225.0945006321
 33
0.0
 14
143.5289254109
 24
225.0945006321
 34
0.0
  0
DIMENSION
  5
DD
  8
DIM
  2
_D_6
 10
154.6406968456
 20
212.3433893722
 30
0.0
 11
186.3995307409
 21
177.9644429651
 31
0.0
 70
   163
  1
2x<>H8 深さ3
  3
SLDDIMSTYLE2
 15
155.4171539762
 25
209.4456118921
 35
0.0
 40
0.0
  0
INSERT
  5
FF
  8
DIM
  2
SW_CENTERMARKSYMBOL_0
 10
145.5289254109
 20
198.8945006321
 30
0.0
  0
INSERT
  5
10B
  8
DIM
  2
SW_CENTERMARKSYMBOL_1
 10
163.5289254109
 20
198.8945006321
 30
0.0
  0
INSERT
  5
117
  8
DIM
  2
SW_CENTERMARKSYMBOL_2
 10
145.5289254109
 20
237.8945006321
 30
0.0
  0
INSERT
  5
123
  8
DIM
  2
SW_CENTERMARKSYMBOL_3
 10
163.5289254109
 20
237.8945006321
 30
0.0
  0
INSERT
  5
12F
  8
DIM
  2
SW_CENTERMARKSYMBOL_4
 10
155.0289254109
 20
225.8945006321
 30
0.0
  0
INSERT
  5
13B
  8
DIM
  2
SW_CENTERMARKSYMBOL_5
 10
155.0289254109
 20
210.8945006321
 30
0.0
  0
INSERT
  5
147
  8
DIM
  2
SW_CENTERMARKSYMBOL_6
 10
127.5289254109
 20
218.3945006321
 30
0.0
  0
INSERT
  5
153
  8
DIM
  2
SW_CENTERMARKSYMBOL_7
 10
143.5289254109
 20
218.3945006321
 30
0.0
  0
LINE
  5
154
  8
0
  6
CENTERX2
 62
     7
 10
175.3089254109
 20
218.3945006321
 30
0.0
 11
108.3489254109
 21
218.3945006321
 31
0.0
  0
LINE
  5
155
  8
0
  6
CONTINUOUS
 62
     7
 10
173.3089254109
 20
205.6945006321
 30
0.0
 11
173.3089254109
 21
218.3945006321
 31
0.0
  0
INSERT
  5
156
  8
0
  6
CONTINUOUS
 62
     7
  2
_OPEN30
 10
173.3089254109
 20
218.3945006321
 30
0.0
 41
3.0
 42
3.0
 50
90.0
  0
LINE
  5
157
  8
0
  6
CONTINUOUS
 62
     7
 10
110.3489254109
 20
205.6945006321
 30
0.0
 11
110.3489254109
 21
218.3945006321
 31
0.0
  0
INSERT
  5
158
  8
0
  6
CONTINUOUS
 62
     7
  2
_OPEN30
 10
110.3489254109
 20
218.3945006321
 30
0.0
 41
3.0
 42
3.0
 50
90.0
  0
TEXT
  5
159
  8
0
  6
CONTINUOUS
 62
     7
 10
174.1223825032
 20
206.2617860936
 30
0.0
 40
3.5
  1
A
 41
0.7
 11
174.1223825032
 21
209.7617860936
 31
0.0
 73
     3
  0
TEXT
  5
15A
  8
0
  6
CONTINUOUS
 62
     7
 10
107.5018255879
 20
206.2617860936
 30
0.0
 40
3.5
  1
A
 41
0.7
 11
107.5018255879
 21
209.7617860936
 31
0.0
 73
     3
  0
LINE
  5
15B
  8
0
  6
CONTINUOUS
 62
     7
 10
242.340783818
 20
198.3945006321
 30
0.0
 11
242.340783818
 21
193.8945006321
 31
0.0
  0
LINE
  5
15C
  8
0
  6
CONTINUOUS
 62
     7
 10
242.340783818
 20
193.8945006321
 30
0.0
 11
241.840783818
 21
193.3945006321
 31
0.0
  0
LINE
  5
15D
  8
0
  6
CONTINUOUS
 62
     7
 10
241.840783818
 20
193.3945006321
 30
0.0
 11
241.840783818
 21
198.3945006321
 31
0.0
  0
LINE
  5
15E
  8
0
  6
CONTINUOUS
 62
     7
 10
241.840783818
 20
198.3945006321
 30
0.0
 11
241.840783818
 21
238.3945006321
 31
0.0
  0
LINE
  5
15F
  8
0
  6
CONTINUOUS
 62
     7
 10
242.340783818
 20
238.3945006321
 30
0.0
 11
242.340783818
 21
198.3945006321
 31
0.0
  0
LINE
  5
160
  8
0
  6
CONTINUOUS
 62
     7
 10
241.840783818
 20
238.3945006321
 30
0.0
 11
241.840783818
 21
243.3945006321
 31
0.0
  0
LINE
  5
161
  8
0
  6
CONTINUOUS
 62
     7
 10
241.840783818
 20
243.3945006321
 30
0.0
 11
242.340783818
 21
242.8945006321
 31
0.0
  0
LINE
  5
162
  8
0
  6
CONTINUOUS
 62
     7
 10
242.340783818
 20
242.8945006321
 30
0.0
 11
242.340783818
 21
238.3945006321
 31
0.0
  0
LINE
  5
163
  8
0
  6
CONTINUOUS
 62
     7
 10
234.840783818
 20
198.3945006321
 30
0.0
 11
234.840783818
 21
193.3945006321
 31
0.0
  0
LINE
  5
164
  8
0
  6
CONTINUOUS
 62
     7
 10
241.840783818
 20
193.3945006321
 30
0.0
 11
234.840783818
 21
193.3945006321
 31
0.0
  0
LINE
  5
165
  8
0
  6
CONTINUOUS
 62
     7
 10
234.840783818
 20
243.3945006321
 30
0.0
 11
234.840783818
 21
238.3945006321
 31
0.0
  0
LINE
  5
166
  8
0
  6
CONTINUOUS
 62
     7
 10
234.840783818
 20
243.3945006321
 30
0.0
 11
241.840783818
 21
243.3945006321
 31
0.0
  0
LINE
  5
167
  8
0
  6
CONTINUOUS
 62
     7
 10
234.840783818
 20
238.3945006321
 30
0.0
 11
234.840783818
 21
198.3945006321
 31
0.0
  0
LINE
  5
168
  8
0
  6
CONTINUOUS
 62
     7
 10
234.340783818
 20
238.3945006321
 30
0.0
 11
234.340783818
 21
242.8945006321
 31
0.0
  0
LINE
  5
169
  8
0
  6
CONTINUOUS
 62
     7
 10
234.340783818
 20
242.8945006321
 30
0.0
 11
234.840783818
 21
243.3945006321
 31
0.0
  0
LINE
  5
16A
  8
0
  6
CONTINUOUS
 62
     7
 10
234.840783818
 20
193.3945006321
 30
0.0
 11
234.340783818
 21
193.8945006321
 31
0.0
  0
LINE
  5
16B
  8
0
  6
CONTINUOUS
 62
     7
 10
234.340783818
 20
193.8945006321
 30
0.0
 11
234.340783818
 21
198.3945006321
 31
0.0
  0
LINE
  5
16C
  8
0
  6
CONTINUOUS
 62
     7
 10
234.340783818
 20
198.3945006321
 30
0.0
 11
234.340783818
 21
238.3945006321
 31
0.0
  0
DIMENSION
  5
16D
  8
DIM
  2
_D_7
 10
242.340783818
 20
256.989149873
 30
0.0
 11
238.340783818
 21
256.989149873
 31
0.0
 70
   160
  1
<>
  3
SLDDIMSTYLE1
 13
234.340783818
 23
238.3945006321
 33
0.0
 14
242.340783818
 24
238.3945006321
 34
0.0
  0
LINE
  5
177
  8
0
  6
CONTINUOUS
 62
     7
 10
131.8684131687
 20
160.9561439002
 30
0.0
 11
129.2289254109
 21
158.3166561423
 31
0.0
  0
LINE
  5
178
  8
0
  6
CONTINUOUS
 62
     7
 10
136.3585412293
 20
160.9561439002
 30
0.0
 11
130.7789254109
 21
155.3765280818
 31
0.0
  0
LINE
  5
179
  8
0
  6
CONTINUOUS
 62
     7
 10
140.8486692898
 20
160.9561439002
 30
0.0
 11
132.8486692898
 21
152.9561439002
 31
0.0
  0
LINE
  5
17A
  8
0
  6
CONTINUOUS
 62
     7
 10
140.2789254109
 20
155.8962719607
 30
0.0
 11
137.3387973503
 21
152.9561439002
 31
0.0
  0
LINE
  5
17B
  8
0
  6
CONTINUOUS
 62
     7
 10
118.3980289871
 20
160.9561439002
 30
0.0
 11
114.3289254109
 21
156.8870403239
 31
0.0
  0
LINE
  5
17C
  8
0
  6
CONTINUOUS
 62
     7
 10
122.8881570477
 20
160.9561439002
 30
0.0
 11
114.8881570477
 21
152.9561439002
 31
0.0
  0
LINE
  5
17D
  8
0
  6
CONTINUOUS
 62
     7
 10
124.2789254109
 20
157.8567842028
 30
0.0
 11
119.3782851082
 21
152.9561439002
 31
0.0
  0
LINE
  5
17E
  8
0
  6
CONTINUOUS
 62
     7
 10
125.8289254109
 20
159.4067842028
 30
0.0
 11
124.6782851082
 21
158.2561439002
 31
0.0
  0
LINE
  5
17F
  8
0
  6
CONTINUOUS
 62
     7
 10
124.2789254109
 20
153.3666561423
 30
0.0
 11
123.8684131687
 21
152.9561439002
 31
0.0
  0
LINE
  5
180
  8
0
  6
CONTINUOUS
 62
     7
 10
145.3387973503
 20
160.9561439002
 30
0.0
 11
145.2289254109
 21
160.8462719607
 31
0.0
  0
LINE
  5
181
  8
0
  6
CONTINUOUS
 62
     7
 10
149.8289254109
 20
160.9561439002
 30
0.0
 11
146.7789254109
 21
157.9061439002
 31
0.0
  0
LINE
  5
182
  8
0
  6
CONTINUOUS
 62
     7
 10
154.3190534714
 20
160.9561439002
 30
0.0
 11
146.7789254109
 21
153.4160158396
 31
0.0
  0
LINE
  5
183
  8
0
  6
CONTINUOUS
 62
     7
 10
158.8091815319
 20
160.9561439002
 30
0.0
 11
150.8091815319
 21
152.9561439002
 31
0.0
  0
LINE
  5
184
  8
0
  6
CONTINUOUS
 62
     7
 10
163.2993095925
 20
160.9561439002
 30
0.0
 11
155.2993095925
 21
152.9561439002
 31
0.0
  0
LINE
  5
185
  8
0
  6
CONTINUOUS
 62
     7
 10
167.789437653
 20
160.9561439002
 30
0.0
 11
159.789437653
 21
152.9561439002
 31
0.0
  0
LINE
  5
186
  8
0
  6
CONTINUOUS
 62
     7
 10
169.3289254109
 20
158.0055035975
 30
0.0
 11
164.2795657135
 21
152.9561439002
 31
0.0
  0
LINE
  5
187
  8
0
  6
CONTINUOUS
 62
     7
 10
169.3289254109
 20
153.515375537
 30
0.0
 11
168.7696937741
 21
152.9561439002
 31
0.0
  0
LINE
  5
188
  8
0
  6
CONTINUOUS
 62
     7
 10
141.8289254109
 20
158.2561439002
 30
0.0
 11
141.8289254109
 21
160.9561439002
 31
0.0
  0
LINE
  5
189
  8
0
  6
CONTINUOUS
 62
     7
 10
140.2789254109
 20
158.2561439002
 30
0.0
 11
141.8289254109
 21
158.2561439002
 31
0.0
  0
LINE
  5
18A
  8
0
  6
CONTINUOUS
 62
     7
 10
140.2789254109
 20
152.9561439002
 30
0.0
 11
140.2789254109
 21
158.2561439002
 31
0.0
  0
LINE
  5
18B
  8
0
  6
CONTINUOUS
 62
     7
 10
130.7789254109
 20
152.9561439002
 30
0.0
 11
140.2789254109
 21
152.9561439002
 31
0.0
  0
LINE
  5
18C
  8
0
  6
CONTINUOUS
 62
     7
 10
130.7789254109
 20
158.2561439002
 30
0.0
 11
130.7789254109
 21
152.9561439002
 31
0.0
  0
LINE
  5
18D
  8
0
  6
CONTINUOUS
 62
     7
 10
129.2289254109
 20
158.2561439002
 30
0.0
 11
130.7789254109
 21
158.2561439002
 31
0.0
  0
LINE
  5
18E
  8
0
  6
CONTINUOUS
 62
     7
 10
129.2289254109
 20
160.9561439002
 30
0.0
 11
129.2289254109
 21
158.2561439002
 31
0.0
  0
LINE
  5
18F
  8
0
  6
CONTINUOUS
 62
     7
 10
129.2289254109
 20
160.9561439002
 30
0.0
 11
141.8289254109
 21
160.9561439002
 31
0.0
  0
LINE
  5
190
  8
0
  6
CONTINUOUS
 62
     7
 10
124.2789254109
 20
152.9561439002
 30
0.0
 11
124.2789254109
 21
158.2561439002
 31
0.0
  0
LINE
  5
191
  8
0
  6
CONTINUOUS
 62
     7
 10
124.2789254109
 20
152.9561439002
 30
0.0
 11
130.7789254109
 21
152.9561439002
 31
0.0
  0
LINE
  5
192
  8
0
  6
CONTINUOUS
 62
     7
 10
145.2289254109
 20
160.9561439002
 30
0.0
 11
168.8289254109
 21
160.9561439002
 31
0.0
  0
LINE
  5
193
  8
0
  6
CONTINUOUS
 62
     7
 10
168.8289254109
 20
160.9561439002
 30
0.0
 11
169.3289254109
 21
160.4561439002
 31
0.0
  0
LINE
  5
194
  8
0
  6
CONTINUOUS
 62
     7
 10
169.3289254109
 20
153.4561439002
 30
0.0
 11
169.3289254109
 21
160.4561439002
 31
0.0
  0
LINE
  5
195
  8
0
  6
CONTINUOUS
 62
     7
 10
146.7789254109
 20
158.2561439002
 30
0.0
 11
146.7789254109
 21
152.9561439002
 31
0.0
  0
LINE
  5
196
  8
0
  6
CONTINUOUS
 62
     7
 10
145.2289254109
 20
158.2561439002
 30
0.0
 11
146.7789254109
 21
158.2561439002
 31
0.0
  0
LINE
  5
197
  8
0
  6
CONTINUOUS
 62
     7
 10
145.2289254109
 20
160.9561439002
 30
0.0
 11
145.2289254109
 21
158.2561439002
 31
0.0
  0
LINE
  5
198
  8
0
  6
CONTINUOUS
 62
     7
 10
146.7789254109
 20
152.9561439002
 30
0.0
 11
168.8289254109
 21
152.9561439002
 31
0.0
  0
LINE
  5
199
  8
0
  6
CONTINUOUS
 62
     7
 10
169.3289254109
 20
153.4561439002
 30
0.0
 11
168.8289254109
 21
152.9561439002
 31
0.0
  0
LINE
  5
19A
  8
0
  6
CONTINUOUS
 62
     7
 10
114.3289254109
 20
160.4561439002
 30
0.0
 11
114.3289254109
 21
153.4561439002
 31
0.0
  0
LINE
  5
19B
  8
0
  6
CONTINUOUS
 62
     7
 10
114.3289254109
 20
160.4561439002
 30
0.0
 11
114.8289254109
 21
160.9561439002
 31
0.0
  0
LINE
  5
19C
  8
0
  6
CONTINUOUS
 62
     7
 10
114.8289254109
 20
160.9561439002
 30
0.0
 11
125.8289254109
 21
160.9561439002
 31
0.0
  0
LINE
  5
19D
  8
0
  6
CONTINUOUS
 62
     7
 10
125.8289254109
 20
158.2561439002
 30
0.0
 11
125.8289254109
 21
160.9561439002
 31
0.0
  0
LINE
  5
19E
  8
0
  6
CONTINUOUS
 62
     7
 10
124.2789254109
 20
158.2561439002
 30
0.0
 11
125.8289254109
 21
158.2561439002
 31
0.0
  0
LINE
  5
19F
  8
0
  6
CONTINUOUS
 62
     7
 10
114.8289254109
 20
152.9561439002
 30
0.0
 11
124.2789254109
 21
152.9561439002
 31
0.0
  0
LINE
  5
1A0
  8
0
  6
CONTINUOUS
 62
     7
 10
114.8289254109
 20
152.9561439002
 30
0.0
 11
114.3289254109
 21
153.4561439002
 31
0.0
  0
LINE
  5
1A1
  8
0
  6
CONTINUOUS
 62
     7
 10
140.2789254109
 20
152.9561439002
 30
0.0
 11
146.7789254109
 21
152.9561439002
 31
0.0
  0
LINE
  5
1A2
  8
0
  6
CONTINUOUS
 62
     7
 10
125.8289254109
 20
160.9561439002
 30
0.0
 11
129.2289254109
 21
160.9561439002
 31
0.0
  0
LINE
  5
1A3
  8
0
  6
CONTINUOUS
 62
     7
 10
125.8289254109
 20
158.2561439002
 30
0.0
 11
129.2289254109
 21
158.2561439002
 31
0.0
  0
LINE
  5
1A4
  8
0
  6
CONTINUOUS
 62
     7
 10
141.8289254109
 20
160.9561439002
 30
0.0
 11
145.2289254109
 21
160.9561439002
 31
0.0
  0
LINE
  5
1A5
  8
0
  6
CONTINUOUS
 62
     7
 10
141.8289254109
 20
158.2561439002
 30
0.0
 11
145.2289254109
 21
158.2561439002
 31
0.0
  0
TEXT
  5
1A6
  8
0
  6
CONTINUOUS
 62
     7
 10
138.7737170482
 20
170.2939431219
 30
0.0
 40
3.5
  1
A-A
 41
0.7
 11
138.7737170482
 21
169.0575329052
 31
0.0
 73
     1
  0
INSERT
  5
1AE
  8
TXT
  2
SW_NOTE_0
 10
165.5260647155
 20
195.4287489679
 30
0.0
  0
ARC
  5
1AF
  8
0
  6
CONTINUOUS
 62
     7
 10
119.3289254109
 20
85.0053389122
 30
0.0
 40
5.000000000000014
 50
180.0
 51
270.0
  0
ARC
  5
1B0
  8
0
  6
CONTINUOUS
 62
     7
 10
119.3289254109
 20
85.0053389122
 30
0.0
 40
4.500000000000014
 50
180.0
 51
270.0
  0
LINE
  5
1B1
  8
0
  6
CONTINUOUS
 62
     7
 10
164.3289254109
 20
80.0053389122
 30
0.0
 11
119.3289254109
 21
80.0053389122
 31
0.0
  0
LINE
  5
1B2
  8
0
  6
CONTINUOUS
 62
     7
 10
119.3289254109
 20
80.5053389122
 30
0.0
 11
164.3289254109
 21
80.5053389122
 31
0.0
  0
ARC
  5
1B3
  8
0
  6
CONTINUOUS
 62
     7
 10
164.3289254109
 20
85.0053389122
 30
0.0
 40
5.000000000000014
 50
270.0
 51
0.0
  0
ARC
  5
1B4
  8
0
  6
CONTINUOUS
 62
     7
 10
164.3289254109
 20
85.0053389122
 30
0.0
 40
4.500000000000014
 50
270.0
 51
0.0
  0
CIRCLE
  5
1B5
  8
0
  6
CONTINUOUS
 62
     7
 10
145.5289254109
 20
124.5053389122
 30
0.0
 40
2.25
  0
CIRCLE
  5
1B6
  8
0
  6
CONTINUOUS
 62
     7
 10
163.5289254109
 20
124.5053389122
 30
0.0
 40
2.25
  0
CIRCLE
  5
1B7
  8
0
  6
CONTINUOUS
 62
     7
 10
145.5289254109
 20
85.5053389122
 30
0.0
 40
2.25
  0
CIRCLE
  5
1B8
  8
0
  6
CONTINUOUS
 62
     7
 10
163.5289254109
 20
85.5053389122
 30
0.0
 40
2.25
  0
CIRCLE
  5
1B9
  8
0
  6
CONTINUOUS
 62
     7
 10
127.5289254109
 20
105.0053389122
 30
0.0
 40
3.25
  0
CIRCLE
  5
1BA
  8
0
  6
CONTINUOUS
 62
     7
 10
143.5289254109
 20
105.0053389122
 30
0.0
 40
3.25
  0
LINE
  5
1BB
  8
0
  6
CONTINUOUS
 62
     7
 10
164.3289254109
 20
129.5053389122
 30
0.0
 11
119.3289254109
 21
129.5053389122
 31
0.0
  0
ARC
  5
1BC
  8
0
  6
CONTINUOUS
 62
     7
 10
164.3289254109
 20
125.0053389122
 30
0.0
 40
4.5
 50
0.0
 51
90.0
  0
LINE
  5
1BD
  8
0
  6
CONTINUOUS
 62
     7
 10
168.8289254109
 20
85.0053389122
 30
0.0
 11
168.8289254109
 21
125.0053389122
 31
0.0
  0
LINE
  5
1BE
  8
0
  6
CONTINUOUS
 62
     7
 10
114.8289254109
 20
125.0053389122
 30
0.0
 11
114.8289254109
 21
85.0053389122
 31
0.0
  0
ARC
  5
1BF
  8
0
  6
CONTINUOUS
 62
     7
 10
119.3289254109
 20
125.0053389122
 30
0.0
 40
4.500000000000014
 50
90.0
 51
180.0
  0
CIRCLE
  5
1C0
  8
0
  6
CONTINUOUS
 62
     7
 10
154.5289254109
 20
124.5053389122
 30
0.0
 40
2.000000000000028
  0
CIRCLE
  5
1C1
  8
0
  6
CONTINUOUS
 62
     7
 10
154.5289254109
 20
85.5053389122
 30
0.0
 40
2.000000000000014
  0
CIRCLE
  5
1C2
  8
0
  6
CONTINUOUS
 62
     7
 10
154.5289254109
 20
85.5053389122
 30
0.0
 40
1.5
  0
LINE
  5
1C3
  8
0
  6
CONTINUOUS
 62
     7
 10
114.3289254109
 20
85.0053389122
 30
0.0
 11
114.3289254109
 21
125.0053389122
 31
0.0
  0
LINE
  5
1C4
  8
0
  6
CONTINUOUS
 62
     7
 10
169.3289254109
 20
125.0053389122
 30
0.0
 11
169.3289254109
 21
85.0053389122
 31
0.0
  0
CIRCLE
  5
1C5
  8
0
  6
CONTINUOUS
 62
     7
 10
154.5289254109
 20
124.5053389122
 30
0.0
 40
1.5
  0
ARC
  5
1C6
  8
0
  6
CONTINUOUS
 62
     7
 10
119.3289254109
 20
125.0053389122
 30
0.0
 40
5.000000000000014
 50
90.0
 51
180.0
  0
ARC
  5
1C7
  8
0
  6
CONTINUOUS
 62
     7
 10
164.3289254109
 20
125.0053389122
 30
0.0
 40
5.0
 50
0.0
 51
90.0
  0
LINE
  5
1C8
  8
0
  6
CONTINUOUS
 62
     7
 10
119.3289254109
 20
130.0053389122
 30
0.0
 11
164.3289254109
 21
130.0053389122
 31
0.0
  0
CIRCLE
  5
1C9
  8
0
  6
CONTINUOUS
 62
     7
 10
127.5289254109
 20
105.0053389122
 30
0.0
 40
1.700000000000003
  0
CIRCLE
  5
1CA
  8
0
  6
CONTINUOUS
 62
     7
 10
143.5289254109
 20
105.0053389122
 30
0.0
 40
1.700000000000003
  0
DIMENSION
  5
1CB
  8
DIM
  2
_D_8
 10
183.6827786177
 20
85.5053389122
 30
0.0
 11
183.6827786177
 21
105.0053389122
 31
0.0
 70
   160
  1
<>
  3
SLDDIMSTYLE1
 13
170.7789254109
 23
124.5053389122
 33
0.0
 14
170.7789254109
 24
85.5053389122
 34
0.0
 50
90.0
  0
DIMENSION
  5
1D5
  8
DIM
  2
_D_9
 10
145.5289254109
 20
141.2466102222
 30
0.0
 11
154.5289254109
 21
141.2466102222
 31
0.0
 70
   160
  1
<>
  3
SLDDIMSTYLE1
 13
163.5289254109
 23
131.7553389122
 33
0.0
 14
145.5289254109
 24
131.7553389122
 34
0.0
  0
DIMENSION
  5
1DF
  8
DIM
  2
_D_10
 10
163.5289254109
 20
134.680392868
 30
0.0
 11
159.0289254109
 21
134.680392868
 31
0.0
 70
   160
  1
<>
  3
SLDDIMSTYLE1
 13
154.5289254109
 23
131.0053389122
 33
0.0
 14
163.5289254109
 24
131.7553389122
 34
0.0
  0
DIMENSION
  5
1E9
  8
DIM
  2
_D_11
 10
154.5289254109
 20
67.0483541206
 30
0.0
 11
161.9289254109
 21
67.0483541206
 31
0.0
 70
   160
  1
<>
  3
SLDDIMSTYLE1
 13
169.3289254109
 23
85.0053389122
 33
0.0
 14
154.5289254109
 24
79.0053389122
 34
0.0
  0
DIMENSION
  5
1F3
  8
DIM
  2
_D_12
 10
153.5089726754
 20
86.6052009114
 30
0.0
 11
189.2398590938
 21
74.6039414923
 31
0.0
 70
   163
  1
2x<>H8 深さ3
  3
SLDDIMSTYLE2
 15
155.5488781464
 25
84.405476913
 35
0.0
 40
0.0
  0
INSERT
  5
20D
  8
TXT
  2
SW_NOTE_0_1
 10
141.4973817743
 20
107.5421342238
 30
0.0
  0
INSERT
  5
219
  8
DIM
  2
SW_CENTERMARKSYMBOL_8
 10
145.5289254109
 20
124.5053389122
 30
0.0
  0
INSERT
  5
225
  8
DIM
  2
SW_CENTERMARKSYMBOL_9
 10
163.5289254109
 20
124.5053389122
 30
0.0
  0
INSERT
  5
231
  8
DIM
  2
SW_CENTERMARKSYMBOL_10
 10
145.5289254109
 20
85.5053389122
 30
0.0
  0
INSERT
  5
23D
  8
DIM
  2
SW_CENTERMARKSYMBOL_11
 10
163.5289254109
 20
85.5053389122
 30
0.0
  0
INSERT
  5
249
  8
DIM
  2
SW_CENTERMARKSYMBOL_12
 10
127.5289254109
 20
105.0053389122
 30
0.0
  0
INSERT
  5
255
  8
DIM
  2
SW_CENTERMARKSYMBOL_13
 10
143.5289254109
 20
105.0053389122
 30
0.0
  0
INSERT
  5
261
  8
DIM
  2
SW_CENTERMARKSYMBOL_14
 10
154.5289254109
 20
124.5053389122
 30
0.0
  0
INSERT
  5
26D
  8
DIM
  2
SW_CENTERMARKSYMBOL_15
 10
154.5289254109
 20
85.5053389122
 30
0.0
  0
ENDSEC
  0
EOF
