  0
SECTION
  2
HEADER
  9
$ACADVER
  1
AC1009
  9
$DWGCODEPAGE
  3
dos932
  9
$INSBASE
 10
0.0
 20
0.0
 30
0.0
  9
$EXTMIN
 10
0.0
 20
0.0
 30
0.0
  9
$EXTMAX
 10
420.0
 20
297.0
 30
0.0
  9
$LIMMIN
 10
0.0
 20
0.0
  9
$LIMMAX
 10
420.0
 20
297.0
  9
$ORTHOMODE
 70
     0
  9
$REGENMODE
 70
     1
  9
$FILLMODE
 70
     1
  9
$QTEXTMODE
 70
     0
  9
$MIRRTEXT
 70
     1
  9
$DRAGMODE
 70
     2
  9
$LTSCALE
 40
1.0
  9
$OSMODE
 70
    37
  9
$ATTMODE
 70
     1
  9
$TEXTSIZE
 40
3.5
  9
$TRACEWID
 40
1.0
  9
$TEXTSTYLE
  7
STANDARD
  9
$CLAYER
  8
0
  9
$CELTYPE
  6
BYLAYER
  9
$CECOLOR
 62
   256
  9
$DIMSCALE
 40
1.0
  9
$DIMASZ
 40
3.0
  9
$DIMEXO
 40
0.01
  9
$DIMDLI
 40
3.75
  9
$DIMRND
 40
0.0
  9
$DIMDLE
 40
0.0
  9
$DIMEXE
 40
1.0
  9
$DIMTP
 40
0.0
  9
$DIMTM
 40
0.0
  9
$DIMTXT
 40
3.5
  9
$DIMCEN
 40
2.5
  9
$DIMTSZ
 40
0.0
  9
$DIMTOL
 70
     0
  9
$DIMLIM
 70
     0
  9
$DIMTIH
 70
     1
  9
$DIMTOH
 70
     1
  9
$DIMSE1
 70
     0
  9
$DIMSE2
 70
     0
  9
$DIMTAD
 70
     1
  9
$DIMZIN
 70
     0
  9
$DIMBLK
  1

  9
$DIMASO
 70
     1
  9
$DIMSHO
 70
     1
  9
$DIMPOST
  1

  9
$DIMAPOST
  1

  9
$DIMALT
 70
     0
  9
$DIMALTD
 70
     3
  9
$DIMALTF
 40
0.0393700787
  9
$DIMLFAC
 40
1.0
  9
$DIMTOFL
 70
     1
  9
$DIMTVP
 40
0.0
  9
$DIMTIX
 70
     0
  9
$DIMSOXD
 70
     0
  9
$DIMSAH
 70
     0
  9
$DIMBLK1
  1

  9
$DIMBLK2
  1

  9
$DIMSTYLE
  2
ISO-25
  9
$DIMCLRD
 70
     0
  9
$DIMCLRE
 70
     0
  9
$DIMCLRT
 70
     0
  9
$DIMTFAC
 40
1.0
  9
$DIMGAP
 40
1.524
  9
$LUNITS
 70
     2
  9
$LUPREC
 70
     4
  9
$SKETCHINC
 40
1.0
  9
$FILLETRAD
 40
10.0
  9
$AUNITS
 70
     0
  9
$AUPREC
 70
     2
  9
$MENU
  1
.
  9
$ELEVATION
 40
0.0
  9
$PELEVATION
 40
0.0
  9
$THICKNESS
 40
0.0
  9
$LIMCHECK
 70
     0
  9
$CHAMFERA
 40
0.0
  9
$CHAMFERB
 40
0.0
  9
$SKPOLY
 70
     0
  9
$TDCREATE
 40
2460356.603934954
  9
$TDUPDATE
 40
2460356.603937431
  9
$TDINDWG
 40
0.0000000116
  9
$TDUSRTIMER
 40
0.0000000116
  9
$USRTIMER
 70
     1
  9
$ANGBASE
 50
0.0
  9
$ANGDIR
 70
     0
  9
$PDMODE
 70
     0
  9
$PDSIZE
 40
-1.0
  9
$PLINEWID
 40
0.0
  9
$COORDS
 70
     1
  9
$SPLFRAME
 70
     0
  9
$SPLINETYPE
 70
     6
  9
$SPLINESEGS
 70
     8
  9
$ATTDIA
 70
     0
  9
$ATTREQ
 70
     1
  9
$HANDLING
 70
     1
  9
$HANDSEED
  5
452
  9
$SURFTAB1
 70
     6
  9
$SURFTAB2
 70
     6
  9
$SURFTYPE
 70
     6
  9
$SURFU
 70
     6
  9
$SURFV
 70
     6
  9
$UCSNAME
  2

  9
$UCSORG
 10
0.0
 20
0.0
 30
0.0
  9
$UCSXDIR
 10
1.0
 20
0.0
 30
0.0
  9
$UCSYDIR
 10
0.0
 20
1.0
 30
0.0
  9
$PUCSNAME
  2

  9
$PUCSORG
 10
0.0
 20
0.0
 30
0.0
  9
$PUCSXDIR
 10
1.0
 20
0.0
 30
0.0
  9
$PUCSYDIR
 10
0.0
 20
1.0
 30
0.0
  9
$USERI1
 70
     0
  9
$USERI2
 70
     0
  9
$USERI3
 70
     0
  9
$USERI4
 70
     0
  9
$USERI5
 70
     0
  9
$USERR1
 40
0.0
  9
$USERR2
 40
0.0
  9
$USERR3
 40
0.0
  9
$USERR4
 40
0.0
  9
$USERR5
 40
0.0
  9
$WORLDVIEW
 70
     1
  9
$SHADEDGE
 70
     3
  9
$SHADEDIF
 70
    70
  9
$TILEMODE
 70
     1
  9
$MAXACTVP
 70
    64
  9
$PLIMCHECK
 70
     0
  9
$PEXTMIN
 10
1.0000000000E+20
 20
1.0000000000E+20
 30
1.0000000000E+20
  9
$PEXTMAX
 10
-1.0000000000E+20
 20
-1.0000000000E+20
 30
-1.0000000000E+20
  9
$PLIMMIN
 10
0.0
 20
0.0
  9
$PLIMMAX
 10
420.0
 20
297.0
  9
$UNITMODE
 70
     0
  9
$VISRETAIN
 70
     1
  9
$PLINEGEN
 70
     0
  9
$PSLTSCALE
 70
     1
  0
ENDSEC
  0
SECTION
  2
TABLES
  0
TABLE
  2
VPORT
 70
     1
  0
VPORT
  2
*ACTIVE
 70
     0
 10
0.0
 20
0.0
 11
1.0
 21
1.0
 12
210.0
 22
148.5
 13
0.0
 23
0.0
 14
10.0
 24
10.0
 15
10.0
 25
10.0
 16
0.0
 26
0.0
 36
1.0
 17
0.0
 27
0.0
 37
0.0
 40
297.0
 41
1.4141414141
 42
50.0
 43
0.0
 44
0.0
 50
0.0
 51
0.0
 71
     0
 72
  2000
 73
     1
 74
     3
 75
     0
 76
     0
 77
     0
 78
     0
  0
ENDTAB
  0
TABLE
  2
LTYPE
 70
     6
  0
LTYPE
  2
CONTINUOUS
 70
     0
  3
Solid line
 72
    65
 73
     0
 40
0.0
  0
LTYPE
  2
HIDDEN
 70
     0
  3
Hidden __ __ __ __ __ __ __ __ __ __ __ __ __ __
 72
    65
 73
     2
 40
1.905
 49
1.27
 49
-0.635
  0
LTYPE
  2
PHANTOM
 70
     0
  3
Phantom ______  __  __  ______  __  __  ______
 72
    65
 73
     6
 40
12.7
 49
6.35
 49
-1.27
 49
1.27
 49
-1.27
 49
1.27
 49
-1.27
  0
LTYPE
  2
CENTER
 70
     0
  3
Center ____ _ ____ _ ____ _ ____ _ ____ _ ____
 72
    65
 73
     4
 40
10.16
 49
6.35
 49
-1.27
 49
1.27
 49
-1.27
  0
LTYPE
  2
CENTERX2
 70
     0
  3
Center (2x) ________  __  ________  __  _____
 72
    65
 73
     4
 40
20.32
 49
12.7
 49
-2.54
 49
2.54
 49
-2.54
  0
LTYPE
  2
DOT2
 70
     0
  3
Dot (.5x) ........................................
 72
    65
 73
     2
 40
0.635
 49
0.0
 49
-0.635
  0
ENDTAB
  0
TABLE
  2
LAYER
 70
     4
  0
LAYER
  2
0
 70
     0
 62
     7
  6
CONTINUOUS
  0
LAYER
  2
DIM
 70
     0
 62
     7
  6
CONTINUOUS
  0
LAYER
  2
TXT
 70
     0
 62
     7
  6
CONTINUOUS
  0
LAYER
  2
FRAME
 70
     0
 62
     7
  6
CONTINUOUS
  0
ENDTAB
  0
TABLE
  2
STYLE
 70
     1
  0
STYLE
  2
STANDARD
 70
     0
 40
0.0
 41
1.0
 50
0.0
 71
     0
 42
3.5
  3
txt
  4
bigfont
  0
ENDTAB
  0
TABLE
  2
VIEW
 70
     0
  0
ENDTAB
  0
TABLE
  2
UCS
 70
     0
  0
ENDTAB
  0
TABLE
  2
APPID
 70
     1
  0
APPID
  2
ACAD
 70
     0
  0
ENDTAB
  0
TABLE
  2
DIMSTYLE
 70
    10
  0
DIMSTYLE
  2
ISO-25
 70
     0
  3

  4

  5

  6

  7

 40
1.0
 41
2.5
 42
0.625
 43
3.75
 44
1.25
 45
0.0
 46
0.0
 47
0.0
 48
0.0
140
2.5
141
2.5
142
0.0
143
0.0393700787
144
1.0
145
0.0
146
1.0
147
0.625
 71
     0
 72
     0
 73
     0
 74
     0
 75
     0
 76
     0
 77
     1
 78
     8
170
     0
171
     3
172
     1
173
     0
174
     0
175
     0
176
     0
177
     0
178
     0
  0
DIMSTYLE
  2
SLDDIMSTYLE0
 70
     0
  3

  4

  5

  6
OPEN30
  7
OPEN30
 40
1.0
 41
3.0
 42
0.0625
 43
0.38
 44
0.0
 45
0.000000001
 46
0.0
 47
0.0
 48
0.0
140
3.5
141
0.09
142
0.0
143
25.4
144
1.0
145
0.0
146
1.0
147
0.875
 71
     0
 72
     0
 73
     0
 74
     0
 75
     0
 76
     0
 77
     3
 78
    12
170
     0
171
     2
172
     1
173
     1
174
     0
175
     0
176
     0
177
     0
178
     0
  0
DIMSTYLE
  2
SLDDIMSTYLE1
 70
     0
  3

  4

  5

  6
OPEN30
  7
OPEN30
 40
1.0
 41
3.0
 42
0.0625
 43
0.38
 44
0.0
 45
0.000000001
 46
0.0
 47
0.0
 48
0.0
140
3.5
141
0.09
142
0.0
143
25.4
144
1.0
145
0.0
146
1.0
147
0.875
 71
     0
 72
     0
 73
     0
 74
     0
 75
     0
 76
     0
 77
     3
 78
    12
170
     0
171
     2
172
     0
173
     1
174
     0
175
     0
176
     0
177
     0
178
     0
  0
DIMSTYLE
  2
SLDDIMSTYLE2
 70
     0
  3

  4

  5

  6
OPEN30
  7
OPEN30
 40
1.0
 41
3.0
 42
0.0625
 43
0.38
 44
0.0
 45
0.0
 46
0.0
 47
0.0
 48
0.0
140
3.5
141
0.09
142
0.0
143
25.4
144
1.0
145
0.0
146
1.0
147
0.875
 71
     0
 72
     0
 73
     0
 74
     0
 75
     0
 76
     0
 77
     3
 78
    12
170
     0
171
     2
172
     0
173
     1
174
     0
175
     0
176
     0
177
     0
178
     0
  0
DIMSTYLE
  2
SLDDIMSTYLE3
 70
     0
  3

  4

  5

  6
OPEN30
  7
OPEN30
 40
1.0
 41
3.0
 42
0.0625
 43
0.38
 44
0.0
 45
0.000000001
 46
0.0
 47
0.018
 48
0.0
140
3.5
141
0.09
142
0.0
143
25.4
144
1.0
145
0.0
146
1.0
147
0.875
 71
     1
 72
     0
 73
     0
 74
     0
 75
     0
 76
     0
 77
     3
 78
    12
170
     0
171
     2
172
     1
173
     1
174
     0
175
     0
176
     0
177
     0
178
     0
  0
DIMSTYLE
  2
SLDDIMSTYLE4
 70
     0
  3
<>
  4

  5

  6
NONE
  7
OPEN30
 40
1.0
 41
3.0
 42
0.0625
 43
0.38
 44
0.0
 45
0.000000001
 46
0.0
 47
0.0
 48
0.0
140
3.5
141
0.0
142
0.0
143
25.4
144
1.0
145
0.0
146
1.0
147
0.875
 71
     0
 72
     0
 73
     1
 74
     1
 75
     0
 76
     0
 77
     0
 78
    12
170
     0
171
     2
172
     1
173
     1
174
     0
175
     0
176
     0
177
     0
178
     0
  0
DIMSTYLE
  2
SLDDIMSTYLE5
 70
     0
  3

  4

  5

  6
OPEN30
  7
OPEN30
 40
1.0
 41
3.0
 42
0.0625
 43
0.38
 44
0.0
 45
0.000000001
 46
0.0
 47
0.0
 48
0.0
140
3.5
141
0.0
142
0.0
143
25.4
144
1.0
145
0.0
146
1.0
147
0.875
 71
     0
 72
     0
 73
     0
 74
     0
 75
     0
 76
     0
 77
     3
 78
    12
170
     0
171
     2
172
     1
173
     1
174
     0
175
     0
176
     0
177
     0
178
     0
  0
DIMSTYLE
  2
SLDDIMSTYLE6
 70
     0
  3

  4

  5

  6
OPEN30
  7
OPEN30
 40
1.0
 41
3.0
 42
0.0625
 43
0.38
 44
0.0
 45
0.000000001
 46
0.0
 47
0.0
 48
0.0
140
3.5
141
0.0
142
0.0
143
25.4
144
1.0
145
0.0
146
1.0
147
0.875
 71
     0
 72
     0
 73
     0
 74
     0
 75
     0
 76
     0
 77
     3
 78
    12
170
     0
171
     2
172
     1
173
     1
174
     0
175
     0
176
     0
177
     0
178
     0
  0
DIMSTYLE
  2
SLDDIMSTYLE7
 70
     0
  3

  4

  5

  6
OPEN30
  7
OPEN30
 40
1.0
 41
3.0
 42
0.0625
 43
0.38
 44
0.0
 45
0.000000001
 46
0.0
 47
0.0
 48
0.0
140
3.5
141
0.0
142
0.0
143
25.4
144
1.0
145
0.0
146
1.0
147
0.875
 71
     0
 72
     0
 73
     0
 74
     0
 75
     0
 76
     0
 77
     3
 78
    12
170
     0
171
     2
172
     0
173
     1
174
     0
175
     0
176
     0
177
     0
178
     0
  0
DIMSTYLE
  2
SLDDIMSTYLE8
 70
     0
  3

  4

  5

  6
NONE
  7
OPEN30
 40
1.0
 41
3.0
 42
0.0625
 43
0.38
 44
0.0
 45
0.000000001
 46
0.0
 47
0.0
 48
0.0
140
3.5
141
0.0
142
0.0
143
25.4
144
1.0
145
0.0
146
1.0
147
0.875
 71
     0
 72
     0
 73
     1
 74
     1
 75
     0
 76
     0
 77
     0
 78
    12
170
     0
171
     2
172
     1
173
     1
174
     0
175
     0
176
     0
177
     0
178
     0
  0
ENDTAB
  0
ENDSEC
  0
SECTION
  2
BLOCKS
  0
BLOCK
  8
0
  2
$MODEL_SPACE
 70
     0
 10
0.0
 20
0.0
 30
0.0
  3
$MODEL_SPACE
  1

  0
ENDBLK
  5
21
  8
0
  0
BLOCK
 67
     1
  8
0
  2
$PAPER_SPACE
 70
     0
 10
0.0
 20
0.0
 30
0.0
  3
$PAPER_SPACE
  1

  0
ENDBLK
  5
1D
 67
     1
  8
0
  0
BLOCK
  8
0
  2
_OPEN30
 70
     0
 10
0.0
 20
0.0
 30
0.0
  3
_OPEN30
  1

  0
LINE
  5
C1
  8
0
  6
BYBLOCK
 62
     0
 10
-1.0
 20
0.267949
 30
0.0
 11
0.0
 21
0.0
 31
0.0
  0
LINE
  5
C2
  8
0
  6
BYBLOCK
 62
     0
 10
0.0
 20
0.0
 30
0.0
 11
-1.0
 21
-0.267949
 31
0.0
  0
LINE
  5
C3
  8
0
  6
BYBLOCK
 62
     0
 10
0.0
 20
0.0
 30
0.0
 11
-1.0
 21
0.0
 31
0.0
  0
ENDBLK
  5
C0
  8
0
  0
BLOCK
  8
0
  2
_D
 70
     0
 10
0.0
 20
0.0
 30
0.0
  3
_D
  1

  0
INSERT
  5
C7
  8
DIM
  2
_OPEN30
 10
160.4939930364
 20
229.3721265763
 30
0.0
 41
3.0
 42
3.0
 50
0.0
  0
INSERT
  5
C8
  8
DIM
  2
_OPEN30
 10
166.4939930364
 20
229.3721265763
 30
0.0
 41
3.0
 42
3.0
 50
180.0
  0
LINE
  5
C9
  8
DIM
 10
160.4939930364
 20
193.2121713837
 30
0.0
 11
160.4939930364
 21
230.3721265763
 31
0.0
  0
LINE
  5
CA
  8
DIM
 10
166.4939930364
 20
193.2121713837
 30
0.0
 11
166.4939930364
 21
230.3721265763
 31
0.0
  0
LINE
  5
CB
  8
DIM
 10
160.4939930364
 20
229.3721265763
 30
0.0
 11
149.7136337099
 21
229.3721265763
 31
0.0
  0
LINE
  5
CC
  8
DIM
 10
160.4939930364
 20
229.3721265763
 30
0.0
 11
166.4939930364
 21
229.3721265763
 31
0.0
  0
LINE
  5
CD
  8
DIM
 10
166.4939930364
 20
229.3721265763
 30
0.0
 11
172.8439930364
 21
229.3721265763
 31
0.0
  0
TEXT
  5
CE
  8
DIM
 10
149.7136337099
 20
230.6085365602
 30
0.0
 40
3.5
  1
6
 41
0.7
 11
149.7136337099
 21
229.3721263434
 31
0.0
 73
     1
  0
ENDBLK
  5
C6
  8
0
  0
BLOCK
  8
0
  2
_D_1
 70
     0
 10
0.0
 20
0.0
 30
0.0
  3
_D_1
  1

  0
INSERT
  5
D4
  8
DIM
  2
_OPEN30
 10
95.4939930364
 20
267.6786013961
 30
0.0
 41
3.0
 42
3.0
 50
180.0
  0
INSERT
  5
D5
  8
DIM
  2
_OPEN30
 10
220.4939930364
 20
267.6786013961
 30
0.0
 41
3.0
 42
3.0
 50
0.0
  0
LINE
  5
D6
  8
DIM
 10
95.4939930364
 20
193.2121713837
 30
0.0
 11
95.4939930364
 21
268.6786013961
 31
0.0
  0
LINE
  5
D7
  8
DIM
 10
220.4939930364
 20
220.2121713837
 30
0.0
 11
220.4939930364
 21
268.6786013961
 31
0.0
  0
LINE
  5
D8
  8
DIM
 10
95.4939930364
 20
267.6786013961
 30
0.0
 11
220.4939930364
 21
267.6786013961
 31
0.0
  0
TEXT
  5
D9
  8
DIM
 10
154.9387846738
 20
268.91501138
 30
0.0
 40
3.5
  1
125
 41
0.7
 11
154.9387846738
 21
267.6786011633
 31
0.0
 73
     1
  0
ENDBLK
  5
D3
  8
0
  0
BLOCK
  8
0
  2
_D_2
 70
     0
 10
0.0
 20
0.0
 30
0.0
  3
_D_2
  1

  0
ARC
  5
DF
  8
DIM
 10
125.4939930364
 20
193.2021713837
 30
0.0
 40
40.29196143359334
 50
150.0
 51
180.0
  0
INSERT
  5
E0
  8
DIM
  2
_OPEN30
 10
90.6001308666
 20
213.3481521005
 30
0.0
 41
3.0
 42
3.0
 50
62.1290941149
  0
INSERT
  5
E1
  8
DIM
  2
_OPEN30
 10
85.2020316028
 20
193.2021713837
 30
0.0
 41
3.0
 42
3.0
 50
267.8709058851
  0
LINE
  5
E2
  8
DIM
 10
99.7210770198
 20
208.0821713837
 30
0.0
 11
89.7341054628
 21
213.8481521005
 31
0.0
  0
TEXT
  5
E3
  8
DIM
 10
84.3263384527
 20
200.0156987524
 30
0.0
 40
3.5
  1
30°
 50
75.0
 41
0.7
 11
85.5206190129
 21
199.6956922407
 31
0.0
 73
     1
  0
ENDBLK
  5
DE
  8
0
  0
BLOCK
  8
0
  2
_D_3
 70
     0
 10
0.0
 20
0.0
 30
0.0
  3
_D_3
  1

  0
INSERT
  5
E8
  8
DIM
  2
_OPEN30
 10
163.4939930364
 20
239.314217162
 30
0.0
 41
3.0
 42
3.0
 50
0.0
  0
INSERT
  5
E9
  8
DIM
  2
_OPEN30
 10
125.4939930364
 20
239.314217162
 30
0.0
 41
3.0
 42
3.0
 50
180.0
  0
LINE
  5
EA
  8
DIM
 10
163.4939930364
 20
197.7203798066
 30
0.0
 11
163.4939930364
 21
240.314217162
 31
0.0
  0
LINE
  5
EB
  8
DIM
 10
125.4939930364
 20
222.9621713837
 30
0.0
 11
125.4939930364
 21
240.314217162
 31
0.0
  0
LINE
  5
EC
  8
DIM
 10
163.4939930364
 20
239.314217162
 30
0.0
 11
125.4939930364
 21
239.314217162
 31
0.0
  0
TEXT
  5
ED
  8
DIM
 10
142.4571875389
 20
240.5506271459
 30
0.0
 40
3.5
  1
38
 50
0.0
 41
0.7
 11
142.4571875389
 21
239.3142169292
 31
0.0
 73
     1
  0
ENDBLK
  5
E7
  8
0
  0
BLOCK
  8
0
  2
_D_4
 70
     0
 10
0.0
 20
0.0
 30
0.0
  3
_D_4
  1

  0
INSERT
  5
F2
  8
DIM
  2
_OPEN30
 10
254.859870505
 20
223.2021713837
 30
-4.0
 41
3.0
 42
3.0
 50
90.0
  0
INSERT
  5
F3
  8
DIM
  2
_OPEN30
 10
254.859870505
 20
163.2021713837
 30
-4.0
 41
3.0
 42
3.0
 50
270.0
  0
LINE
  5
F4
  8
DIM
 10
217.5039930364
 20
223.2021713837
 30
0.0
 11
255.859870505
 21
223.2021713837
 31
0.0
  0
LINE
  5
F5
  8
DIM
 10
217.5039930364
 20
163.2021713837
 30
0.0
 11
255.859870505
 21
163.2021713837
 31
0.0
  0
LINE
  5
F6
  8
DIM
 10
254.859870505
 20
223.2021713837
 30
0.0
 11
254.859870505
 21
163.2021713837
 31
0.0
  0
TEXT
  5
F7
  8
DIM
 10
253.6234605211
 20
191.1653658862
 30
-4.0
 40
3.5
  1
60
 50
90.0
 41
0.7
 11
254.8598707378
 21
191.1653658862
 31
-4.0
 73
     1
  0
ENDBLK
  5
F1
  8
0
  0
BLOCK
  8
0
  2
_D_5
 70
     0
 10
0.0
 20
0.0
 30
0.0
  3
_D_5
  1

  0
ARC
  5
FD
  8
DIM
 10
175.28628367
 20
241.8644231303
 30
0.0
 40
6.37621018554247
 50
243.4349488229
 51
296.5650511771
  0
ARC
  5
FE
  8
DIM
 10
175.28628367
 20
239.0128950148
 30
0.0
 40
6.376210185542482
 50
63.4349488229
 51
116.5650511771
  0
INSERT
  5
FF
  8
DIM
  2
_OPEN30
 10
178.3098943532
 20
195.2021713837
 30
-4.0
 41
3.0
 42
3.0
 50
270.0
  0
INSERT
  5
100
  8
DIM
  2
_OPEN30
 10
178.3098943532
 20
191.2021713837
 30
-4.0
 41
3.0
 42
3.0
 50
90.0
  0
LINE
  5
101
  8
DIM
 10
164.5039930364
 20
195.2021713837
 30
0.0
 11
179.3098943532
 21
195.2021713837
 31
0.0
  0
LINE
  5
102
  8
DIM
 10
164.5039930364
 20
191.2021713837
 30
0.0
 11
179.3098943532
 21
191.2021713837
 31
0.0
  0
LINE
  5
103
  8
DIM
 10
178.3098943532
 20
195.2021713837
 30
0.0
 11
178.3098943532
 21
245.389105091
 31
0.0
  0
LINE
  5
104
  8
DIM
 10
178.3098943532
 20
195.2021713837
 30
0.0
 11
178.3098943532
 21
191.2021713837
 31
0.0
  0
LINE
  5
105
  8
DIM
 10
178.3098943532
 20
191.2021713837
 30
0.0
 11
178.3098943532
 21
184.8521713837
 31
0.0
  0
TEXT
  5
106
  8
DIM
 10
177.0734843693
 20
225.3041856831
 30
-4.0
 40
3.5
  1
4
 50
90.0
 41
0.7
 11
178.309894586
 21
225.3041856831
 31
-4.0
 73
     1
  0
TEXT
  5
107
  8
DIM
 10
177.0734843693
 20
227.3409911806
 30
-4.0
 40
3.5
  1
 H8 
 50
90.0
 41
0.525
 11
178.309894586
 21
227.3409911806
 31
-4.0
 73
     1
  0
TEXT
  5
108
  8
DIM
 10
174.420796431
 20
236.1613673649
 30
-4.0
 40
2.45
  1
+
 50
90.0
 41
0.7
 11
175.2862835827
 21
236.1613673649
 31
-4.0
 73
     1
  0
TEXT
  5
109
  8
DIM
 10
177.2723243138
 20
236.1613673649
 30
-4.0
 40
2.45
  1
 
 50
90.0
 41
0.7
 11
178.1378114655
 21
236.1613673649
 31
-4.0
 73
     1
  0
TEXT
  5
10A
  8
DIM
 10
174.420796431
 20
237.5871313062
 30
-4.0
 40
2.45
  1
0.018
 50
90.0
 41
0.7
 11
175.2862835827
 21
237.5871313062
 31
-4.0
 73
     1
  0
TEXT
  5
10B
  8
DIM
 10
177.2723243138
 20
237.5871313062
 30
-4.0
 40
2.45
  1
0
 50
90.0
 41
0.7
 11
178.1378114655
 21
237.5871313062
 31
-4.0
 73
     1
  0
ENDBLK
  5
FC
  8
0
  0
BLOCK
  8
0
  2
_D_6
 70
     0
 10
0.0
 20
0.0
 30
0.0
  3
_D_6
  1

  0
INSERT
  5
110
  8
DIM
  2
_OPEN30
 10
155.4939930364
 20
248.4626365783
 30
-4.0
 41
3.0
 42
3.0
 50
180.0
  0
INSERT
  5
111
  8
DIM
  2
_OPEN30
 10
180.4939930364
 20
248.4626365783
 30
-4.0
 41
3.0
 42
3.0
 50
0.0
  0
LINE
  5
112
  8
DIM
 10
155.4939930364
 20
199.4621713837
 30
0.0
 11
155.4939930364
 21
249.4626365783
 31
0.0
  0
LINE
  5
113
  8
DIM
 10
180.4939930364
 20
199.4621713837
 30
0.0
 11
180.4939930364
 21
249.4626365783
 31
0.0
  0
LINE
  5
114
  8
DIM
 10
155.4939930364
 20
248.4626365783
 30
0.0
 11
180.4939930364
 21
248.4626365783
 31
0.0
  0
TEXT
  5
115
  8
DIM
 10
165.9571875389
 20
249.6990465622
 30
-4.0
 40
3.5
  1
25
 41
0.7
 11
165.9571875389
 21
248.4626363455
 31
-4.0
 73
     1
  0
ENDBLK
  5
10F
  8
0
  0
BLOCK
  8
0
  2
_D_7
 70
     0
 10
0.0
 20
0.0
 30
0.0
  3
_D_7
  1

  0
INSERT
  5
11A
  8
DIM
  2
_OPEN30
 10
160.4939930364
 20
257.9538031613
 30
-4.0
 41
3.0
 42
3.0
 50
180.0
  0
INSERT
  5
11B
  8
DIM
  2
_OPEN30
 10
185.4939930364
 20
257.9538031613
 30
-4.0
 41
3.0
 42
3.0
 50
0.0
  0
LINE
  5
11C
  8
DIM
 10
160.4939930364
 20
221.4621713837
 30
0.0
 11
160.4939930364
 21
258.9538031613
 31
0.0
  0
LINE
  5
11D
  8
DIM
 10
185.4939930364
 20
221.4621713837
 30
0.0
 11
185.4939930364
 21
258.9538031613
 31
0.0
  0
LINE
  5
11E
  8
DIM
 10
160.4939930364
 20
257.9538031613
 30
0.0
 11
185.4939930364
 21
257.9538031613
 31
0.0
  0
TEXT
  5
11F
  8
DIM
 10
170.9571875389
 20
259.1902131451
 30
-4.0
 40
3.5
  1
25
 41
0.7
 11
170.9571875389
 21
257.9538029284
 31
-4.0
 73
     1
  0
ENDBLK
  5
119
  8
0
  0
BLOCK
  8
0
  2
_D_8
 70
     0
 10
0.0
 20
0.0
 30
0.0
  3
_D_8
  1

  0
INSERT
  5
124
  8
DIM
  2
_OPEN30
 10
185.4939930364
 20
257.9538031613
 30
-4.0
 41
3.0
 42
3.0
 50
180.0
  0
INSERT
  5
125
  8
DIM
  2
_OPEN30
 10
210.4939930364
 20
257.9538031613
 30
-4.0
 41
3.0
 42
3.0
 50
0.0
  0
LINE
  5
126
  8
DIM
 10
185.4939930364
 20
221.4621713837
 30
0.0
 11
185.4939930364
 21
258.9538031613
 31
0.0
  0
LINE
  5
127
  8
DIM
 10
210.4939930364
 20
221.4621713837
 30
0.0
 11
210.4939930364
 21
258.9538031613
 31
0.0
  0
LINE
  5
128
  8
DIM
 10
185.4939930364
 20
257.9538031613
 30
0.0
 11
210.4939930364
 21
257.9538031613
 31
0.0
  0
TEXT
  5
129
  8
DIM
 10
195.9571875389
 20
259.1902131451
 30
-4.0
 40
3.5
  1
25
 41
0.7
 11
195.9571875389
 21
257.9538029284
 31
-4.0
 73
     1
  0
ENDBLK
  5
123
  8
0
  0
BLOCK
  8
0
  2
_D_9
 70
     0
 10
0.0
 20
0.0
 30
0.0
  3
_D_9
  1

  0
INSERT
  5
12E
  8
DIM
  2
_OPEN30
 10
244.8172493508
 20
215.2021713837
 30
-4.0
 41
3.0
 42
3.0
 50
90.0
  0
INSERT
  5
12F
  8
DIM
  2
_OPEN30
 10
244.8172493508
 20
171.2021713837
 30
-4.0
 41
3.0
 42
3.0
 50
270.0
  0
LINE
  5
130
  8
DIM
 10
216.7539930364
 20
215.2021713837
 30
0.0
 11
245.8172493508
 21
215.2021713837
 31
0.0
  0
LINE
  5
131
  8
DIM
 10
216.7539930364
 20
171.2021713837
 30
0.0
 11
245.8172493508
 21
171.2021713837
 31
0.0
  0
LINE
  5
132
  8
DIM
 10
244.8172493508
 20
215.2021713837
 30
0.0
 11
244.8172493508
 21
171.2021713837
 31
0.0
  0
TEXT
  5
133
  8
DIM
 10
243.5808393669
 20
191.1653658862
 30
-4.0
 40
3.5
  1
44
 50
90.0
 41
0.7
 11
244.8172495836
 21
191.1653658862
 31
-4.0
 73
     1
  0
ENDBLK
  5
12D
  8
0
  0
BLOCK
  8
0
  2
_NONE
 70
     0
 10
0.0
 20
0.0
 30
0.0
  3
_NONE
  1

  0
ENDBLK
  5
138
  8
0
  0
BLOCK
  8
0
  2
_D_10
 70
     0
 10
0.0
 20
0.0
 30
0.0
  3
_D_10
  1

  0
INSERT
  5
13C
  8
DIM
  2
_OPEN30
 10
186.7930311421
 20
170.4521713837
 30
-4.0
 41
3.0
 42
3.0
 50
150.0
  0
LINE
  5
13D
  8
DIM
 10
186.7930311421
 20
170.4521713837
 30
0.0
 11
213.346187116
 21
155.1216996343
 31
0.0
  0
LINE
  5
13E
  8
DIM
 10
184.1949549307
 20
171.9521713837
 30
0.0
 11
186.7930311421
 21
170.4521713837
 31
0.0
  0
LINE
  5
13F
  8
DIM
 10
213.346187116
 20
155.1216996343
 30
0.0
 11
223.0809091059
 21
155.1216996343
 31
0.0
  0
TEXT
  5
140
  8
DIM
 10
214.933687116
 20
156.3581096182
 30
-4.0
 40
3.5
  1
8x
 41
0.7
 11
214.933687116
 21
155.1216994015
 31
-4.0
 73
     1
  0
TEXT
  5
141
  8
DIM
 10
219.0072981109
 20
156.3581096182
 30
-4.0
 40
3.5
  1
M3
 41
0.7
 11
219.0072981109
 21
155.1216994015
 31
-4.0
 73
     1
  0
ENDBLK
  5
13B
  8
0
  0
BLOCK
  8
0
  2
_D_11
 70
     0
 10
0.0
 20
0.0
 30
0.0
  3
_D_11
  1

  0
INSERT
  5
147
  8
DIM
  2
_OPEN30
 10
129.3470646221
 20
183.9742875876
 30
-4.0
 41
3.0
 42
3.0
 50
292.6628103634
  0
INSERT
  5
148
  8
DIM
  2
_OPEN30
 10
121.6409214507
 20
202.4300551799
 30
-4.0
 41
3.0
 42
3.0
 50
112.6628103634
  0
LINE
  5
149
  8
DIM
 10
121.6409214507
 20
202.4300551799
 30
0.0
 11
108.8874668011
 21
232.9738421014
 31
0.0
  0
LINE
  5
14A
  8
DIM
 10
121.6409214507
 20
202.4300551799
 30
0.0
 11
129.3470646221
 21
183.9742875876
 31
0.0
  0
TEXT
  5
14B
  8
DIM
 10
110.0246542458
 20
233.4486708625
 30
-4.0
 40
3.5
  1
%%c
 50
-67.3371896366
 41
0.7
 11
108.8837092653
 21
232.9722731551
 31
-4.0
 73
     1
  0
TEXT
  5
14C
  8
DIM
 10
111.5157661764
 20
229.8775439533
 30
-4.0
 40
3.5
  1
20
 50
-67.3371896366
 41
0.7
 11
110.374821196
 21
229.4011462459
 31
-4.0
 73
     1
  0
ENDBLK
  5
146
  8
0
  0
BLOCK
  8
0
  2
_D_12
 70
     0
 10
0.0
 20
0.0
 30
0.0
  3
_D_12
  1

  0
ARC
  5
152
  8
DIM
 10
125.4939930364
 20
193.2021713837
 30
0.0
 40
22.94013949390892
 50
125.2777393435
 51
130.9991971731
  0
INSERT
  5
153
  8
DIM
  2
_OPEN30
 10
138.829898824
 20
176.3379009629
 30
-4.0
 41
3.0
 42
3.0
 50
308.336196407
  0
INSERT
  5
154
  8
DIM
  2
_OPEN30
 10
112.1580872488
 20
210.0664418045
 30
-4.0
 41
3.0
 42
3.0
 50
128.336196407
  0
LINE
  5
155
  8
DIM
 10
112.1580872488
 20
210.0664418045
 30
0.0
 11
98.1430608737
 21
227.7895120263
 31
0.0
  0
LINE
  5
156
  8
DIM
 10
112.1580872488
 20
210.0664418045
 30
0.0
 11
138.829898824
 21
176.3379009629
 31
0.0
  0
TEXT
  5
157
  8
DIM
 10
99.1098437427
 20
228.5540233237
 30
-4.0
 40
3.5
  1
%%c
 50
-51.663803593
 41
0.7
 11
98.140022522
 21
227.7871093625
 31
-4.0
 73
     1
  0
TEXT
  5
158
  8
DIM
 10
101.5102636848
 20
225.5185091508
 30
-4.0
 40
3.5
  1
43
 50
-51.663803593
 41
0.7
 11
100.540442464
 21
224.7515951897
 31
-4.0
 73
     1
  0
ENDBLK
  5
151
  8
0
  0
BLOCK
  8
0
  2
_D_13
 70
     0
 10
0.0
 20
0.0
 30
0.0
  3
_D_13
  1

  0
INSERT
  5
15D
  8
DIM
  2
_OPEN30
 10
180.4939930364
 20
248.4626365783
 30
-4.0
 41
3.0
 42
3.0
 50
180.0
  0
INSERT
  5
15E
  8
DIM
  2
_OPEN30
 10
220.4939930364
 20
248.4626365783
 30
-4.0
 41
3.0
 42
3.0
 50
0.0
  0
LINE
  5
15F
  8
DIM
 10
180.4939930364
 20
199.4621713837
 30
0.0
 11
180.4939930364
 21
249.4626365783
 31
0.0
  0
LINE
  5
160
  8
DIM
 10
220.4939930364
 20
220.2121713837
 30
0.0
 11
220.4939930364
 21
249.4626365783
 31
0.0
  0
LINE
  5
161
  8
DIM
 10
180.4939930364
 20
248.4626365783
 30
0.0
 11
220.4939930364
 21
248.4626365783
 31
0.0
  0
TEXT
  5
162
  8
DIM
 10
198.4571875389
 20
249.6990465622
 30
-4.0
 40
3.5
  1
40
 41
0.7
 11
198.4571875389
 21
248.4626363455
 31
-4.0
 73
     1
  0
ENDBLK
  5
15C
  8
0
  0
BLOCK
  8
0
  2
_D_14
 70
     0
 10
0.0
 20
0.0
 30
0.0
  3
_D_14
  1

  0
INSERT
  5
167
  8
DIM
  2
_OPEN30
 10
220.4939930364
 20
257.9538031613
 30
-4.0
 41
3.0
 42
3.0
 50
0.0
  0
INSERT
  5
168
  8
DIM
  2
_OPEN30
 10
210.4939930364
 20
257.9538031613
 30
-4.0
 41
3.0
 42
3.0
 50
180.0
  0
LINE
  5
169
  8
DIM
 10
220.4939930364
 20
220.2121713837
 30
0.0
 11
220.4939930364
 21
258.9538031613
 31
0.0
  0
LINE
  5
16A
  8
DIM
 10
210.4939930364
 20
221.4621713837
 30
0.0
 11
210.4939930364
 21
258.9538031613
 31
0.0
  0
LINE
  5
16B
  8
DIM
 10
220.4939930364
 20
257.9538031613
 30
0.0
 11
210.4939930364
 21
257.9538031613
 31
0.0
  0
TEXT
  5
16C
  8
DIM
 10
213.4571875389
 20
259.1902131451
 30
-4.0
 40
3.5
  1
10
 50
0.0
 41
0.7
 11
213.4571875389
 21
257.9538029284
 31
-4.0
 73
     1
  0
ENDBLK
  5
166
  8
0
  0
BLOCK
  8
0
  2
SW_NOTE_0
 70
     0
 10
0.0
 20
0.0
 30
0.0
  3
SW_NOTE_0
  1

  0
LINE
  5
170
  8
TXT
 62
     0
 10
73.9572448914
 20
-14.7228750838
 30
0.0
 11
0.7586589878
 21
-14.7228750838
 31
0.0
  0
TEXT
  5
171
  8
TXT
 62
     0
 10
1.2178484496
 20
-13.3625230321
 30
0.0
 40
3.5
  1
6xφ3.4,6.5深座ぐり深さ5.3(60°等配)
 41
0.7
 11
1.2178484496
 21
-14.5989332488
 31
0.0
 73
     1
  0
LINE
  5
172
  8
TXT
 62
     0
 10
0.7586589878
 20
-14.7228750838
 30
0.0
 11
0.0
 21
0.0
 31
0.0
  0
INSERT
  5
173
  8
TXT
 62
     0
  2
_OPEN30
 10
0.0
 20
0.0
 30
4.0
 41
3.0
 42
3.0
 50
92.9498006353
  0
ENDBLK
  5
16F
  8
0
  0
BLOCK
  8
0
  2
SW_CENTERMARKSYMBOL_0
 70
     0
 10
0.0
 20
0.0
 30
0.0
  3
SW_CENTERMARKSYMBOL_0
  1

  0
LINE
  5
178
  8
DIM
 62
     0
 10
0.0
 20
0.0
 30
0.0
 11
0.0
 21
5.0
 31
0.0
  0
LINE
  5
179
  8
DIM
 62
     0
 10
0.0
 20
0.0
 30
0.0
 11
-5.0
 21
0.0
 31
0.0
  0
LINE
  5
17A
  8
DIM
 62
     0
 10
0.0
 20
0.0
 30
0.0
 11
0.0
 21
-5.0
 31
0.0
  0
LINE
  5
17B
  8
DIM
 62
     0
 10
0.0
 20
0.0
 30
0.0
 11
5.0
 21
0.0
 31
0.0
  0
LINE
  5
17C
  8
DIM
 62
     0
 10
0.0
 20
10.0
 30
0.0
 11
0.0
 21
15.0
 31
0.0
  0
LINE
  5
17D
  8
DIM
 62
     0
 10
-10.0
 20
0.0
 30
0.0
 11
-15.0
 21
0.0
 31
0.0
  0
LINE
  5
17E
  8
DIM
 62
     0
 10
0.0
 20
-10.0
 30
0.0
 11
0.0
 21
-15.0
 31
0.0
  0
LINE
  5
17F
  8
DIM
 62
     0
 10
10.0
 20
0.0
 30
0.0
 11
15.0
 21
0.0
 31
0.0
  0
ENDBLK
  5
177
  8
0
  0
BLOCK
  8
0
  2
SW_CENTERMARKSYMBOL_1
 70
     0
 10
0.0
 20
0.0
 30
0.0
  3
SW_CENTERMARKSYMBOL_1
  1

  0
LINE
  5
184
  8
DIM
 62
     0
 10
0.0
 20
0.0
 30
0.0
 11
0.0
 21
5.0
 31
0.0
  0
LINE
  5
185
  8
DIM
 62
     0
 10
0.0
 20
0.0
 30
0.0
 11
-5.0
 21
0.0
 31
0.0
  0
LINE
  5
186
  8
DIM
 62
     0
 10
0.0
 20
0.0
 30
0.0
 11
0.0
 21
-5.0
 31
0.0
  0
LINE
  5
187
  8
DIM
 62
     0
 10
0.0
 20
0.0
 30
0.0
 11
5.0
 21
0.0
 31
0.0
  0
LINE
  5
188
  8
DIM
 62
     0
 10
0.0
 20
5.0
 30
0.0
 11
0.0
 21
6.25
 31
0.0
  0
LINE
  5
189
  8
DIM
 62
     0
 10
-5.0
 20
0.0
 30
0.0
 11
-6.25
 21
0.0
 31
0.0
  0
LINE
  5
18A
  8
DIM
 62
     0
 10
0.0
 20
-5.0
 30
0.0
 11
0.0
 21
-6.25
 31
0.0
  0
LINE
  5
18B
  8
DIM
 62
     0
 10
5.0
 20
0.0
 30
0.0
 11
6.25
 21
0.0
 31
0.0
  0
ENDBLK
  5
183
  8
0
  0
BLOCK
  8
0
  2
SW_CENTERMARKSYMBOL_2
 70
     0
 10
0.0
 20
0.0
 30
0.0
  3
SW_CENTERMARKSYMBOL_2
  1

  0
LINE
  5
190
  8
DIM
 62
     0
 10
0.0
 20
0.0
 30
0.0
 11
0.0
 21
5.0
 31
0.0
  0
LINE
  5
191
  8
DIM
 62
     0
 10
0.0
 20
0.0
 30
0.0
 11
-5.0
 21
0.0
 31
0.0
  0
LINE
  5
192
  8
DIM
 62
     0
 10
0.0
 20
0.0
 30
0.0
 11
0.0
 21
-5.0
 31
0.0
  0
LINE
  5
193
  8
DIM
 62
     0
 10
0.0
 20
0.0
 30
0.0
 11
5.0
 21
0.0
 31
0.0
  0
LINE
  5
194
  8
DIM
 62
     0
 10
0.0
 20
5.0
 30
0.0
 11
0.0
 21
6.25
 31
0.0
  0
LINE
  5
195
  8
DIM
 62
     0
 10
-5.0
 20
0.0
 30
0.0
 11
-6.25
 21
0.0
 31
0.0
  0
LINE
  5
196
  8
DIM
 62
     0
 10
0.0
 20
-5.0
 30
0.0
 11
0.0
 21
-6.25
 31
0.0
  0
LINE
  5
197
  8
DIM
 62
     0
 10
5.0
 20
0.0
 30
0.0
 11
6.25
 21
0.0
 31
0.0
  0
ENDBLK
  5
18F
  8
0
  0
BLOCK
  8
0
  2
SW_CENTERMARKSYMBOL_3
 70
     0
 10
0.0
 20
0.0
 30
0.0
  3
SW_CENTERMARKSYMBOL_3
  1

  0
LINE
  5
19C
  8
DIM
 62
     0
 10
0.0
 20
0.0
 30
0.0
 11
0.0
 21
5.0
 31
0.0
  0
LINE
  5
19D
  8
DIM
 62
     0
 10
0.0
 20
0.0
 30
0.0
 11
-5.0
 21
0.0
 31
0.0
  0
LINE
  5
19E
  8
DIM
 62
     0
 10
0.0
 20
0.0
 30
0.0
 11
0.0
 21
-5.0
 31
0.0
  0
LINE
  5
19F
  8
DIM
 62
     0
 10
0.0
 20
0.0
 30
0.0
 11
5.0
 21
0.0
 31
0.0
  0
LINE
  5
1A0
  8
DIM
 62
     0
 10
0.0
 20
5.0
 30
0.0
 11
0.0
 21
6.25
 31
0.0
  0
LINE
  5
1A1
  8
DIM
 62
     0
 10
-5.0
 20
0.0
 30
0.0
 11
-6.25
 21
0.0
 31
0.0
  0
LINE
  5
1A2
  8
DIM
 62
     0
 10
0.0
 20
-5.0
 30
0.0
 11
0.0
 21
-6.25
 31
0.0
  0
LINE
  5
1A3
  8
DIM
 62
     0
 10
5.0
 20
0.0
 30
0.0
 11
6.25
 21
0.0
 31
0.0
  0
ENDBLK
  5
19B
  8
0
  0
BLOCK
  8
0
  2
SW_CENTERMARKSYMBOL_4
 70
     0
 10
0.0
 20
0.0
 30
0.0
  3
SW_CENTERMARKSYMBOL_4
  1

  0
LINE
  5
1A8
  8
DIM
 62
     0
 10
0.0
 20
0.0
 30
0.0
 11
0.0
 21
5.0
 31
0.0
  0
LINE
  5
1A9
  8
DIM
 62
     0
 10
0.0
 20
0.0
 30
0.0
 11
-5.0
 21
0.0
 31
0.0
  0
LINE
  5
1AA
  8
DIM
 62
     0
 10
0.0
 20
0.0
 30
0.0
 11
0.0
 21
-5.0
 31
0.0
  0
LINE
  5
1AB
  8
DIM
 62
     0
 10
0.0
 20
0.0
 30
0.0
 11
5.0
 21
0.0
 31
0.0
  0
LINE
  5
1AC
  8
DIM
 62
     0
 10
0.0
 20
5.0
 30
0.0
 11
0.0
 21
6.25
 31
0.0
  0
LINE
  5
1AD
  8
DIM
 62
     0
 10
-5.0
 20
0.0
 30
0.0
 11
-6.25
 21
0.0
 31
0.0
  0
LINE
  5
1AE
  8
DIM
 62
     0
 10
0.0
 20
-5.0
 30
0.0
 11
0.0
 21
-6.25
 31
0.0
  0
LINE
  5
1AF
  8
DIM
 62
     0
 10
5.0
 20
0.0
 30
0.0
 11
6.25
 21
0.0
 31
0.0
  0
ENDBLK
  5
1A7
  8
0
  0
BLOCK
  8
0
  2
SW_CENTERMARKSYMBOL_5
 70
     0
 10
0.0
 20
0.0
 30
0.0
  3
SW_CENTERMARKSYMBOL_5
  1

  0
LINE
  5
1B4
  8
DIM
 62
     0
 10
0.0
 20
0.0
 30
0.0
 11
0.0
 21
5.0
 31
0.0
  0
LINE
  5
1B5
  8
DIM
 62
     0
 10
0.0
 20
0.0
 30
0.0
 11
-5.0
 21
0.0
 31
0.0
  0
LINE
  5
1B6
  8
DIM
 62
     0
 10
0.0
 20
0.0
 30
0.0
 11
0.0
 21
-5.0
 31
0.0
  0
LINE
  5
1B7
  8
DIM
 62
     0
 10
0.0
 20
0.0
 30
0.0
 11
5.0
 21
0.0
 31
0.0
  0
LINE
  5
1B8
  8
DIM
 62
     0
 10
0.0
 20
5.0
 30
0.0
 11
0.0
 21
6.25
 31
0.0
  0
LINE
  5
1B9
  8
DIM
 62
     0
 10
-5.0
 20
0.0
 30
0.0
 11
-6.25
 21
0.0
 31
0.0
  0
LINE
  5
1BA
  8
DIM
 62
     0
 10
0.0
 20
-5.0
 30
0.0
 11
0.0
 21
-6.25
 31
0.0
  0
LINE
  5
1BB
  8
DIM
 62
     0
 10
5.0
 20
0.0
 30
0.0
 11
6.25
 21
0.0
 31
0.0
  0
ENDBLK
  5
1B3
  8
0
  0
BLOCK
  8
0
  2
SW_CENTERMARKSYMBOL_6
 70
     0
 10
0.0
 20
0.0
 30
0.0
  3
SW_CENTERMARKSYMBOL_6
  1

  0
LINE
  5
1C0
  8
DIM
 62
     0
 10
0.0
 20
0.0
 30
0.0
 11
0.0
 21
5.0
 31
0.0
  0
LINE
  5
1C1
  8
DIM
 62
     0
 10
0.0
 20
0.0
 30
0.0
 11
-5.0
 21
0.0
 31
0.0
  0
LINE
  5
1C2
  8
DIM
 62
     0
 10
0.0
 20
0.0
 30
0.0
 11
0.0
 21
-5.0
 31
0.0
  0
LINE
  5
1C3
  8
DIM
 62
     0
 10
0.0
 20
0.0
 30
0.0
 11
5.0
 21
0.0
 31
0.0
  0
LINE
  5
1C4
  8
DIM
 62
     0
 10
0.0
 20
5.0
 30
0.0
 11
0.0
 21
6.25
 31
0.0
  0
LINE
  5
1C5
  8
DIM
 62
     0
 10
-5.0
 20
0.0
 30
0.0
 11
-6.25
 21
0.0
 31
0.0
  0
LINE
  5
1C6
  8
DIM
 62
     0
 10
0.0
 20
-5.0
 30
0.0
 11
0.0
 21
-6.25
 31
0.0
  0
LINE
  5
1C7
  8
DIM
 62
     0
 10
5.0
 20
0.0
 30
0.0
 11
6.25
 21
0.0
 31
0.0
  0
ENDBLK
  5
1BF
  8
0
  0
BLOCK
  8
0
  2
SW_CENTERMARKSYMBOL_7
 70
     0
 10
0.0
 20
0.0
 30
0.0
  3
SW_CENTERMARKSYMBOL_7
  1

  0
LINE
  5
1CC
  8
DIM
 62
     0
 10
0.0
 20
0.0
 30
0.0
 11
0.0
 21
5.0
 31
0.0
  0
LINE
  5
1CD
  8
DIM
 62
     0
 10
0.0
 20
0.0
 30
0.0
 11
-5.0
 21
0.0
 31
0.0
  0
LINE
  5
1CE
  8
DIM
 62
     0
 10
0.0
 20
0.0
 30
0.0
 11
0.0
 21
-5.0
 31
0.0
  0
LINE
  5
1CF
  8
DIM
 62
     0
 10
0.0
 20
0.0
 30
0.0
 11
5.0
 21
0.0
 31
0.0
  0
LINE
  5
1D0
  8
DIM
 62
     0
 10
0.0
 20
5.0
 30
0.0
 11
0.0
 21
6.25
 31
0.0
  0
LINE
  5
1D1
  8
DIM
 62
     0
 10
-5.0
 20
0.0
 30
0.0
 11
-6.25
 21
0.0
 31
0.0
  0
LINE
  5
1D2
  8
DIM
 62
     0
 10
0.0
 20
-5.0
 30
0.0
 11
0.0
 21
-6.25
 31
0.0
  0
LINE
  5
1D3
  8
DIM
 62
     0
 10
5.0
 20
0.0
 30
0.0
 11
6.25
 21
0.0
 31
0.0
  0
ENDBLK
  5
1CB
  8
0
  0
BLOCK
  8
0
  2
SW_CENTERMARKSYMBOL_8
 70
     0
 10
0.0
 20
0.0
 30
0.0
  3
SW_CENTERMARKSYMBOL_8
  1

  0
LINE
  5
1D8
  8
DIM
 62
     0
 10
0.0
 20
0.0
 30
0.0
 11
0.0
 21
5.0
 31
0.0
  0
LINE
  5
1D9
  8
DIM
 62
     0
 10
0.0
 20
0.0
 30
0.0
 11
-5.0
 21
0.0
 31
0.0
  0
LINE
  5
1DA
  8
DIM
 62
     0
 10
0.0
 20
0.0
 30
0.0
 11
0.0
 21
-5.0
 31
0.0
  0
LINE
  5
1DB
  8
DIM
 62
     0
 10
0.0
 20
0.0
 30
0.0
 11
5.0
 21
0.0
 31
0.0
  0
LINE
  5
1DC
  8
DIM
 62
     0
 10
0.0
 20
5.0
 30
0.0
 11
0.0
 21
6.25
 31
0.0
  0
LINE
  5
1DD
  8
DIM
 62
     0
 10
-5.0
 20
0.0
 30
0.0
 11
-6.25
 21
0.0
 31
0.0
  0
LINE
  5
1DE
  8
DIM
 62
     0
 10
0.0
 20
-5.0
 30
0.0
 11
0.0
 21
-6.25
 31
0.0
  0
LINE
  5
1DF
  8
DIM
 62
     0
 10
5.0
 20
0.0
 30
0.0
 11
6.25
 21
0.0
 31
0.0
  0
ENDBLK
  5
1D7
  8
0
  0
BLOCK
  8
0
  2
SW_CENTERMARKSYMBOL_9
 70
     0
 10
0.0
 20
0.0
 30
0.0
  3
SW_CENTERMARKSYMBOL_9
  1

  0
ARC
  5
1E4
  8
DIM
 62
     0
 10
0.0
 20
-21.5
 30
0.0
 40
21.49999999999999
 50
90.0
 51
103.3245998868
  0
ARC
  5
1E5
  8
DIM
 62
     0
 10
0.0
 20
-21.5
 30
0.0
 40
21.49999999999999
 50
76.6754001132
 51
90.0
  0
ARC
  5
1E6
  8
DIM
 62
     0
 10
0.0
 20
-21.5
 30
0.0
 40
21.50000000000001
 50
30.0
 51
43.3245998868
  0
ARC
  5
1E7
  8
DIM
 62
     0
 10
0.0
 20
-21.5
 30
0.0
 40
21.50000000000001
 50
16.6754001132
 51
30.0
  0
ARC
  5
1E8
  8
DIM
 62
     0
 10
0.0
 20
-21.5
 30
0.0
 40
21.50000000000001
 50
330.0
 51
343.3245998868
  0
ARC
  5
1E9
  8
DIM
 62
     0
 10
0.0
 20
-21.5
 30
0.0
 40
21.50000000000001
 50
316.6754001132
 51
330.0
  0
ARC
  5
1EA
  8
DIM
 62
     0
 10
0.0
 20
-21.5
 30
0.0
 40
21.49999999999999
 50
270.0
 51
283.3245998868
  0
ARC
  5
1EB
  8
DIM
 62
     0
 10
0.0
 20
-21.5
 30
0.0
 40
21.49999999999999
 50
256.6754001132
 51
270.0
  0
ARC
  5
1EC
  8
DIM
 62
     0
 10
0.0
 20
-21.5
 30
0.0
 40
21.5
 50
210.0
 51
223.3245998868
  0
ARC
  5
1ED
  8
DIM
 62
     0
 10
0.0
 20
-21.5
 30
0.0
 40
21.5
 50
196.6754001132
 51
210.0
  0
ARC
  5
1EE
  8
DIM
 62
     0
 10
0.0
 20
-21.5
 30
0.0
 40
21.50000000000001
 50
150.0
 51
163.3245998868
  0
ARC
  5
1EF
  8
DIM
 62
     0
 10
0.0
 20
-21.5
 30
0.0
 40
21.50000000000001
 50
136.6754001132
 51
150.0
  0
ARC
  5
1F0
  8
DIM
 62
     0
 10
0.0
 20
-21.5
 30
0.0
 40
21.50000000000001
 50
56.6491997735
 51
63.3508002265
  0
ARC
  5
1F1
  8
DIM
 62
     0
 10
0.0
 20
-21.5
 30
0.0
 40
21.50000000000001
 50
356.6491997735
 51
3.3508002265
  0
ARC
  5
1F2
  8
DIM
 62
     0
 10
0.0
 20
-21.5
 30
0.0
 40
21.50000000000001
 50
296.6491997735
 51
303.3508002265
  0
ARC
  5
1F3
  8
DIM
 62
     0
 10
0.0
 20
-21.5
 30
0.0
 40
21.50000000000001
 50
236.6491997735
 51
243.3508002265
  0
ARC
  5
1F4
  8
DIM
 62
     0
 10
0.0
 20
-21.5
 30
0.0
 40
21.50000000000001
 50
116.6491997735
 51
123.3508002265
  0
ARC
  5
1F5
  8
DIM
 62
     0
 10
0.0
 20
-21.5
 30
0.0
 40
21.5
 50
176.6491997735
 51
183.3508002265
  0
LINE
  5
1F6
  8
DIM
 62
     0
 10
0.0
 20
0.0
 30
0.0
 11
0.0
 21
5.0
 31
0.0
  0
LINE
  5
1F7
  8
DIM
 62
     0
 10
0.0
 20
0.0
 30
0.0
 11
0.0
 21
-5.0
 31
0.0
  0
LINE
  5
1F8
  8
DIM
 62
     0
 10
0.0
 20
5.0
 30
0.0
 11
0.0
 21
8.25
 31
0.0
  0
LINE
  5
1F9
  8
DIM
 62
     0
 10
0.0
 20
-5.0
 30
0.0
 11
0.0
 21
-8.25
 31
0.0
  0
LINE
  5
1FA
  8
DIM
 62
     0
 10
18.6195461814
 20
-10.75
 30
0.0
 11
22.9496732003
 21
-8.25
 31
0.0
  0
LINE
  5
1FB
  8
DIM
 62
     0
 10
18.6195461814
 20
-10.75
 30
0.0
 11
14.2894191624
 21
-13.25
 31
0.0
  0
LINE
  5
1FC
  8
DIM
 62
     0
 10
22.9496732003
 20
-8.25
 30
0.0
 11
25.7642557626
 21
-6.625
 31
0.0
  0
LINE
  5
1FD
  8
DIM
 62
     0
 10
14.2894191624
 20
-13.25
 30
0.0
 11
11.4748366001
 21
-14.875
 31
0.0
  0
LINE
  5
1FE
  8
DIM
 62
     0
 10
18.6195461814
 20
-32.25
 30
0.0
 11
22.9496732003
 21
-34.75
 31
0.0
  0
LINE
  5
1FF
  8
DIM
 62
     0
 10
18.6195461814
 20
-32.25
 30
0.0
 11
14.2894191624
 21
-29.75
 31
0.0
  0
LINE
  5
200
  8
DIM
 62
     0
 10
22.9496732003
 20
-34.75
 30
0.0
 11
25.7642557626
 21
-36.375
 31
0.0
  0
LINE
  5
201
  8
DIM
 62
     0
 10
14.2894191624
 20
-29.75
 30
0.0
 11
11.4748366001
 21
-28.125
 31
0.0
  0
LINE
  5
202
  8
DIM
 62
     0
 10
0.0
 20
-21.5
 30
0.0
 11
0.0
 21
-16.5
 31
0.0
  0
LINE
  5
203
  8
DIM
 62
     0
 10
0.0
 20
-21.5
 30
0.0
 11
-5.0
 21
-21.5
 31
0.0
  0
LINE
  5
204
  8
DIM
 62
     0
 10
0.0
 20
-21.5
 30
0.0
 11
0.0
 21
-26.5
 31
0.0
  0
LINE
  5
205
  8
DIM
 62
     0
 10
0.0
 20
-21.5
 30
0.0
 11
5.0
 21
-21.5
 31
0.0
  0
LINE
  5
206
  8
DIM
 62
     0
 10
0.0
 20
-11.5
 30
0.0
 11
0.0
 21
2.1195461814
 31
0.0
  0
LINE
  5
207
  8
DIM
 62
     0
 10
-10.0
 20
-21.5
 30
0.0
 11
-23.6195461814
 21
-21.5
 31
0.0
  0
LINE
  5
208
  8
DIM
 62
     0
 10
0.0
 20
-31.5
 30
0.0
 11
0.0
 21
-45.1195461814
 31
0.0
  0
LINE
  5
209
  8
DIM
 62
     0
 10
10.0
 20
-21.5
 30
0.0
 11
23.6195461814
 21
-21.5
 31
0.0
  0
LINE
  5
20A
  8
DIM
 62
     0
 10
0.0
 20
-43.0
 30
0.0
 11
0.0
 21
-48.0
 31
0.0
  0
LINE
  5
20B
  8
DIM
 62
     0
 10
0.0
 20
-43.0
 30
0.0
 11
0.0
 21
-38.0
 31
0.0
  0
LINE
  5
20C
  8
DIM
 62
     0
 10
0.0
 20
-48.0
 30
0.0
 11
0.0
 21
-51.25
 31
0.0
  0
LINE
  5
20D
  8
DIM
 62
     0
 10
0.0
 20
-38.0
 30
0.0
 11
0.0
 21
-34.75
 31
0.0
  0
LINE
  5
20E
  8
DIM
 62
     0
 10
-18.6195461814
 20
-32.25
 30
0.0
 11
-22.9496732003
 21
-34.75
 31
0.0
  0
LINE
  5
20F
  8
DIM
 62
     0
 10
-18.6195461814
 20
-32.25
 30
0.0
 11
-14.2894191624
 21
-29.75
 31
0.0
  0
LINE
  5
210
  8
DIM
 62
     0
 10
-22.9496732003
 20
-34.75
 30
0.0
 11
-25.7642557626
 21
-36.375
 31
0.0
  0
LINE
  5
211
  8
DIM
 62
     0
 10
-14.2894191624
 20
-29.75
 30
0.0
 11
-11.4748366001
 21
-28.125
 31
0.0
  0
LINE
  5
212
  8
DIM
 62
     0
 10
-18.6195461814
 20
-10.75
 30
0.0
 11
-22.9496732003
 21
-8.25
 31
0.0
  0
LINE
  5
213
  8
DIM
 62
     0
 10
-18.6195461814
 20
-10.75
 30
0.0
 11
-14.2894191624
 21
-13.25
 31
0.0
  0
LINE
  5
214
  8
DIM
 62
     0
 10
-22.9496732003
 20
-8.25
 30
0.0
 11
-25.7642557626
 21
-6.625
 31
0.0
  0
LINE
  5
215
  8
DIM
 62
     0
 10
-14.2894191624
 20
-13.25
 30
0.0
 11
-11.4748366001
 21
-14.875
 31
0.0
  0
ENDBLK
  5
1E3
  8
0
  0
BLOCK
  8
0
  2
_D_15
 70
     0
 10
0.0
 20
0.0
 30
0.0
  3
_D_15
  1

  0
INSERT
  5
270
  8
DIM
  2
_OPEN30
 10
272.2561567636
 20
231.5718295124
 30
-32.5
 41
3.0
 42
3.0
 50
0.0
  0
INSERT
  5
271
  8
DIM
  2
_OPEN30
 10
280.2561567636
 20
231.5718295124
 30
-32.5
 41
3.0
 42
3.0
 50
180.0
  0
LINE
  5
272
  8
DIM
 10
272.2561567636
 20
222.7121713837
 30
0.0
 11
272.2561567636
 21
232.5718295124
 31
0.0
  0
LINE
  5
273
  8
DIM
 10
280.2561567636
 20
222.7121713837
 30
0.0
 11
280.2561567636
 21
232.5718295124
 31
0.0
  0
LINE
  5
274
  8
DIM
 10
272.2561567636
 20
231.5718295124
 30
0.0
 11
265.9061567636
 21
231.5718295124
 31
0.0
  0
LINE
  5
275
  8
DIM
 10
272.2561567636
 20
231.5718295124
 30
0.0
 11
280.2561567636
 21
231.5718295124
 31
0.0
  0
LINE
  5
276
  8
DIM
 10
280.2561567636
 20
231.5718295124
 30
0.0
 11
286.6061567636
 21
231.5718295124
 31
0.0
  0
TEXT
  5
277
  8
DIM
 10
275.2377540149
 20
232.8082394963
 30
-32.5
 40
3.5
  1
8
 50
360.0
 41
0.7
 11
275.2377540149
 21
231.5718292796
 31
-32.5
 73
     1
  0
ENDBLK
  5
26F
  8
0
  0
BLOCK
  8
0
  2
_D_16
 70
     0
 10
0.0
 20
0.0
 30
0.0
  3
_D_16
  1

  0
ARC
  5
2FA
  8
DIM
 10
93.9467359208
 20
118.3651761027
 30
0.0
 40
6.37621018554247
 50
153.4349488229
 51
206.5650511771
  0
ARC
  5
2FB
  8
DIM
 10
91.0952078052
 20
118.3651761027
 30
0.0
 40
6.37621018554247
 50
333.4349488229
 51
26.5650511771
  0
INSERT
  5
2FC
  8
DIM
  2
_OPEN30
 10
101.9939930364
 20
115.3415649539
 30
15.0
 41
3.0
 42
3.0
 50
0.0
  0
INSERT
  5
2FD
  8
DIM
  2
_OPEN30
 10
105.9939930364
 20
115.3415649539
 30
15.0
 41
3.0
 42
3.0
 50
180.0
  0
LINE
  5
2FE
  8
DIM
 10
101.9939930364
 20
130.2009702309
 30
0.0
 11
101.9939930364
 21
114.3415649539
 31
0.0
  0
LINE
  5
2FF
  8
DIM
 10
105.9939930364
 20
130.2009702309
 30
0.0
 11
105.9939930364
 21
114.3415649539
 31
0.0
  0
LINE
  5
300
  8
DIM
 10
101.9939930364
 20
115.3415649539
 30
0.0
 11
73.5165681913
 21
115.3415649539
 31
0.0
  0
LINE
  5
301
  8
DIM
 10
101.9939930364
 20
115.3415649539
 30
0.0
 11
105.9939930364
 21
115.3415649539
 31
0.0
  0
LINE
  5
302
  8
DIM
 10
105.9939930364
 20
115.3415649539
 30
0.0
 11
112.3439930364
 21
115.3415649539
 31
0.0
  0
TEXT
  5
303
  8
DIM
 10
73.5165681913
 20
116.5779754034
 30
15.0
 40
3.5
  1
%%c
 41
0.7
 11
73.5165681913
 21
115.3415651867
 31
15.0
 73
     1
  0
TEXT
  5
304
  8
DIM
 10
77.3864987064
 20
116.5779754034
 30
15.0
 40
3.5
  1
4
 41
0.7
 11
77.3864987064
 21
115.3415651867
 31
15.0
 73
     1
  0
TEXT
  5
305
  8
DIM
 10
79.4233042038
 20
116.5779754034
 30
15.0
 40
3.5
  1
 H8 
 41
0.525
 11
79.4233042038
 21
115.3415651867
 31
15.0
 73
     1
  0
TEXT
  5
306
  8
DIM
 10
88.2436801553
 20
119.2306633417
 30
15.0
 40
2.45
  1
+
 41
0.7
 11
88.2436801553
 21
118.36517619
 31
15.0
 73
     1
  0
TEXT
  5
307
  8
DIM
 10
88.2436801553
 20
116.379135459
 30
15.0
 40
2.45
  1
 
 41
0.7
 11
88.2436801553
 21
115.5136483073
 31
15.0
 73
     1
  0
TEXT
  5
308
  8
DIM
 10
89.6694440967
 20
119.2306633417
 30
15.0
 40
2.45
  1
0.018
 41
0.7
 11
89.6694440967
 21
118.36517619
 31
15.0
 73
     1
  0
TEXT
  5
309
  8
DIM
 10
89.6694440967
 20
116.379135459
 30
15.0
 40
2.45
  1
0
 41
0.7
 11
89.6694440967
 21
115.5136483073
 31
15.0
 73
     1
  0
ENDBLK
  5
2F9
  8
0
  0
BLOCK
  8
0
  2
_D_17
 70
     0
 10
0.0
 20
0.0
 30
0.0
  3
_D_17
  1

  0
INSERT
  5
30E
  8
DIM
  2
_OPEN30
 10
85.4939930364
 20
129.7109702309
 30
15.0
 41
3.0
 42
3.0
 50
90.0
  0
INSERT
  5
30F
  8
DIM
  2
_OPEN30
 10
85.4939930364
 20
133.7109702309
 30
15.0
 41
3.0
 42
3.0
 50
270.0
  0
LINE
  5
310
  8
DIM
 10
95.9839930364
 20
129.7109702309
 30
0.0
 11
84.4939930364
 21
129.7109702309
 31
0.0
  0
LINE
  5
311
  8
DIM
 10
101.9839930364
 20
133.7109702309
 30
0.0
 11
84.4939930364
 21
133.7109702309
 31
0.0
  0
LINE
  5
312
  8
DIM
 10
85.4939930364
 20
129.7109702309
 30
0.0
 11
85.4939930364
 21
123.3609702309
 31
0.0
  0
LINE
  5
313
  8
DIM
 10
85.4939930364
 20
129.7109702309
 30
0.0
 11
85.4939930364
 21
133.7109702309
 31
0.0
  0
LINE
  5
314
  8
DIM
 10
85.4939930364
 20
133.7109702309
 30
0.0
 11
85.4939930364
 21
140.0609702309
 31
0.0
  0
TEXT
  5
315
  8
DIM
 10
84.2575830525
 20
130.6925674822
 30
15.0
 40
3.5
  1
4
 50
90.0
 41
0.7
 11
85.4939932692
 21
130.6925674822
 31
15.0
 73
     1
  0
ENDBLK
  5
30D
  8
0
  0
BLOCK
  8
0
  2
_D_18
 70
     0
 10
0.0
 20
0.0
 30
0.0
  3
_D_18
  1

  0
INSERT
  5
31A
  8
DIM
  2
_OPEN30
 10
138.9416369019
 20
129.7109702309
 30
15.0
 41
3.0
 42
3.0
 50
90.0
  0
INSERT
  5
31B
  8
DIM
  2
_OPEN30
 10
138.9416369019
 20
133.7109702309
 30
15.0
 41
3.0
 42
3.0
 50
270.0
  0
LINE
  5
31C
  8
DIM
 10
143.9839930364
 20
133.7109702309
 30
0.0
 11
137.9416369019
 21
133.7109702309
 31
0.0
  0
LINE
  5
31D
  8
DIM
 10
138.9416369019
 20
129.7109702309
 30
0.0
 11
138.9416369019
 21
122.2535980159
 31
0.0
  0
LINE
  5
31E
  8
DIM
 10
138.9416369019
 20
129.7109702309
 30
0.0
 11
138.9416369019
 21
133.7109702309
 31
0.0
  0
LINE
  5
31F
  8
DIM
 10
138.9416369019
 20
133.7109702309
 30
0.0
 11
138.9416369019
 21
140.0609702309
 31
0.0
  0
TEXT
  5
320
  8
DIM
 10
137.705226918
 20
122.2535980159
 30
15.0
 40
3.5
  1
4
 50
90.0
 41
0.7
 11
138.9416371347
 21
122.2535980159
 31
15.0
 73
     1
  0
ENDBLK
  5
319
  8
0
  0
BLOCK
  8
0
  2
_D_19
 70
     0
 10
0.0
 20
0.0
 30
0.0
  3
_D_19
  1

  0
INSERT
  5
325
  8
DIM
  2
_OPEN30
 10
230.4939930364
 20
131.7109702309
 30
15.0
 41
3.0
 42
3.0
 50
270.0
  0
INSERT
  5
326
  8
DIM
  2
_OPEN30
 10
230.4939930364
 20
129.7109702309
 30
15.0
 41
3.0
 42
3.0
 50
90.0
  0
LINE
  5
327
  8
DIM
 10
220.0039930364
 20
131.7109702309
 30
0.0
 11
231.4939930364
 21
131.7109702309
 31
0.0
  0
LINE
  5
328
  8
DIM
 10
194.0039930364
 20
129.7109702309
 30
0.0
 11
231.4939930364
 21
129.7109702309
 31
0.0
  0
LINE
  5
329
  8
DIM
 10
230.4939930364
 20
131.7109702309
 30
0.0
 11
230.4939930364
 21
138.0609702309
 31
0.0
  0
LINE
  5
32A
  8
DIM
 10
230.4939930364
 20
131.7109702309
 30
0.0
 11
230.4939930364
 21
129.7109702309
 31
0.0
  0
LINE
  5
32B
  8
DIM
 10
230.4939930364
 20
129.7109702309
 30
0.0
 11
230.4939930364
 21
123.3609702309
 31
0.0
  0
TEXT
  5
32C
  8
DIM
 10
229.2575830525
 20
129.6925674822
 30
15.0
 40
3.5
  1
2
 50
90.0
 41
0.7
 11
230.4939932692
 21
129.6925674822
 31
15.0
 73
     1
  0
ENDBLK
  5
324
  8
0
  0
BLOCK
  8
0
  2
_D_20
 70
     0
 10
0.0
 20
0.0
 30
0.0
  3
_D_20
  1

  0
INSERT
  5
395
  8
DIM
  2
_OPEN30
 10
143.9939930364
 20
102.0349399453
 30
0.0
 41
3.0
 42
3.0
 50
0.0
  0
INSERT
  5
396
  8
DIM
  2
_OPEN30
 10
149.9939930364
 20
102.0349399453
 30
0.0
 41
3.0
 42
3.0
 50
180.0
  0
LINE
  5
397
  8
DIM
 10
143.9939930364
 20
68.2820997026
 30
0.0
 11
143.9939930364
 21
103.0349399453
 31
0.0
  0
LINE
  5
398
  8
DIM
 10
149.9939930364
 20
68.2820997026
 30
0.0
 11
149.9939930364
 21
103.0349399453
 31
0.0
  0
LINE
  5
399
  8
DIM
 10
143.9939930364
 20
102.0349399453
 30
0.0
 11
137.575767174
 21
102.0349399453
 31
0.0
  0
LINE
  5
39A
  8
DIM
 10
143.9939930364
 20
102.0349399453
 30
0.0
 11
149.9939930364
 21
102.0349399453
 31
0.0
  0
LINE
  5
39B
  8
DIM
 10
149.9939930364
 20
102.0349399453
 30
0.0
 11
156.3439930364
 21
102.0349399453
 31
0.0
  0
TEXT
  5
39C
  8
DIM
 10
137.575767174
 20
103.2713499292
 30
0.0
 40
3.5
  1
6
 50
0.0
 41
0.7
 11
137.575767174
 21
102.0349397124
 31
0.0
 73
     1
  0
ENDBLK
  5
394
  8
0
  0
BLOCK
  8
0
  2
_D_21
 70
     0
 10
0.0
 20
0.0
 30
0.0
  3
_D_21
  1

  0
INSERT
  5
3A1
  8
DIM
  2
_OPEN30
 10
103.9939930364
 20
108.1484821234
 30
0.0
 41
3.0
 42
3.0
 50
180.0
  0
INSERT
  5
3A2
  8
DIM
  2
_OPEN30
 10
146.9939930364
 20
108.1484821234
 30
0.0
 41
3.0
 42
3.0
 50
0.0
  0
LINE
  5
3A3
  8
DIM
 10
103.9939930364
 20
75.2820997026
 30
0.0
 11
103.9939930364
 21
109.1484821234
 31
0.0
  0
LINE
  5
3A4
  8
DIM
 10
146.9939930364
 20
74.6472536027
 30
0.0
 11
146.9939930364
 21
109.1484821234
 31
0.0
  0
LINE
  5
3A5
  8
DIM
 10
103.9939930364
 20
108.1484821234
 30
0.0
 11
146.9939930364
 21
108.1484821234
 31
0.0
  0
TEXT
  5
3A6
  8
DIM
 10
123.4571875389
 20
109.3848921073
 30
0.0
 40
3.5
  1
43
 41
0.7
 11
123.4571875389
 21
108.1484818905
 31
0.0
 73
     1
  0
ENDBLK
  5
3A0
  8
0
  0
BLOCK
  8
0
  2
_D_22
 70
     0
 10
0.0
 20
0.0
 30
0.0
  3
_D_22
  1

  0
ARC
  5
3AB
  8
DIM
 10
158.1015864804
 20
117.2828155168
 30
0.0
 40
6.376210185542482
 50
243.4349488229
 51
296.5650511771
  0
ARC
  5
3AC
  8
DIM
 10
158.1015864804
 20
114.4312874012
 30
0.0
 40
6.37621018554247
 50
63.4349488229
 51
116.5650511771
  0
INSERT
  5
3AD
  8
DIM
  2
_OPEN30
 10
161.1251971636
 20
70.2720997026
 30
4.0
 41
3.0
 42
3.0
 50
270.0
  0
INSERT
  5
3AE
  8
DIM
  2
_OPEN30
 10
161.1251971636
 20
66.2720997026
 30
4.0
 41
3.0
 42
3.0
 50
90.0
  0
LINE
  5
3AF
  8
DIM
 10
148.0039930364
 20
70.2720997026
 30
0.0
 11
162.1251971636
 21
70.2720997026
 31
0.0
  0
LINE
  5
3B0
  8
DIM
 10
148.0039930364
 20
66.2720997026
 30
0.0
 11
162.1251971636
 21
66.2720997026
 31
0.0
  0
LINE
  5
3B1
  8
DIM
 10
161.1251971636
 20
70.2720997026
 30
0.0
 11
161.1251971636
 21
120.8074974774
 31
0.0
  0
LINE
  5
3B2
  8
DIM
 10
161.1251971636
 20
70.2720997026
 30
0.0
 11
161.1251971636
 21
66.2720997026
 31
0.0
  0
LINE
  5
3B3
  8
DIM
 10
161.1251971636
 20
66.2720997026
 30
0.0
 11
161.1251971636
 21
59.9220997026
 31
0.0
  0
TEXT
  5
3B4
  8
DIM
 10
159.8887871797
 20
100.7225780695
 30
4.0
 40
3.5
  1
4
 50
90.0
 41
0.7
 11
161.1251973964
 21
100.7225780695
 31
4.0
 73
     1
  0
TEXT
  5
3B5
  8
DIM
 10
159.8887871797
 20
102.759383567
 30
4.0
 40
3.5
  1
 H8 
 50
90.0
 41
0.525
 11
161.1251973964
 21
102.759383567
 31
4.0
 73
     1
  0
TEXT
  5
3B6
  8
DIM
 10
157.2360992414
 20
111.5797597513
 30
4.0
 40
2.45
  1
+
 50
90.0
 41
0.7
 11
158.1015863931
 21
111.5797597513
 31
4.0
 73
     1
  0
TEXT
  5
3B7
  8
DIM
 10
160.0876271242
 20
111.5797597513
 30
4.0
 40
2.45
  1
 
 50
90.0
 41
0.7
 11
160.9531142759
 21
111.5797597513
 31
4.0
 73
     1
  0
TEXT
  5
3B8
  8
DIM
 10
157.2360992414
 20
113.0055236926
 30
4.0
 40
2.45
  1
0.018
 50
90.0
 41
0.7
 11
158.1015863931
 21
113.0055236926
 31
4.0
 73
     1
  0
TEXT
  5
3B9
  8
DIM
 10
160.0876271242
 20
113.0055236926
 30
4.0
 40
2.45
  1
0
 50
90.0
 41
0.7
 11
160.9531142759
 21
113.0055236926
 31
4.0
 73
     1
  0
ENDBLK
  5
3AA
  8
0
  0
BLOCK
  8
0
  2
_D_23
 70
     0
 10
0.0
 20
0.0
 30
0.0
  3
_D_23
  1

  0
INSERT
  5
3BE
  8
DIM
  2
_OPEN30
 10
241.7043702391
 20
83.2720997026
 30
4.0
 41
3.0
 42
3.0
 50
90.0
  0
INSERT
  5
3BF
  8
DIM
  2
_OPEN30
 10
241.7043702391
 20
53.2720997026
 30
4.0
 41
3.0
 42
3.0
 50
270.0
  0
LINE
  5
3C0
  8
DIM
 10
220.0039930364
 20
83.2720997026
 30
0.0
 11
242.7043702391
 21
83.2720997026
 31
0.0
  0
LINE
  5
3C1
  8
DIM
 10
220.0039930364
 20
53.2720997026
 30
0.0
 11
242.7043702391
 21
53.2720997026
 31
0.0
  0
LINE
  5
3C2
  8
DIM
 10
241.7043702391
 20
83.2720997026
 30
0.0
 11
241.7043702391
 21
53.2720997026
 31
0.0
  0
TEXT
  5
3C3
  8
DIM
 10
240.4679602552
 20
66.2352942051
 30
4.0
 40
3.5
  1
30
 50
90.0
 41
0.7
 11
241.704370472
 21
66.2352942051
 31
4.0
 73
     1
  0
ENDBLK
  5
3BD
  8
0
  0
BLOCK
  8
0
  2
_D_24
 70
     0
 10
0.0
 20
0.0
 30
0.0
  3
_D_24
  1

  0
INSERT
  5
3C8
  8
DIM
  2
_OPEN30
 10
220.4939930364
 20
108.1484821234
 30
4.0
 41
3.0
 42
3.0
 50
0.0
  0
INSERT
  5
3C9
  8
DIM
  2
_OPEN30
 10
190.4939930364
 20
108.1484821234
 30
4.0
 41
3.0
 42
3.0
 50
180.0
  0
LINE
  5
3CA
  8
DIM
 10
220.4939930364
 20
83.7820997026
 30
0.0
 11
220.4939930364
 21
109.1484821234
 31
0.0
  0
LINE
  5
3CB
  8
DIM
 10
190.4939930364
 20
79.7820997026
 30
0.0
 11
190.4939930364
 21
109.1484821234
 31
0.0
  0
LINE
  5
3CC
  8
DIM
 10
220.4939930364
 20
108.1484821234
 30
0.0
 11
190.4939930364
 21
108.1484821234
 31
0.0
  0
TEXT
  5
3CD
  8
DIM
 10
203.4571875389
 20
109.3848921073
 30
4.0
 40
3.5
  1
30
 50
0.0
 41
0.7
 11
203.4571875389
 21
108.1484818905
 31
4.0
 73
     1
  0
ENDBLK
  5
3C7
  8
0
  0
BLOCK
  8
0
  2
_D_25
 70
     0
 10
0.0
 20
0.0
 30
0.0
  3
_D_25
  1

  0
INSERT
  5
3D3
  8
DIM
  2
_OPEN30
 10
194.8205126559
 20
71.132050151
 30
4.0
 41
3.0
 42
3.0
 50
164.9802171574
  0
LINE
  5
3D4
  8
DIM
 10
194.8205126559
 20
71.132050151
 30
0.0
 11
226.8224198922
 21
62.5453210552
 31
0.0
  0
TEXT
  5
3D5
  8
DIM
 10
221.2402170193
 20
65.3210936126
 30
4.0
 40
3.5
  1
R22
 50
345.0
 41
0.7
 11
220.9202105077
 21
64.1268130524
 31
4.0
 73
     1
  0
ENDBLK
  5
3D2
  8
0
  0
BLOCK
  8
0
  2
_D_26
 70
     0
 10
0.0
 20
0.0
 30
0.0
  3
_D_26
  1

  0
INSERT
  5
3DA
  8
DIM
  2
_OPEN30
 10
234.393664894
 20
79.7720997026
 30
4.0
 41
3.0
 42
3.0
 50
90.0
  0
INSERT
  5
3DB
  8
DIM
  2
_OPEN30
 10
234.393664894
 20
56.7720997026
 30
4.0
 41
3.0
 42
3.0
 50
270.0
  0
LINE
  5
3DC
  8
DIM
 10
223.4539930364
 20
79.7720997026
 30
0.0
 11
235.393664894
 21
79.7720997026
 31
0.0
  0
LINE
  5
3DD
  8
DIM
 10
223.4539930364
 20
56.7720997026
 30
0.0
 11
235.393664894
 21
56.7720997026
 31
0.0
  0
LINE
  5
3DE
  8
DIM
 10
234.393664894
 20
79.7720997026
 30
0.0
 11
234.393664894
 21
56.7720997026
 31
0.0
  0
TEXT
  5
3DF
  8
DIM
 10
233.1572549101
 20
66.2352942051
 30
4.0
 40
3.5
  1
23
 50
90.0
 41
0.7
 11
234.3936651269
 21
66.2352942051
 31
4.0
 73
     1
  0
ENDBLK
  5
3D9
  8
0
  0
BLOCK
  8
0
  2
_D_27
 70
     0
 10
0.0
 20
0.0
 30
0.0
  3
_D_27
  1

  0
INSERT
  5
3E4
  8
DIM
  2
_OPEN30
 10
193.9939930364
 20
102.0349399453
 30
4.0
 41
3.0
 42
3.0
 50
180.0
  0
INSERT
  5
3E5
  8
DIM
  2
_OPEN30
 10
216.9939930364
 20
102.0349399453
 30
4.0
 41
3.0
 42
3.0
 50
0.0
  0
LINE
  5
3E6
  8
DIM
 10
193.9939930364
 20
86.2320997026
 30
0.0
 11
193.9939930364
 21
103.0349399453
 31
0.0
  0
LINE
  5
3E7
  8
DIM
 10
216.9939930364
 20
86.2320997026
 30
0.0
 11
216.9939930364
 21
103.0349399453
 31
0.0
  0
LINE
  5
3E8
  8
DIM
 10
193.9939930364
 20
102.0349399453
 30
0.0
 11
216.9939930364
 21
102.0349399453
 31
0.0
  0
TEXT
  5
3E9
  8
DIM
 10
203.4571875389
 20
103.2713499292
 30
4.0
 40
3.5
  1
23
 41
0.7
 11
203.4571875389
 21
102.0349397124
 31
4.0
 73
     1
  0
ENDBLK
  5
3E3
  8
0
  0
BLOCK
  8
0
  2
_D_28
 70
     0
 10
0.0
 20
0.0
 30
0.0
  3
_D_28
  1

  0
INSERT
  5
3EF
  8
DIM
  2
_OPEN30
 10
218.0361684135
 20
80.7802517167
 30
4.0
 41
3.0
 42
3.0
 50
224.0493146541
  0
LINE
  5
3F0
  8
DIM
 10
218.0361684135
 20
80.7802517167
 30
0.0
 11
225.7791861256
 21
88.2704871155
 31
0.0
  0
LINE
  5
3F1
  8
DIM
 10
215.9518176593
 20
78.7639476886
 30
0.0
 11
218.0361684135
 21
80.7802517167
 31
0.0
  0
LINE
  5
3F2
  8
DIM
 10
225.7791861256
 20
88.2704871155
 30
0.0
 11
241.4206436624
 21
88.2704871155
 31
0.0
  0
TEXT
  5
3F3
  8
DIM
 10
227.3666861256
 20
89.5068975651
 30
4.0
 40
3.5
  1
4x
 41
0.7
 11
227.3666861256
 21
88.2704873484
 31
4.0
 73
     1
  0
TEXT
  5
3F4
  8
DIM
 10
231.4402971206
 20
89.5068975651
 30
4.0
 40
3.5
  1
%%c
 41
0.7
 11
231.4402971206
 21
88.2704873484
 31
4.0
 73
     1
  0
TEXT
  5
3F5
  8
DIM
 10
235.3102278685
 20
89.5068975651
 30
4.0
 40
3.5
  1
2.9
 41
0.7
 11
235.3102278685
 21
88.2704873484
 31
4.0
 73
     1
  0
ENDBLK
  5
3EE
  8
0
  0
BLOCK
  8
0
  2
SW_CENTERMARKSYMBOL_10
 70
     0
 10
0.0
 20
0.0
 30
0.0
  3
SW_CENTERMARKSYMBOL_10
  1

  0
LINE
  5
3F9
  8
DIM
 62
     0
 10
0.0
 20
0.0
 30
0.0
 11
0.0
 21
5.0
 31
0.0
  0
LINE
  5
3FA
  8
DIM
 62
     0
 10
0.0
 20
0.0
 30
0.0
 11
-5.0
 21
0.0
 31
0.0
  0
LINE
  5
3FB
  8
DIM
 62
     0
 10
0.0
 20
0.0
 30
0.0
 11
0.0
 21
-5.0
 31
0.0
  0
LINE
  5
3FC
  8
DIM
 62
     0
 10
0.0
 20
0.0
 30
0.0
 11
5.0
 21
0.0
 31
0.0
  0
LINE
  5
3FD
  8
DIM
 62
     0
 10
0.0
 20
10.0
 30
0.0
 11
0.0
 21
33.3534721111
 31
0.0
  0
LINE
  5
3FE
  8
DIM
 62
     0
 10
-10.0
 20
0.0
 30
0.0
 11
-15.0
 21
0.0
 31
0.0
  0
LINE
  5
3FF
  8
DIM
 62
     0
 10
0.0
 20
-10.0
 30
0.0
 11
0.0
 21
-32.342439859
 31
0.0
  0
LINE
  5
400
  8
DIM
 62
     0
 10
10.0
 20
0.0
 30
0.0
 11
49.3056960986
 21
0.0
 31
0.0
  0
ENDBLK
  5
3F8
  8
0
  0
BLOCK
  8
0
  2
SW_CENTERMARKSYMBOL_11
 70
     0
 10
0.0
 20
0.0
 30
0.0
  3
SW_CENTERMARKSYMBOL_11
  1

  0
LINE
  5
405
  8
DIM
 62
     0
 10
0.0
 20
0.0
 30
0.0
 11
0.0
 21
5.0
 31
0.0
  0
LINE
  5
406
  8
DIM
 62
     0
 10
0.0
 20
0.0
 30
0.0
 11
-5.0
 21
0.0
 31
0.0
  0
LINE
  5
407
  8
DIM
 62
     0
 10
0.0
 20
0.0
 30
0.0
 11
0.0
 21
-5.0
 31
0.0
  0
LINE
  5
408
  8
DIM
 62
     0
 10
0.0
 20
0.0
 30
0.0
 11
5.0
 21
0.0
 31
0.0
  0
LINE
  5
409
  8
DIM
 62
     0
 10
0.0
 20
5.0
 30
0.0
 11
0.0
 21
7.0
 31
0.0
  0
LINE
  5
40A
  8
DIM
 62
     0
 10
-5.0
 20
0.0
 30
0.0
 11
-14.3665484638
 21
0.0
 31
0.0
  0
LINE
  5
40B
  8
DIM
 62
     0
 10
0.0
 20
-5.0
 30
0.0
 11
0.0
 21
-7.0
 31
0.0
  0
LINE
  5
40C
  8
DIM
 62
     0
 10
5.0
 20
0.0
 30
0.0
 11
7.0
 21
0.0
 31
0.0
  0
ENDBLK
  5
404
  8
0
  0
BLOCK
  8
0
  2
SW_CENTERMARKSYMBOL_12
 70
     0
 10
0.0
 20
0.0
 30
0.0
  3
SW_CENTERMARKSYMBOL_12
  1

  0
LINE
  5
411
  8
DIM
 62
     0
 10
0.0
 20
0.0
 30
0.0
 11
0.0
 21
5.0
 31
0.0
  0
LINE
  5
412
  8
DIM
 62
     0
 10
0.0
 20
0.0
 30
0.0
 11
-5.0
 21
0.0
 31
0.0
  0
LINE
  5
413
  8
DIM
 62
     0
 10
0.0
 20
0.0
 30
0.0
 11
0.0
 21
-5.0
 31
0.0
  0
LINE
  5
414
  8
DIM
 62
     0
 10
0.0
 20
0.0
 30
0.0
 11
5.0
 21
0.0
 31
0.0
  0
LINE
  5
415
  8
DIM
 62
     0
 10
0.0
 20
5.0
 30
0.0
 11
0.0
 21
6.45
 31
0.0
  0
LINE
  5
416
  8
DIM
 62
     0
 10
-5.0
 20
0.0
 30
0.0
 11
-6.45
 21
0.0
 31
0.0
  0
LINE
  5
417
  8
DIM
 62
     0
 10
0.0
 20
-5.0
 30
0.0
 11
0.0
 21
-6.45
 31
0.0
  0
LINE
  5
418
  8
DIM
 62
     0
 10
5.0
 20
0.0
 30
0.0
 11
6.45
 21
0.0
 31
0.0
  0
ENDBLK
  5
410
  8
0
  0
BLOCK
  8
0
  2
SW_CENTERMARKSYMBOL_13
 70
     0
 10
0.0
 20
0.0
 30
0.0
  3
SW_CENTERMARKSYMBOL_13
  1

  0
LINE
  5
41D
  8
DIM
 62
     0
 10
0.0
 20
0.0
 30
0.0
 11
0.0
 21
5.0
 31
0.0
  0
LINE
  5
41E
  8
DIM
 62
     0
 10
0.0
 20
0.0
 30
0.0
 11
-5.0
 21
0.0
 31
0.0
  0
LINE
  5
41F
  8
DIM
 62
     0
 10
0.0
 20
0.0
 30
0.0
 11
0.0
 21
-5.0
 31
0.0
  0
LINE
  5
420
  8
DIM
 62
     0
 10
0.0
 20
0.0
 30
0.0
 11
5.0
 21
0.0
 31
0.0
  0
LINE
  5
421
  8
DIM
 62
     0
 10
0.0
 20
5.0
 30
0.0
 11
0.0
 21
6.45
 31
0.0
  0
LINE
  5
422
  8
DIM
 62
     0
 10
-5.0
 20
0.0
 30
0.0
 11
-6.45
 21
0.0
 31
0.0
  0
LINE
  5
423
  8
DIM
 62
     0
 10
0.0
 20
-5.0
 30
0.0
 11
0.0
 21
-6.45
 31
0.0
  0
LINE
  5
424
  8
DIM
 62
     0
 10
5.0
 20
0.0
 30
0.0
 11
6.45
 21
0.0
 31
0.0
  0
ENDBLK
  5
41C
  8
0
  0
BLOCK
  8
0
  2
SW_CENTERMARKSYMBOL_14
 70
     0
 10
0.0
 20
0.0
 30
0.0
  3
SW_CENTERMARKSYMBOL_14
  1

  0
LINE
  5
429
  8
DIM
 62
     0
 10
0.0
 20
0.0
 30
0.0
 11
0.0
 21
5.0
 31
0.0
  0
LINE
  5
42A
  8
DIM
 62
     0
 10
0.0
 20
0.0
 30
0.0
 11
-5.0
 21
0.0
 31
0.0
  0
LINE
  5
42B
  8
DIM
 62
     0
 10
0.0
 20
0.0
 30
0.0
 11
0.0
 21
-5.0
 31
0.0
  0
LINE
  5
42C
  8
DIM
 62
     0
 10
0.0
 20
0.0
 30
0.0
 11
5.0
 21
0.0
 31
0.0
  0
LINE
  5
42D
  8
DIM
 62
     0
 10
0.0
 20
5.0
 30
0.0
 11
0.0
 21
6.45
 31
0.0
  0
LINE
  5
42E
  8
DIM
 62
     0
 10
-5.0
 20
0.0
 30
0.0
 11
-6.45
 21
0.0
 31
0.0
  0
LINE
  5
42F
  8
DIM
 62
     0
 10
0.0
 20
-5.0
 30
0.0
 11
0.0
 21
-6.45
 31
0.0
  0
LINE
  5
430
  8
DIM
 62
     0
 10
5.0
 20
0.0
 30
0.0
 11
6.45
 21
0.0
 31
0.0
  0
ENDBLK
  5
428
  8
0
  0
BLOCK
  8
0
  2
SW_CENTERMARKSYMBOL_15
 70
     0
 10
0.0
 20
0.0
 30
0.0
  3
SW_CENTERMARKSYMBOL_15
  1

  0
LINE
  5
435
  8
DIM
 62
     0
 10
0.0
 20
0.0
 30
0.0
 11
0.0
 21
5.0
 31
0.0
  0
LINE
  5
436
  8
DIM
 62
     0
 10
0.0
 20
0.0
 30
0.0
 11
-5.0
 21
0.0
 31
0.0
  0
LINE
  5
437
  8
DIM
 62
     0
 10
0.0
 20
0.0
 30
0.0
 11
0.0
 21
-5.0
 31
0.0
  0
LINE
  5
438
  8
DIM
 62
     0
 10
0.0
 20
0.0
 30
0.0
 11
5.0
 21
0.0
 31
0.0
  0
LINE
  5
439
  8
DIM
 62
     0
 10
0.0
 20
5.0
 30
0.0
 11
0.0
 21
6.45
 31
0.0
  0
LINE
  5
43A
  8
DIM
 62
     0
 10
-5.0
 20
0.0
 30
0.0
 11
-6.45
 21
0.0
 31
0.0
  0
LINE
  5
43B
  8
DIM
 62
     0
 10
0.0
 20
-5.0
 30
0.0
 11
0.0
 21
-6.45
 31
0.0
  0
LINE
  5
43C
  8
DIM
 62
     0
 10
5.0
 20
0.0
 30
0.0
 11
6.45
 21
0.0
 31
0.0
  0
ENDBLK
  5
434
  8
0
  0
BLOCK
  8
0
  2
SW_CENTERMARKSYMBOL_16
 70
     0
 10
0.0
 20
0.0
 30
0.0
  3
SW_CENTERMARKSYMBOL_16
  1

  0
LINE
  5
441
  8
DIM
 62
     0
 10
0.0
 20
0.0
 30
0.0
 11
0.0
 21
5.0
 31
0.0
  0
LINE
  5
442
  8
DIM
 62
     0
 10
0.0
 20
0.0
 30
0.0
 11
-5.0
 21
0.0
 31
0.0
  0
LINE
  5
443
  8
DIM
 62
     0
 10
0.0
 20
0.0
 30
0.0
 11
0.0
 21
-5.0
 31
0.0
  0
LINE
  5
444
  8
DIM
 62
     0
 10
0.0
 20
0.0
 30
0.0
 11
5.0
 21
0.0
 31
0.0
  0
LINE
  5
445
  8
DIM
 62
     0
 10
0.0
 20
10.0
 30
0.0
 11
0.0
 21
16.55
 31
0.0
  0
LINE
  5
446
  8
DIM
 62
     0
 10
-10.0
 20
0.0
 30
0.0
 11
-16.55
 21
0.0
 31
0.0
  0
LINE
  5
447
  8
DIM
 62
     0
 10
0.0
 20
-10.0
 30
0.0
 11
0.0
 21
-16.55
 31
0.0
  0
LINE
  5
448
  8
DIM
 62
     0
 10
10.0
 20
0.0
 30
0.0
 11
16.55
 21
0.0
 31
0.0
  0
ENDBLK
  5
440
  8
0
  0
ENDSEC
  0
SECTION
  2
ENTITIES
  0
CIRCLE
  5
76
  8
0
  6
CONTINUOUS
 62
     7
 10
125.4939930364
 20
193.2021713837
 30
0.0
 40
12.99999999999997
  0
CIRCLE
  5
77
  8
0
  6
CONTINUOUS
 62
     7
 10
125.4939930364
 20
193.2021713837
 30
0.0
 40
10.0
  0
CIRCLE
  5
78
  8
0
  6
CONTINUOUS
 62
     7
 10
106.874446855
 20
203.9521713837
 30
0.0
 40
3.249999999999986
  0
CIRCLE
  5
79
  8
0
  6
CONTINUOUS
 62
     7
 10
106.874446855
 20
182.4521713837
 30
0.0
 40
3.25
  0
CIRCLE
  5
7A
  8
0
  6
CONTINUOUS
 62
     7
 10
125.4939930364
 20
171.7021713837
 30
0.0
 40
3.25
  0
CIRCLE
  5
7B
  8
0
  6
CONTINUOUS
 62
     7
 10
144.1135392178
 20
182.4521713837
 30
0.0
 40
3.25
  0
CIRCLE
  5
7C
  8
0
  6
CONTINUOUS
 62
     7
 10
144.1135392178
 20
203.9521713837
 30
0.0
 40
3.25
  0
CIRCLE
  5
7D
  8
0
  6
CONTINUOUS
 62
     7
 10
125.4939930364
 20
214.7021713837
 30
0.0
 40
3.25
  0
CIRCLE
  5
7E
  8
0
  6
CONTINUOUS
 62
     7
 10
210.4939930364
 20
215.2021713837
 30
0.0
 40
1.249999999999972
  0
CIRCLE
  5
7F
  8
0
  6
CONTINUOUS
 62
     7
 10
185.4939930364
 20
215.2021713837
 30
0.0
 40
1.25
  0
CIRCLE
  5
80
  8
0
  6
CONTINUOUS
 62
     7
 10
180.4939930364
 20
193.2021713837
 30
0.0
 40
1.250000000000028
  0
CIRCLE
  5
81
  8
0
  6
CONTINUOUS
 62
     7
 10
155.4939930364
 20
193.2021713837
 30
0.0
 40
1.25
  0
CIRCLE
  5
82
  8
0
  6
CONTINUOUS
 62
     7
 10
216.9939930364
 20
204.7021713837
 30
0.0
 40
1.450000000000017
  0
CIRCLE
  5
83
  8
0
  6
CONTINUOUS
 62
     7
 10
193.9939930364
 20
204.7021713837
 30
0.0
 40
1.449999999999989
  0
CIRCLE
  5
84
  8
0
  6
CONTINUOUS
 62
     7
 10
193.9939930364
 20
181.7021713837
 30
0.0
 40
1.449999999999989
  0
CIRCLE
  5
85
  8
0
  6
CONTINUOUS
 62
     7
 10
216.9939930364
 20
181.7021713837
 30
0.0
 40
1.450000000000017
  0
LINE
  5
86
  8
0
  6
CONTINUOUS
 62
     7
 10
219.9939930364
 20
201.7021713837
 30
0.0
 11
219.9939930364
 21
219.9950646025
 31
0.0
  0
LINE
  5
87
  8
0
  6
CONTINUOUS
 62
     7
 10
213.3139994303
 20
201.7021713837
 30
0.0
 11
219.9939930364
 21
201.7021713837
 31
0.0
  0
ARC
  5
88
  8
0
  6
CONTINUOUS
 62
     7
 10
205.4939930364
 20
193.2021713837
 30
0.0
 40
11.55
 50
47.3859206882
 51
312.6140793118
  0
LINE
  5
89
  8
0
  6
CONTINUOUS
 62
     7
 10
219.9939930364
 20
184.7021713837
 30
0.0
 11
213.3139994303
 21
184.7021713837
 31
0.0
  0
LINE
  5
8A
  8
0
  6
CONTINUOUS
 62
     7
 10
219.9939930364
 20
166.4092781649
 30
0.0
 11
219.9939930364
 21
184.7021713837
 31
0.0
  0
LINE
  5
8B
  8
0
  6
CONTINUOUS
 62
     7
 10
217.2868862552
 20
163.7021713837
 30
0.0
 11
219.9939930364
 21
166.4092781649
 31
0.0
  0
LINE
  5
8C
  8
0
  6
CONTINUOUS
 62
     7
 10
125.4939930364
 20
163.7021713837
 30
0.0
 11
217.2868862552
 21
163.7021713837
 31
0.0
  0
ARC
  5
8D
  8
0
  6
CONTINUOUS
 62
     7
 10
125.4939930364
 20
193.2021713837
 30
0.0
 40
29.5
 50
90.0
 51
270.0
  0
LINE
  5
8E
  8
0
  6
CONTINUOUS
 62
     7
 10
217.2868862552
 20
222.7021713837
 30
0.0
 11
125.4939930364
 21
222.7021713837
 31
0.0
  0
LINE
  5
8F
  8
0
  6
CONTINUOUS
 62
     7
 10
219.9939930364
 20
219.9950646025
 30
0.0
 11
217.2868862552
 21
222.7021713837
 31
0.0
  0
LINE
  5
90
  8
0
  6
CONTINUOUS
 62
     7
 10
164.4939930364
 20
190.7021713837
 30
0.0
 11
162.4939930364
 21
190.7021713837
 31
0.0
  0
ARC
  5
91
  8
0
  6
CONTINUOUS
 62
     7
 10
164.4939930364
 20
193.2021713837
 30
0.0
 40
2.5
 50
270.0
 51
90.0
  0
LINE
  5
92
  8
0
  6
CONTINUOUS
 62
     7
 10
162.4939930364
 20
195.7021713837
 30
0.0
 11
164.4939930364
 21
195.7021713837
 31
0.0
  0
ARC
  5
93
  8
0
  6
CONTINUOUS
 62
     7
 10
162.4939930364
 20
193.2021713837
 30
0.0
 40
2.5
 50
90.0
 51
270.0
  0
CIRCLE
  5
94
  8
0
  6
CONTINUOUS
 62
     7
 10
210.4939930364
 20
171.2021713837
 30
0.0
 40
1.249999999999972
  0
CIRCLE
  5
95
  8
0
  6
CONTINUOUS
 62
     7
 10
185.4939930364
 20
171.2021713837
 30
0.0
 40
1.25
  0
CIRCLE
  5
96
  8
0
  6
CONTINUOUS
 62
     7
 10
160.4939930364
 20
171.2021713837
 30
0.0
 40
1.25
  0
CIRCLE
  5
97
  8
0
  6
CONTINUOUS
 62
     7
 10
160.4939930364
 20
215.2021713837
 30
0.0
 40
1.25
  0
LINE
  5
98
  8
0
  6
CONTINUOUS
 62
     7
 10
125.4939930364
 20
223.2021713837
 30
0.0
 11
217.4939930364
 21
223.2021713837
 31
0.0
  0
LINE
  5
99
  8
0
  6
CONTINUOUS
 62
     7
 10
217.2868862552
 20
222.7021713837
 30
0.0
 11
217.4939930364
 21
223.2021713837
 31
0.0
  0
LINE
  5
9A
  8
0
  6
CONTINUOUS
 62
     7
 10
220.4939930364
 20
220.2021713837
 30
0.0
 11
220.4939930364
 21
201.7021713837
 31
0.0
  0
LINE
  5
9B
  8
0
  6
CONTINUOUS
 62
     7
 10
220.4939930364
 20
201.7021713837
 30
0.0
 11
219.9939930364
 21
201.7021713837
 31
0.0
  0
LINE
  5
9C
  8
0
  6
CONTINUOUS
 62
     7
 10
220.4939930364
 20
220.2021713837
 30
0.0
 11
219.9939930364
 21
219.9950646025
 31
0.0
  0
ARC
  5
9D
  8
0
  6
CONTINUOUS
 62
     7
 10
125.4939930364
 20
193.2021713837
 30
0.0
 40
30.0
 50
90.0
 51
270.0
  0
LINE
  5
9E
  8
0
  6
CONTINUOUS
 62
     7
 10
219.9939930364
 20
201.2021713837
 30
0.0
 11
219.9939930364
 21
201.7021713837
 31
0.0
  0
LINE
  5
9F
  8
0
  6
CONTINUOUS
 62
     7
 10
220.4939930364
 20
201.7021713837
 30
0.0
 11
219.9939930364
 21
201.2021713837
 31
0.0
  0
LINE
  5
A0
  8
0
  6
CONTINUOUS
 62
     7
 10
219.9939930364
 20
201.2021713837
 30
0.0
 11
213.1164926264
 21
201.2021713837
 31
0.0
  0
LINE
  5
A1
  8
0
  6
CONTINUOUS
 62
     7
 10
213.1164926264
 20
201.2021713837
 30
0.0
 11
213.3139994303
 21
201.7021713837
 31
0.0
  0
ARC
  5
A2
  8
0
  6
CONTINUOUS
 62
     7
 10
205.4939930364
 20
193.2021713837
 30
0.0
 40
11.05000000000001
 50
46.3842197205
 51
313.6157802795
  0
LINE
  5
A3
  8
0
  6
CONTINUOUS
 62
     7
 10
213.1164926264
 20
185.2021713837
 30
0.0
 11
213.3139994303
 21
184.7021713837
 31
0.0
  0
LINE
  5
A4
  8
0
  6
CONTINUOUS
 62
     7
 10
213.1164926264
 20
185.2021713837
 30
0.0
 11
219.9939930364
 21
185.2021713837
 31
0.0
  0
LINE
  5
A5
  8
0
  6
CONTINUOUS
 62
     7
 10
219.9939930364
 20
185.2021713837
 30
0.0
 11
219.9939930364
 21
184.7021713837
 31
0.0
  0
LINE
  5
A6
  8
0
  6
CONTINUOUS
 62
     7
 10
162.4939930364
 20
191.2021713837
 30
0.0
 11
164.4939930364
 21
191.2021713837
 31
0.0
  0
ARC
  5
A7
  8
0
  6
CONTINUOUS
 62
     7
 10
164.4939930364
 20
193.2021713837
 30
0.0
 40
2.0
 50
270.0
 51
90.0
  0
LINE
  5
A8
  8
0
  6
CONTINUOUS
 62
     7
 10
217.2868862552
 20
163.7021713837
 30
0.0
 11
217.4939930364
 21
163.2021713837
 31
0.0
  0
LINE
  5
A9
  8
0
  6
CONTINUOUS
 62
     7
 10
217.4939930364
 20
163.2021713837
 30
0.0
 11
125.4939930364
 21
163.2021713837
 31
0.0
  0
LINE
  5
AA
  8
0
  6
CONTINUOUS
 62
     7
 10
219.9939930364
 20
185.2021713837
 30
0.0
 11
220.4939930364
 21
184.7021713837
 31
0.0
  0
LINE
  5
AB
  8
0
  6
CONTINUOUS
 62
     7
 10
219.9939930364
 20
184.7021713837
 30
0.0
 11
220.4939930364
 21
184.7021713837
 31
0.0
  0
LINE
  5
AC
  8
0
  6
CONTINUOUS
 62
     7
 10
220.4939930364
 20
184.7021713837
 30
0.0
 11
220.4939930364
 21
166.2021713837
 31
0.0
  0
LINE
  5
AD
  8
0
  6
CONTINUOUS
 62
     7
 10
219.9939930364
 20
166.4092781649
 30
0.0
 11
220.4939930364
 21
166.2021713837
 31
0.0
  0
LINE
  5
AE
  8
0
  6
CONTINUOUS
 62
     7
 10
220.4939930364
 20
166.2021713837
 30
0.0
 11
217.4939930364
 21
163.2021713837
 31
0.0
  0
ARC
  5
AF
  8
0
  6
CONTINUOUS
 62
     7
 10
162.4939930364
 20
193.2021713837
 30
0.0
 40
2.0
 50
90.0
 51
270.0
  0
LINE
  5
B0
  8
0
  6
CONTINUOUS
 62
     7
 10
217.4939930364
 20
223.2021713837
 30
0.0
 11
220.4939930364
 21
220.2021713837
 31
0.0
  0
LINE
  5
B1
  8
0
  6
CONTINUOUS
 62
     7
 10
164.4939930364
 20
195.2021713837
 30
0.0
 11
162.4939930364
 21
195.2021713837
 31
0.0
  0
CIRCLE
  5
B2
  8
0
  6
CONTINUOUS
 62
     7
 10
125.4939930364
 20
171.7021713837
 30
0.0
 40
1.700000000000003
  0
CIRCLE
  5
B3
  8
0
  6
CONTINUOUS
 62
     7
 10
144.1135392178
 20
182.4521713837
 30
0.0
 40
1.699999999999989
  0
CIRCLE
  5
B4
  8
0
  6
CONTINUOUS
 62
     7
 10
144.1135392178
 20
203.9521713837
 30
0.0
 40
1.699999999999989
  0
CIRCLE
  5
B5
  8
0
  6
CONTINUOUS
 62
     7
 10
125.4939930364
 20
214.7021713837
 30
0.0
 40
1.700000000000003
  0
CIRCLE
  5
B6
  8
0
  6
CONTINUOUS
 62
     7
 10
106.874446855
 20
182.4521713837
 30
0.0
 40
1.700000000000017
  0
CIRCLE
  5
B7
  8
0
  6
CONTINUOUS
 62
     7
 10
106.874446855
 20
203.9521713837
 30
0.0
 40
1.700000000000003
  0
LINE
  5
B8
  8
0
  6
CENTERX2
 62
     7
 10
163.4939930364
 20
197.7103798066
 30
0.0
 11
163.4939930364
 21
188.7952786225
 31
0.0
  0
POINT
  5
B9
  8
0
  6
CONTINUOUS
 62
     7
 10
160.4939930364
 20
193.2021713837
 30
0.0
  0
POINT
  5
BA
  8
0
  6
CONTINUOUS
 62
     7
 10
166.4939930364
 20
193.2021713837
 30
0.0
  0
POINT
  5
BB
  8
0
  6
CONTINUOUS
 62
     7
 10
95.4939930364
 20
193.2021713837
 30
0.0
  0
DIMENSION
  5
BC
  8
DIM
  2
_D
 10
166.4939930364
 20
229.3721265763
 30
0.0
 11
150.7320364586
 21
229.3721265763
 31
0.0
 70
   160
  1
<>
  3
SLDDIMSTYLE0
 13
160.4939930364
 23
193.2021713837
 33
0.0
 14
166.4939930364
 24
193.2021713837
 34
0.0
  0
DIMENSION
  5
CF
  8
DIM
  2
_D_1
 10
220.4939930364
 20
267.6786013961
 30
0.0
 11
157.9939930364
 21
267.6786013961
 31
0.0
 70
   160
  1
<>
  3
SLDDIMSTYLE1
 13
95.4939930364
 23
193.2021713837
 33
0.0
 14
220.4939930364
 24
220.2021713837
 34
0.0
  0
DIMENSION
  5
DA
  8
DIM
  2
_D_2
 10
80.4939930364
 20
193.2021713837
 30
0.0
 11
86.5749468958
 21
203.6304983673
 31
0.0
 70
   162
  1
<>
  3
SLDDIMSTYLE2
 13
99.7297372738
 23
208.0771713837
 33
0.0
 14
114.0191564363
 24
199.8271713837
 34
0.0
 15
235.4939930364
 25
193.2021713837
 35
0.0
 16
86.5749468958
 26
203.6304983673
 36
0.0
  0
DIMENSION
  5
E4
  8
DIM
  2
_D_3
 10
125.4939930364
 20
239.314217162
 30
0.0
 11
144.4939930364
 21
239.314217162
 31
0.0
 70
   160
  1
<>
  3
SLDDIMSTYLE1
 13
163.4939930364
 23
197.7103798066
 33
0.0
 14
125.4939930364
 24
222.9521713837
 34
0.0
  0
DIMENSION
  5
EE
  8
DIM
  2
_D_4
 10
254.859870505
 20
163.2021713837
 30
0.0
 11
254.859870505
 21
193.2021713837
 31
0.0
 70
   160
  1
<>
  3
SLDDIMSTYLE1
 13
217.4939930364
 23
223.2021713837
 33
0.0
 14
217.4939930364
 24
163.2021713837
 34
0.0
 50
90.0
  0
DIMENSION
  5
F8
  8
DIM
  2
_D_5
 10
178.3098943532
 20
191.2021713837
 30
0.0
 11
178.3098943532
 21
235.3466453871
 31
0.0
 70
   160
  1
<>H8
  3
SLDDIMSTYLE3
 13
164.4939930364
 23
195.2021713837
 33
0.0
 14
164.4939930364
 24
191.2021713837
 34
0.0
 50
90.0
  0
DIMENSION
  5
10C
  8
DIM
  2
_D_6
 10
180.4939930364
 20
248.4626365783
 30
0.0
 11
167.9939930364
 21
248.4626365783
 31
0.0
 70
   160
  1
<>
  3
SLDDIMSTYLE1
 13
155.4939930364
 23
199.4521713837
 33
0.0
 14
180.4939930364
 24
199.4521713837
 34
0.0
  0
DIMENSION
  5
116
  8
DIM
  2
_D_7
 10
185.4939930364
 20
257.9538031613
 30
0.0
 11
172.9939930364
 21
257.9538031613
 31
0.0
 70
   160
  1
<>
  3
SLDDIMSTYLE1
 13
160.4939930364
 23
221.4521713837
 33
0.0
 14
185.4939930364
 24
221.4521713837
 34
0.0
  0
DIMENSION
  5
120
  8
DIM
  2
_D_8
 10
210.4939930364
 20
257.9538031613
 30
0.0
 11
197.9939930364
 21
257.9538031613
 31
0.0
 70
   160
  1
<>
  3
SLDDIMSTYLE1
 13
185.4939930364
 23
221.4521713837
 33
0.0
 14
210.4939930364
 24
221.4521713837
 34
0.0
  0
DIMENSION
  5
12A
  8
DIM
  2
_D_9
 10
244.8172493508
 20
171.2021713837
 30
0.0
 11
244.8172493508
 21
193.2021713837
 31
0.0
 70
   160
  1
<>
  3
SLDDIMSTYLE1
 13
216.7439930364
 23
215.2021713837
 33
0.0
 14
216.7439930364
 24
171.2021713837
 34
0.0
 50
90.0
  0
DIMENSION
  5
134
  8
DIM
  2
_D_10
 10
184.1949549307
 20
171.9521713837
 30
0.0
 11
219.0072981109
 21
157.1585051318
 31
0.0
 70
   163
  1
8xM3
  3
SLDDIMSTYLE4
 15
186.7930311421
 25
170.4521713837
 35
0.0
 40
0.0
  0
DIMENSION
  5
142
  8
DIM
  2
_D_11
 10
121.6409214507
 20
202.4300551799
 30
0.0
 11
110.3913609045
 21
229.3721365763
 31
0.0
 70
   163
  1
<>
  3
SLDDIMSTYLE5
 15
129.3470646221
 25
183.9742875876
 35
0.0
 40
0.0
  0
DIMENSION
  5
14D
  8
DIM
  2
_D_12
 10
112.1580872488
 20
210.0664418045
 30
0.0
 11
100.5650998852
 21
224.7266815363
 31
0.0
 70
   163
  1
<>
  3
SLDDIMSTYLE6
 15
138.829898824
 25
176.3379009629
 35
0.0
 40
0.0
  0
DIMENSION
  5
159
  8
DIM
  2
_D_13
 10
220.4939930364
 20
248.4626365783
 30
0.0
 11
200.4939930364
 21
248.4626365783
 31
0.0
 70
   160
  1
<>
  3
SLDDIMSTYLE1
 13
180.4939930364
 23
199.4521713837
 33
0.0
 14
220.4939930364
 24
220.2021713837
 34
0.0
  0
DIMENSION
  5
163
  8
DIM
  2
_D_14
 10
210.4939930364
 20
257.9538031613
 30
0.0
 11
215.4939930364
 21
257.9538031613
 31
0.0
 70
   160
  1
<>
  3
SLDDIMSTYLE1
 13
220.4939930364
 23
220.2021713837
 33
0.0
 14
210.4939930364
 24
221.4521713837
 34
0.0
  0
INSERT
  5
174
  8
TXT
  2
SW_NOTE_0
 10
127.5024029591
 20
169.1470217634
 30
0.0
  0
INSERT
  5
180
  8
DIM
  2
SW_CENTERMARKSYMBOL_0
 10
125.4939930364
 20
193.2021713837
 30
0.0
  0
INSERT
  5
18C
  8
DIM
  2
SW_CENTERMARKSYMBOL_1
 10
210.4939930364
 20
215.2021713837
 30
0.0
  0
INSERT
  5
198
  8
DIM
  2
SW_CENTERMARKSYMBOL_2
 10
185.4939930364
 20
215.2021713837
 30
0.0
  0
INSERT
  5
1A4
  8
DIM
  2
SW_CENTERMARKSYMBOL_3
 10
160.4939930364
 20
215.2021713837
 30
0.0
  0
INSERT
  5
1B0
  8
DIM
  2
SW_CENTERMARKSYMBOL_4
 10
160.4939930364
 20
171.2021713837
 30
0.0
  0
INSERT
  5
1BC
  8
DIM
  2
SW_CENTERMARKSYMBOL_5
 10
185.4939930364
 20
171.2021713837
 30
0.0
  0
INSERT
  5
1C8
  8
DIM
  2
SW_CENTERMARKSYMBOL_6
 10
210.4939930364
 20
171.2021713837
 30
0.0
  0
INSERT
  5
1D4
  8
DIM
  2
SW_CENTERMARKSYMBOL_7
 10
180.4939930364
 20
193.2021713837
 30
0.0
  0
INSERT
  5
1E0
  8
DIM
  2
SW_CENTERMARKSYMBOL_8
 10
155.4939930364
 20
193.2021713837
 30
0.0
  0
INSERT
  5
216
  8
DIM
  2
SW_CENTERMARKSYMBOL_9
 10
125.4939930364
 20
214.7021713837
 30
0.0
  0
LINE
  5
217
  8
0
  6
CENTERX2
 62
     7
 10
235.4939930364
 20
193.2021713837
 30
0.0
 11
80.4939930364
 21
193.2021713837
 31
0.0
  0
LINE
  5
218
  8
0
  6
CONTINUOUS
 62
     7
 10
233.4939930364
 20
180.5021713837
 30
0.0
 11
233.4939930364
 21
193.2021713837
 31
0.0
  0
INSERT
  5
219
  8
0
  6
CONTINUOUS
 62
     7
  2
_OPEN30
 10
233.4939930364
 20
193.2021713837
 30
0.0
 41
3.0
 42
3.0
 50
90.0
  0
LINE
  5
21A
  8
0
  6
CONTINUOUS
 62
     7
 10
82.4939930364
 20
180.5021713837
 30
0.0
 11
82.4939930364
 21
193.2021713837
 31
0.0
  0
INSERT
  5
21B
  8
0
  6
CONTINUOUS
 62
     7
  2
_OPEN30
 10
82.4939930364
 20
193.2021713837
 30
0.0
 41
3.0
 42
3.0
 50
90.0
  0
TEXT
  5
21C
  8
0
  6
CONTINUOUS
 62
     7
 10
234.3074501287
 20
181.0694568452
 30
0.0
 40
3.5
  1
A
 41
0.7
 11
234.3074501287
 21
184.5694568452
 31
0.0
 73
     3
  0
TEXT
  5
21D
  8
0
  6
CONTINUOUS
 62
     7
 10
79.6468932134
 20
181.0694568452
 30
0.0
 40
3.5
  1
A
 41
0.7
 11
79.6468932134
 21
184.5694568452
 31
0.0
 73
     3
  0
ARC
  5
21E
  8
0
  6
CONTINUOUS
 62
     7
 10
155.4939930364
 20
193.2021713837
 30
0.0
 40
1.500000000000011
 50
75.0
 51
345.0
  0
ARC
  5
21F
  8
0
  6
CONTINUOUS
 62
     7
 10
180.4939930364
 20
193.2021713837
 30
0.0
 40
1.500000000000004
 50
75.0
 51
345.0
  0
ARC
  5
220
  8
0
  6
CONTINUOUS
 62
     7
 10
210.4939930364
 20
215.2021713837
 30
0.0
 40
1.499999999999984
 50
75.0
 51
345.0
  0
ARC
  5
221
  8
0
  6
CONTINUOUS
 62
     7
 10
185.4939930364
 20
215.2021713837
 30
0.0
 40
1.500000000000011
 50
75.0
 51
345.0
  0
ARC
  5
222
  8
0
  6
CONTINUOUS
 62
     7
 10
160.4939930364
 20
215.2021713837
 30
0.0
 40
1.500000000000011
 50
75.0
 51
345.0
  0
ARC
  5
223
  8
0
  6
CONTINUOUS
 62
     7
 10
160.4939930364
 20
171.2021713837
 30
0.0
 40
1.500000000000011
 50
75.0
 51
345.0
  0
ARC
  5
224
  8
0
  6
CONTINUOUS
 62
     7
 10
185.4939930364
 20
171.2021713837
 30
0.0
 40
1.500000000000011
 50
75.0
 51
345.0
  0
ARC
  5
225
  8
0
  6
CONTINUOUS
 62
     7
 10
210.4939930364
 20
171.2021713837
 30
0.0
 40
1.500000000000004
 50
75.0
 51
345.0
  0
LINE
  5
226
  8
0
  6
CONTINUOUS
 62
     7
 10
272.7561567636
 20
184.7021713837
 30
0.0
 11
272.7561567636
 21
166.2021713837
 31
0.0
  0
LINE
  5
227
  8
0
  6
CONTINUOUS
 62
     7
 10
277.7561567636
 20
184.7021713837
 30
0.0
 11
272.7561567636
 21
184.7021713837
 31
0.0
  0
LINE
  5
228
  8
0
  6
CONTINUOUS
 62
     7
 10
277.7561567636
 20
177.7021713837
 30
0.0
 11
277.7561567636
 21
184.7021713837
 31
0.0
  0
LINE
  5
229
  8
0
  6
CONTINUOUS
 62
     7
 10
279.7561567636
 20
177.7021713837
 30
0.0
 11
277.7561567636
 21
177.7021713837
 31
0.0
  0
LINE
  5
22A
  8
0
  6
CONTINUOUS
 62
     7
 10
279.7561567636
 20
166.2021713837
 30
0.0
 11
279.7561567636
 21
177.7021713837
 31
0.0
  0
LINE
  5
22B
  8
0
  6
CONTINUOUS
 62
     7
 10
272.7561567636
 20
166.2021713837
 30
0.0
 11
279.7561567636
 21
166.2021713837
 31
0.0
  0
LINE
  5
22C
  8
0
  6
CONTINUOUS
 62
     7
 10
280.2561567636
 20
208.7021713837
 30
0.0
 11
279.7561567636
 21
208.2021713837
 31
0.0
  0
LINE
  5
22D
  8
0
  6
CONTINUOUS
 62
     7
 10
279.7561567636
 20
208.7021713837
 30
0.0
 11
279.7561567636
 21
208.2021713837
 31
0.0
  0
LINE
  5
22E
  8
0
  6
CONTINUOUS
 62
     7
 10
280.2561567636
 20
208.7021713837
 30
0.0
 11
279.7561567636
 21
208.7021713837
 31
0.0
  0
LINE
  5
22F
  8
0
  6
CONTINUOUS
 62
     7
 10
272.7561567636
 20
223.2021713837
 30
0.0
 11
272.7561567636
 21
220.2021713837
 31
0.0
  0
LINE
  5
230
  8
0
  6
CONTINUOUS
 62
     7
 10
272.7561567636
 20
223.2021713837
 30
0.0
 11
279.7561567636
 21
223.2021713837
 31
0.0
  0
LINE
  5
231
  8
0
  6
CONTINUOUS
 62
     7
 10
279.7561567636
 20
220.2021713837
 30
0.0
 11
279.7561567636
 21
223.2021713837
 31
0.0
  0
LINE
  5
232
  8
0
  6
CONTINUOUS
 62
     7
 10
279.7561567636
 20
220.2021713837
 30
0.0
 11
272.7561567636
 21
220.2021713837
 31
0.0
  0
LINE
  5
233
  8
0
  6
CONTINUOUS
 62
     7
 10
277.7561567636
 20
201.7021713837
 30
0.0
 11
277.7561567636
 21
208.7021713837
 31
0.0
  0
LINE
  5
234
  8
0
  6
CONTINUOUS
 62
     7
 10
272.7561567636
 20
201.7021713837
 30
0.0
 11
277.7561567636
 21
201.7021713837
 31
0.0
  0
LINE
  5
235
  8
0
  6
CONTINUOUS
 62
     7
 10
272.7561567636
 20
220.2021713837
 30
0.0
 11
272.7561567636
 21
201.7021713837
 31
0.0
  0
LINE
  5
236
  8
0
  6
CONTINUOUS
 62
     7
 10
279.7561567636
 20
208.7021713837
 30
0.0
 11
279.7561567636
 21
220.2021713837
 31
0.0
  0
LINE
  5
237
  8
0
  6
CONTINUOUS
 62
     7
 10
277.7561567636
 20
208.7021713837
 30
0.0
 11
279.7561567636
 21
208.7021713837
 31
0.0
  0
LINE
  5
238
  8
0
  6
CONTINUOUS
 62
     7
 10
279.7561567636
 20
178.2021713837
 30
0.0
 11
280.2561567636
 21
177.7021713837
 31
0.0
  0
LINE
  5
239
  8
0
  6
CONTINUOUS
 62
     7
 10
279.7561567636
 20
177.7021713837
 30
0.0
 11
280.2561567636
 21
177.7021713837
 31
0.0
  0
LINE
  5
23A
  8
0
  6
CONTINUOUS
 62
     7
 10
279.7561567636
 20
178.2021713837
 30
0.0
 11
279.7561567636
 21
177.7021713837
 31
0.0
  0
LINE
  5
23B
  8
0
  6
CONTINUOUS
 62
     7
 10
279.7561567636
 20
163.2021713837
 30
0.0
 11
279.7561567636
 21
166.2021713837
 31
0.0
  0
LINE
  5
23C
  8
0
  6
CONTINUOUS
 62
     7
 10
279.7561567636
 20
166.2021713837
 30
0.0
 11
280.2561567636
 21
166.4092781649
 31
0.0
  0
LINE
  5
23D
  8
0
  6
CONTINUOUS
 62
     7
 10
280.2561567636
 20
166.4092781649
 30
0.0
 11
280.2561567636
 21
163.7021713837
 31
0.0
  0
LINE
  5
23E
  8
0
  6
CONTINUOUS
 62
     7
 10
279.7561567636
 20
163.2021713837
 30
0.0
 11
280.2561567636
 21
163.7021713837
 31
0.0
  0
LINE
  5
23F
  8
0
  6
CONTINUOUS
 62
     7
 10
279.7561567636
 20
223.2021713837
 30
0.0
 11
280.2561567636
 21
222.7021713837
 31
0.0
  0
LINE
  5
240
  8
0
  6
CONTINUOUS
 62
     7
 10
280.2561567636
 20
222.7021713837
 30
0.0
 11
280.2561567636
 21
219.9950646025
 31
0.0
  0
LINE
  5
241
  8
0
  6
CONTINUOUS
 62
     7
 10
280.2561567636
 20
219.9950646025
 30
0.0
 11
279.7561567636
 21
220.2021713837
 31
0.0
  0
LINE
  5
242
  8
0
  6
CONTINUOUS
 62
     7
 10
279.7561567636
 20
208.2021713837
 30
0.0
 11
278.2561567636
 21
208.2021713837
 31
0.0
  0
LINE
  5
243
  8
0
  6
CONTINUOUS
 62
     7
 10
277.7561567636
 20
208.7021713837
 30
0.0
 11
278.2561567636
 21
208.2021713837
 31
0.0
  0
LINE
  5
244
  8
0
  6
CONTINUOUS
 62
     7
 10
280.2561567636
 20
177.7021713837
 30
0.0
 11
280.2561567636
 21
166.4092781649
 31
0.0
  0
LINE
  5
245
  8
0
  6
CONTINUOUS
 62
     7
 10
278.2561567636
 20
178.2021713837
 30
0.0
 11
279.7561567636
 21
178.2021713837
 31
0.0
  0
LINE
  5
246
  8
0
  6
CONTINUOUS
 62
     7
 10
278.2561567636
 20
178.2021713837
 30
0.0
 11
277.7561567636
 21
177.7021713837
 31
0.0
  0
LINE
  5
247
  8
0
  6
CONTINUOUS
 62
     7
 10
280.2561567636
 20
219.9950646025
 30
0.0
 11
280.2561567636
 21
208.7021713837
 31
0.0
  0
LINE
  5
248
  8
0
  6
CONTINUOUS
 62
     7
 10
272.7561567636
 20
166.2021713837
 30
0.0
 11
272.7561567636
 21
163.2021713837
 31
0.0
  0
LINE
  5
249
  8
0
  6
CONTINUOUS
 62
     7
 10
279.7561567636
 20
163.2021713837
 30
0.0
 11
272.7561567636
 21
163.2021713837
 31
0.0
  0
LINE
  5
24A
  8
0
  6
CONTINUOUS
 62
     7
 10
272.7561567636
 20
185.2021713837
 30
0.0
 11
277.7561567636
 21
185.2021713837
 31
0.0
  0
LINE
  5
24B
  8
0
  6
CONTINUOUS
 62
     7
 10
277.7561567636
 20
185.2021713837
 30
0.0
 11
277.7561567636
 21
184.7021713837
 31
0.0
  0
LINE
  5
24C
  8
0
  6
CONTINUOUS
 62
     7
 10
272.7561567636
 20
185.2021713837
 30
0.0
 11
272.7561567636
 21
184.7021713837
 31
0.0
  0
LINE
  5
24D
  8
0
  6
CONTINUOUS
 62
     7
 10
277.7561567636
 20
201.7021713837
 30
0.0
 11
277.7561567636
 21
201.2021713837
 31
0.0
  0
LINE
  5
24E
  8
0
  6
CONTINUOUS
 62
     7
 10
277.7561567636
 20
201.2021713837
 30
0.0
 11
272.7561567636
 21
201.2021713837
 31
0.0
  0
LINE
  5
24F
  8
0
  6
CONTINUOUS
 62
     7
 10
272.7561567636
 20
201.7021713837
 30
0.0
 11
272.7561567636
 21
201.2021713837
 31
0.0
  0
LINE
  5
250
  8
0
  6
CONTINUOUS
 62
     7
 10
278.2561567636
 20
208.2021713837
 30
0.0
 11
278.2561567636
 21
201.7021713837
 31
0.0
  0
LINE
  5
251
  8
0
  6
CONTINUOUS
 62
     7
 10
277.7561567636
 20
201.7021713837
 30
0.0
 11
278.2561567636
 21
201.7021713837
 31
0.0
  0
LINE
  5
252
  8
0
  6
CONTINUOUS
 62
     7
 10
278.2561567636
 20
201.7021713837
 30
0.0
 11
277.7561567636
 21
201.2021713837
 31
0.0
  0
LINE
  5
253
  8
0
  6
CONTINUOUS
 62
     7
 10
278.2561567636
 20
184.7021713837
 30
0.0
 11
278.2561567636
 21
178.2021713837
 31
0.0
  0
LINE
  5
254
  8
0
  6
CONTINUOUS
 62
     7
 10
278.2561567636
 20
184.7021713837
 30
0.0
 11
277.7561567636
 21
184.7021713837
 31
0.0
  0
LINE
  5
255
  8
0
  6
CONTINUOUS
 62
     7
 10
278.2561567636
 20
184.7021713837
 30
0.0
 11
277.7561567636
 21
185.2021713837
 31
0.0
  0
LINE
  5
256
  8
0
  6
CONTINUOUS
 62
     7
 10
272.7561567636
 20
201.7021713837
 30
0.0
 11
272.2561567636
 21
201.7021713837
 31
0.0
  0
LINE
  5
257
  8
0
  6
CONTINUOUS
 62
     7
 10
272.2561567636
 20
201.7021713837
 30
0.0
 11
272.2561567636
 21
219.9950646025
 31
0.0
  0
LINE
  5
258
  8
0
  6
CONTINUOUS
 62
     7
 10
272.7561567636
 20
220.2021713837
 30
0.0
 11
272.2561567636
 21
219.9950646025
 31
0.0
  0
LINE
  5
259
  8
0
  6
CONTINUOUS
 62
     7
 10
272.2561567636
 20
166.4092781649
 30
0.0
 11
272.2561567636
 21
184.7021713837
 31
0.0
  0
LINE
  5
25A
  8
0
  6
CONTINUOUS
 62
     7
 10
272.2561567636
 20
184.7021713837
 30
0.0
 11
272.7561567636
 21
184.7021713837
 31
0.0
  0
LINE
  5
25B
  8
0
  6
CONTINUOUS
 62
     7
 10
272.2561567636
 20
166.4092781649
 30
0.0
 11
272.7561567636
 21
166.2021713837
 31
0.0
  0
LINE
  5
25C
  8
0
  6
CONTINUOUS
 62
     7
 10
272.7561567636
 20
201.2021713837
 30
0.0
 11
272.2561567636
 21
201.7021713837
 31
0.0
  0
LINE
  5
25D
  8
0
  6
CONTINUOUS
 62
     7
 10
272.2561567636
 20
163.7021713837
 30
0.0
 11
272.2561567636
 21
166.4092781649
 31
0.0
  0
LINE
  5
25E
  8
0
  6
CONTINUOUS
 62
     7
 10
272.2561567636
 20
163.7021713837
 30
0.0
 11
272.7561567636
 21
163.2021713837
 31
0.0
  0
LINE
  5
25F
  8
0
  6
CONTINUOUS
 62
     7
 10
272.7561567636
 20
185.2021713837
 30
0.0
 11
272.2561567636
 21
184.7021713837
 31
0.0
  0
LINE
  5
260
  8
0
  6
CONTINUOUS
 62
     7
 10
272.2561567636
 20
219.9950646025
 30
0.0
 11
272.2561567636
 21
222.7021713837
 31
0.0
  0
LINE
  5
261
  8
0
  6
CONTINUOUS
 62
     7
 10
272.2561567636
 20
222.7021713837
 30
0.0
 11
272.7561567636
 21
223.2021713837
 31
0.0
  0
LINE
  5
262
  8
0
  6
CONTINUOUS
 62
     7
 10
277.7561567636
 20
185.2021713837
 30
0.0
 11
277.7561567636
 21
201.2021713837
 31
0.0
  0
LINE
  5
263
  8
0
  6
CONTINUOUS
 62
     7
 10
278.2561567636
 20
201.7021713837
 30
0.0
 11
278.2561567636
 21
184.7021713837
 31
0.0
  0
LINE
  5
264
  8
0
  6
CONTINUOUS
 62
     7
 10
272.7561567636
 20
201.2021713837
 30
0.0
 11
272.7561567636
 21
185.2021713837
 31
0.0
  0
LINE
  5
265
  8
0
  6
CONTINUOUS
 62
     7
 10
272.2561567636
 20
184.7021713837
 30
0.0
 11
272.2561567636
 21
201.7021713837
 31
0.0
  0
LINE
  5
266
  8
0
  6
CONTINUOUS
 62
     7
 10
279.7561567636
 20
178.2021713837
 30
0.0
 11
279.7561567636
 21
181.7021713837
 31
0.0
  0
LINE
  5
267
  8
0
  6
CONTINUOUS
 62
     7
 10
279.7561567636
 20
204.7021713837
 30
0.0
 11
279.7561567636
 21
208.2021713837
 31
0.0
  0
LINE
  5
268
  8
0
  6
CONTINUOUS
 62
     7
 10
280.2561567636
 20
208.7021713837
 30
0.0
 11
280.2561567636
 21
204.7021713837
 31
0.0
  0
LINE
  5
269
  8
0
  6
CONTINUOUS
 62
     7
 10
280.2561567636
 20
181.7021713837
 30
0.0
 11
280.2561567636
 21
177.7021713837
 31
0.0
  0
LINE
  5
26A
  8
0
  6
CONTINUOUS
 62
     7
 10
279.7561567636
 20
181.7021713837
 30
0.0
 11
279.7561567636
 21
204.7021713837
 31
0.0
  0
LINE
  5
26B
  8
0
  6
CONTINUOUS
 62
     7
 10
280.2561567636
 20
204.7021713837
 30
0.0
 11
280.2561567636
 21
181.7021713837
 31
0.0
  0
DIMENSION
  5
26C
  8
DIM
  2
_D_15
 10
280.2561567636
 20
231.5718295124
 30
0.0
 11
276.2561567636
 21
231.5718295124
 31
0.0
 70
   160
  1
<>
  3
SLDDIMSTYLE0
 13
272.2561567636
 23
222.7021713837
 33
0.0
 14
280.2561567636
 24
222.7021713837
 34
0.0
  0
LINE
  5
278
  8
0
  6
CONTINUOUS
 62
     7
 10
182.8854017023
 20
137.7109702309
 30
0.0
 11
181.7439930364
 21
136.5695615651
 31
0.0
  0
LINE
  5
279
  8
0
  6
CONTINUOUS
 62
     7
 10
187.3755297628
 20
137.7109702309
 30
0.0
 11
181.7439930364
 21
132.0794335045
 31
0.0
  0
LINE
  5
27A
  8
0
  6
CONTINUOUS
 62
     7
 10
191.8656578233
 20
137.7109702309
 30
0.0
 11
183.8656578233
 21
129.7109702309
 31
0.0
  0
LINE
  5
27B
  8
0
  6
CONTINUOUS
 62
     7
 10
194.4439930364
 20
135.7991773835
 30
0.0
 11
188.3557858839
 21
129.7109702309
 31
0.0
  0
LINE
  5
27C
  8
0
  6
CONTINUOUS
 62
     7
 10
169.4150175207
 20
137.7109702309
 30
0.0
 11
166.4939930364
 21
134.7899457467
 31
0.0
  0
LINE
  5
27D
  8
0
  6
CONTINUOUS
 62
     7
 10
173.9051455812
 20
137.7109702309
 30
0.0
 11
166.4939930364
 21
130.2998176861
 31
0.0
  0
LINE
  5
27E
  8
0
  6
CONTINUOUS
 62
     7
 10
178.3952736417
 20
137.7109702309
 30
0.0
 11
170.3952736417
 21
129.7109702309
 31
0.0
  0
LINE
  5
27F
  8
0
  6
CONTINUOUS
 62
     7
 10
179.2439930364
 20
134.0695615651
 30
0.0
 11
174.8854017023
 21
129.7109702309
 31
0.0
  0
LINE
  5
280
  8
0
  6
CONTINUOUS
 62
     7
 10
160.214377218
 20
137.4905860493
 30
0.0
 11
156.7439930364
 21
134.0202018677
 31
0.0
  0
LINE
  5
281
  8
0
  6
CONTINUOUS
 62
     7
 10
160.4939930364
 20
133.2800738072
 30
0.0
 11
156.9248894601
 21
129.7109702309
 31
0.0
  0
LINE
  5
282
  8
0
  6
CONTINUOUS
 62
     7
 10
142.4742491575
 20
137.7109702309
 30
0.0
 11
135.4939930364
 21
130.7307141099
 31
0.0
  0
LINE
  5
283
  8
0
  6
CONTINUOUS
 62
     7
 10
146.964377218
 20
137.7109702309
 30
0.0
 11
138.964377218
 21
129.7109702309
 31
0.0
  0
LINE
  5
284
  8
0
  6
CONTINUOUS
 62
     7
 10
143.9939930364
 20
130.2504579888
 30
0.0
 11
143.4545052785
 21
129.7109702309
 31
0.0
  0
LINE
  5
285
  8
0
  6
CONTINUOUS
 62
     7
 10
151.4545052785
 20
137.7109702309
 30
0.0
 11
147.4545052785
 21
133.7109702309
 31
0.0
  0
LINE
  5
286
  8
0
  6
CONTINUOUS
 62
     7
 10
154.2439930364
 20
136.0103299283
 30
0.0
 11
149.9939930364
 21
131.7603299283
 31
0.0
  0
LINE
  5
287
  8
0
  6
CONTINUOUS
 62
     7
 10
154.2439930364
 20
131.5202018677
 30
0.0
 11
152.4347613996
 21
129.7109702309
 31
0.0
  0
LINE
  5
288
  8
0
  6
CONTINUOUS
 62
     7
 10
97.5729685521
 20
137.7109702309
 30
0.0
 11
95.4939930364
 21
135.6319947152
 31
0.0
  0
LINE
  5
289
  8
0
  6
CONTINUOUS
 62
     7
 10
102.0630966127
 20
137.7109702309
 30
0.0
 11
95.4939930364
 21
131.1418666547
 31
0.0
  0
LINE
  5
28A
  8
0
  6
CONTINUOUS
 62
     7
 10
101.9939930364
 20
133.1517385941
 30
0.0
 11
98.5532246732
 21
129.7109702309
 31
0.0
  0
LINE
  5
28B
  8
0
  6
CONTINUOUS
 62
     7
 10
106.5532246732
 20
137.7109702309
 30
0.0
 11
102.5532246732
 21
133.7109702309
 31
0.0
  0
LINE
  5
28C
  8
0
  6
CONTINUOUS
 62
     7
 10
111.0433527337
 20
137.7109702309
 30
0.0
 11
105.9939930364
 21
132.6616105336
 31
0.0
  0
LINE
  5
28D
  8
0
  6
CONTINUOUS
 62
     7
 10
114.0137369153
 20
136.191226352
 30
0.0
 11
107.5334807943
 21
129.7109702309
 31
0.0
  0
LINE
  5
28E
  8
0
  6
CONTINUOUS
 62
     7
 10
115.4939930364
 20
133.1813544125
 30
0.0
 11
112.0236088548
 21
129.7109702309
 31
0.0
  0
LINE
  5
28F
  8
0
  6
CONTINUOUS
 62
     7
 10
194.4439930364
 20
132.2109702309
 30
0.0
 11
194.4439930364
 21
137.2109702309
 31
0.0
  0
LINE
  5
290
  8
0
  6
CONTINUOUS
 62
     7
 10
194.4439930364
 20
132.2109702309
 30
0.0
 11
193.9439930364
 21
131.7109702309
 31
0.0
  0
LINE
  5
291
  8
0
  6
CONTINUOUS
 62
     7
 10
190.4939930364
 20
131.7109702309
 30
0.0
 11
193.9439930364
 21
131.7109702309
 31
0.0
  0
LINE
  5
292
  8
0
  6
CONTINUOUS
 62
     7
 10
190.4939930364
 20
130.2109702309
 30
0.0
 11
190.4939930364
 21
131.7109702309
 31
0.0
  0
LINE
  5
293
  8
0
  6
CONTINUOUS
 62
     7
 10
190.4939930364
 20
130.2109702309
 30
0.0
 11
189.9939930364
 21
129.7109702309
 31
0.0
  0
LINE
  5
294
  8
0
  6
CONTINUOUS
 62
     7
 10
189.9939930364
 20
129.7109702309
 30
0.0
 11
181.7439930364
 21
129.7109702309
 31
0.0
  0
LINE
  5
295
  8
0
  6
CONTINUOUS
 62
     7
 10
181.7439930364
 20
137.7109702309
 30
0.0
 11
181.7439930364
 21
129.7109702309
 31
0.0
  0
LINE
  5
296
  8
0
  6
CONTINUOUS
 62
     7
 10
193.9439930364
 20
137.7109702309
 30
0.0
 11
181.7439930364
 21
137.7109702309
 31
0.0
  0
LINE
  5
297
  8
0
  6
CONTINUOUS
 62
     7
 10
193.9439930364
 20
137.7109702309
 30
0.0
 11
194.4439930364
 21
137.2109702309
 31
0.0
  0
LINE
  5
298
  8
0
  6
CONTINUOUS
 62
     7
 10
135.9939930364
 20
129.7109702309
 30
0.0
 11
135.4939930364
 21
130.2109702309
 31
0.0
  0
LINE
  5
299
  8
0
  6
CONTINUOUS
 62
     7
 10
135.9939930364
 20
129.7109702309
 30
0.0
 11
114.9939930364
 21
129.7109702309
 31
0.0
  0
LINE
  5
29A
  8
0
  6
CONTINUOUS
 62
     7
 10
115.4939930364
 20
130.2109702309
 30
0.0
 11
114.9939930364
 21
129.7109702309
 31
0.0
  0
LINE
  5
29B
  8
0
  6
CONTINUOUS
 62
     7
 10
115.4939930364
 20
130.2109702309
 30
0.0
 11
135.4939930364
 21
130.2109702309
 31
0.0
  0
LINE
  5
29C
  8
0
  6
CONTINUOUS
 62
     7
 10
164.4939930364
 20
130.2109702309
 30
0.0
 11
166.4939930364
 21
130.2109702309
 31
0.0
  0
LINE
  5
29D
  8
0
  6
CONTINUOUS
 62
     7
 10
166.9939930364
 20
129.7109702309
 30
0.0
 11
166.4939930364
 21
130.2109702309
 31
0.0
  0
LINE
  5
29E
  8
0
  6
CONTINUOUS
 62
     7
 10
166.9939930364
 20
129.7109702309
 30
0.0
 11
164.4939930364
 21
129.7109702309
 31
0.0
  0
LINE
  5
29F
  8
0
  6
CONTINUOUS
 62
     7
 10
147.9939930364
 20
130.2109702309
 30
0.0
 11
149.9939930364
 21
130.2109702309
 31
0.0
  0
LINE
  5
2A0
  8
0
  6
CONTINUOUS
 62
     7
 10
150.4939930364
 20
129.7109702309
 30
0.0
 11
149.9939930364
 21
130.2109702309
 31
0.0
  0
LINE
  5
2A1
  8
0
  6
CONTINUOUS
 62
     7
 10
150.4939930364
 20
129.7109702309
 30
0.0
 11
147.9939930364
 21
129.7109702309
 31
0.0
  0
LINE
  5
2A2
  8
0
  6
CONTINUOUS
 62
     7
 10
95.9939930364
 20
129.7109702309
 30
0.0
 11
95.4939930364
 21
130.2109702309
 31
0.0
  0
LINE
  5
2A3
  8
0
  6
CONTINUOUS
 62
     7
 10
143.9939930364
 20
130.2109702309
 30
0.0
 11
143.4939930364
 21
129.7109702309
 31
0.0
  0
LINE
  5
2A4
  8
0
  6
CONTINUOUS
 62
     7
 10
143.9939930364
 20
130.2109702309
 30
0.0
 11
145.9939930364
 21
130.2109702309
 31
0.0
  0
LINE
  5
2A5
  8
0
  6
CONTINUOUS
 62
     7
 10
145.9939930364
 20
129.7109702309
 30
0.0
 11
143.4939930364
 21
129.7109702309
 31
0.0
  0
LINE
  5
2A6
  8
0
  6
CONTINUOUS
 62
     7
 10
106.4939930364
 20
129.7109702309
 30
0.0
 11
105.9939930364
 21
130.2109702309
 31
0.0
  0
LINE
  5
2A7
  8
0
  6
CONTINUOUS
 62
     7
 10
101.9939930364
 20
130.2109702309
 30
0.0
 11
101.4939930364
 21
129.7109702309
 31
0.0
  0
LINE
  5
2A8
  8
0
  6
CONTINUOUS
 62
     7
 10
101.9939930364
 20
130.2109702309
 30
0.0
 11
105.9939930364
 21
130.2109702309
 31
0.0
  0
LINE
  5
2A9
  8
0
  6
CONTINUOUS
 62
     7
 10
106.4939930364
 20
129.7109702309
 30
0.0
 11
101.4939930364
 21
129.7109702309
 31
0.0
  0
LINE
  5
2AA
  8
0
  6
CONTINUOUS
 62
     7
 10
95.4939930364
 20
130.2109702309
 30
0.0
 11
95.4939930364
 21
137.2109702309
 31
0.0
  0
LINE
  5
2AB
  8
0
  6
CONTINUOUS
 62
     7
 10
95.4939930364
 20
137.2109702309
 30
0.0
 11
95.9939930364
 21
137.7109702309
 31
0.0
  0
LINE
  5
2AC
  8
0
  6
CONTINUOUS
 62
     7
 10
112.4939930364
 20
137.7109702309
 30
0.0
 11
95.9939930364
 21
137.7109702309
 31
0.0
  0
LINE
  5
2AD
  8
0
  6
CONTINUOUS
 62
     7
 10
112.4939930364
 20
137.7109702309
 30
0.0
 11
115.4939930364
 21
134.7109702309
 31
0.0
  0
LINE
  5
2AE
  8
0
  6
CONTINUOUS
 62
     7
 10
115.4939930364
 20
130.2109702309
 30
0.0
 11
115.4939930364
 21
134.7109702309
 31
0.0
  0
LINE
  5
2AF
  8
0
  6
CONTINUOUS
 62
     7
 10
105.9939930364
 20
133.7109702309
 30
0.0
 11
105.9939930364
 21
130.2109702309
 31
0.0
  0
LINE
  5
2B0
  8
0
  6
CONTINUOUS
 62
     7
 10
105.9939930364
 20
133.7109702309
 30
0.0
 11
101.9939930364
 21
133.7109702309
 31
0.0
  0
LINE
  5
2B1
  8
0
  6
CONTINUOUS
 62
     7
 10
101.9939930364
 20
130.2109702309
 30
0.0
 11
101.9939930364
 21
133.7109702309
 31
0.0
  0
LINE
  5
2B2
  8
0
  6
CONTINUOUS
 62
     7
 10
101.4939930364
 20
129.7109702309
 30
0.0
 11
95.9939930364
 21
129.7109702309
 31
0.0
  0
LINE
  5
2B3
  8
0
  6
CONTINUOUS
 62
     7
 10
114.9939930364
 20
129.7109702309
 30
0.0
 11
106.4939930364
 21
129.7109702309
 31
0.0
  0
LINE
  5
2B4
  8
0
  6
CONTINUOUS
 62
     7
 10
160.4939930364
 20
130.2109702309
 30
0.0
 11
159.9939930364
 21
129.7109702309
 31
0.0
  0
LINE
  5
2B5
  8
0
  6
CONTINUOUS
 62
     7
 10
160.4939930364
 20
130.2109702309
 30
0.0
 11
162.4939930364
 21
130.2109702309
 31
0.0
  0
LINE
  5
2B6
  8
0
  6
CONTINUOUS
 62
     7
 10
162.4939930364
 20
129.7109702309
 30
0.0
 11
159.9939930364
 21
129.7109702309
 31
0.0
  0
LINE
  5
2B7
  8
0
  6
CONTINUOUS
 62
     7
 10
179.2439930364
 20
129.7109702309
 30
0.0
 11
179.2439930364
 21
137.7109702309
 31
0.0
  0
LINE
  5
2B8
  8
0
  6
CONTINUOUS
 62
     7
 10
181.7439930364
 20
137.7109702309
 30
0.0
 11
179.2439930364
 21
137.7109702309
 31
0.0
  0
LINE
  5
2B9
  8
0
  6
CONTINUOUS
 62
     7
 10
181.7439930364
 20
129.7109702309
 30
0.0
 11
179.2439930364
 21
129.7109702309
 31
0.0
  0
LINE
  5
2BA
  8
0
  6
CONTINUOUS
 62
     7
 10
156.7439930364
 20
137.7109702309
 30
0.0
 11
156.7439930364
 21
129.7109702309
 31
0.0
  0
LINE
  5
2BB
  8
0
  6
CONTINUOUS
 62
     7
 10
159.9939930364
 20
137.7109702309
 30
0.0
 11
156.7439930364
 21
137.7109702309
 31
0.0
  0
LINE
  5
2BC
  8
0
  6
CONTINUOUS
 62
     7
 10
159.9939930364
 20
137.7109702309
 30
0.0
 11
160.4939930364
 21
137.2109702309
 31
0.0
  0
LINE
  5
2BD
  8
0
  6
CONTINUOUS
 62
     7
 10
160.4939930364
 20
130.2109702309
 30
0.0
 11
160.4939930364
 21
137.2109702309
 31
0.0
  0
LINE
  5
2BE
  8
0
  6
CONTINUOUS
 62
     7
 10
159.9939930364
 20
129.7109702309
 30
0.0
 11
156.7439930364
 21
129.7109702309
 31
0.0
  0
LINE
  5
2BF
  8
0
  6
CONTINUOUS
 62
     7
 10
154.2439930364
 20
129.7109702309
 30
0.0
 11
154.2439930364
 21
137.7109702309
 31
0.0
  0
LINE
  5
2C0
  8
0
  6
CONTINUOUS
 62
     7
 10
156.7439930364
 20
137.7109702309
 30
0.0
 11
154.2439930364
 21
137.7109702309
 31
0.0
  0
LINE
  5
2C1
  8
0
  6
CONTINUOUS
 62
     7
 10
156.7439930364
 20
129.7109702309
 30
0.0
 11
154.2439930364
 21
129.7109702309
 31
0.0
  0
LINE
  5
2C2
  8
0
  6
CONTINUOUS
 62
     7
 10
149.9939930364
 20
133.7109702309
 30
0.0
 11
149.9939930364
 21
130.2109702309
 31
0.0
  0
LINE
  5
2C3
  8
0
  6
CONTINUOUS
 62
     7
 10
149.9939930364
 20
133.7109702309
 30
0.0
 11
143.9939930364
 21
133.7109702309
 31
0.0
  0
LINE
  5
2C4
  8
0
  6
CONTINUOUS
 62
     7
 10
143.9939930364
 20
130.2109702309
 30
0.0
 11
143.9939930364
 21
133.7109702309
 31
0.0
  0
LINE
  5
2C5
  8
0
  6
CONTINUOUS
 62
     7
 10
135.4939930364
 20
134.7109702309
 30
0.0
 11
135.4939930364
 21
130.2109702309
 31
0.0
  0
LINE
  5
2C6
  8
0
  6
CONTINUOUS
 62
     7
 10
135.4939930364
 20
134.7109702309
 30
0.0
 11
138.4939930364
 21
137.7109702309
 31
0.0
  0
LINE
  5
2C7
  8
0
  6
CONTINUOUS
 62
     7
 10
154.2439930364
 20
137.7109702309
 30
0.0
 11
138.4939930364
 21
137.7109702309
 31
0.0
  0
LINE
  5
2C8
  8
0
  6
CONTINUOUS
 62
     7
 10
143.4939930364
 20
129.7109702309
 30
0.0
 11
135.9939930364
 21
129.7109702309
 31
0.0
  0
LINE
  5
2C9
  8
0
  6
CONTINUOUS
 62
     7
 10
154.2439930364
 20
129.7109702309
 30
0.0
 11
150.4939930364
 21
129.7109702309
 31
0.0
  0
LINE
  5
2CA
  8
0
  6
CONTINUOUS
 62
     7
 10
166.4939930364
 20
137.2109702309
 30
0.0
 11
166.4939930364
 21
130.2109702309
 31
0.0
  0
LINE
  5
2CB
  8
0
  6
CONTINUOUS
 62
     7
 10
166.4939930364
 20
137.2109702309
 30
0.0
 11
166.9939930364
 21
137.7109702309
 31
0.0
  0
LINE
  5
2CC
  8
0
  6
CONTINUOUS
 62
     7
 10
179.2439930364
 20
137.7109702309
 30
0.0
 11
166.9939930364
 21
137.7109702309
 31
0.0
  0
LINE
  5
2CD
  8
0
  6
CONTINUOUS
 62
     7
 10
179.2439930364
 20
129.7109702309
 30
0.0
 11
166.9939930364
 21
129.7109702309
 31
0.0
  0
LINE
  5
2CE
  8
0
  6
CONTINUOUS
 62
     7
 10
135.4939930364
 20
134.7109702309
 30
0.0
 11
115.4939930364
 21
134.7109702309
 31
0.0
  0
LINE
  5
2CF
  8
0
  6
CONTINUOUS
 62
     7
 10
162.4939930364
 20
137.2109702309
 30
0.0
 11
160.4939930364
 21
137.2109702309
 31
0.0
  0
LINE
  5
2D0
  8
0
  6
CONTINUOUS
 62
     7
 10
166.4939930364
 20
137.2109702309
 30
0.0
 11
164.4939930364
 21
137.2109702309
 31
0.0
  0
LINE
  5
2D1
  8
0
  6
CONTINUOUS
 62
     7
 10
213.3139994303
 20
131.7109702309
 30
0.0
 11
213.1164926264
 21
132.2109702309
 31
0.0
  0
LINE
  5
2D2
  8
0
  6
CONTINUOUS
 62
     7
 10
194.4439930364
 20
132.2109702309
 30
0.0
 11
213.1164926264
 21
132.2109702309
 31
0.0
  0
LINE
  5
2D3
  8
0
  6
CONTINUOUS
 62
     7
 10
213.3139994303
 20
131.7109702309
 30
0.0
 11
193.9439930364
 21
131.7109702309
 31
0.0
  0
LINE
  5
2D4
  8
0
  6
CONTINUOUS
 62
     7
 10
213.1164926264
 20
137.2109702309
 30
0.0
 11
194.4439930364
 21
137.2109702309
 31
0.0
  0
LINE
  5
2D5
  8
0
  6
CONTINUOUS
 62
     7
 10
213.1164926264
 20
137.2109702309
 30
0.0
 11
213.1164926264
 21
132.2109702309
 31
0.0
  0
LINE
  5
2D6
  8
0
  6
CONTINUOUS
 62
     7
 10
112.4939930364
 20
137.7109702309
 30
0.0
 11
138.4939930364
 21
137.7109702309
 31
0.0
  0
LINE
  5
2D7
  8
0
  6
CONTINUOUS
 62
     7
 10
164.4939930364
 20
137.7109702309
 30
0.0
 11
166.9939930364
 21
137.7109702309
 31
0.0
  0
LINE
  5
2D8
  8
0
  6
CONTINUOUS
 62
     7
 10
213.1164926264
 20
137.2109702309
 30
0.0
 11
213.3139994303
 21
137.7109702309
 31
0.0
  0
LINE
  5
2D9
  8
0
  6
CONTINUOUS
 62
     7
 10
193.9439930364
 20
137.7109702309
 30
0.0
 11
213.3139994303
 21
137.7109702309
 31
0.0
  0
LINE
  5
2DA
  8
0
  6
CONTINUOUS
 62
     7
 10
159.9939930364
 20
137.7109702309
 30
0.0
 11
162.4939930364
 21
137.7109702309
 31
0.0
  0
LINE
  5
2DB
  8
0
  6
CONTINUOUS
 62
     7
 10
145.9939930364
 20
130.2109702309
 30
0.0
 11
147.9939930364
 21
130.2109702309
 31
0.0
  0
LINE
  5
2DC
  8
0
  6
CONTINUOUS
 62
     7
 10
147.9939930364
 20
129.7109702309
 30
0.0
 11
145.9939930364
 21
129.7109702309
 31
0.0
  0
LINE
  5
2DD
  8
0
  6
CONTINUOUS
 62
     7
 10
162.4939930364
 20
130.2109702309
 30
0.0
 11
164.4939930364
 21
130.2109702309
 31
0.0
  0
LINE
  5
2DE
  8
0
  6
CONTINUOUS
 62
     7
 10
164.4939930364
 20
129.7109702309
 30
0.0
 11
162.4939930364
 21
129.7109702309
 31
0.0
  0
LINE
  5
2DF
  8
0
  6
CONTINUOUS
 62
     7
 10
164.4939930364
 20
137.2109702309
 30
0.0
 11
162.4939930364
 21
137.2109702309
 31
0.0
  0
LINE
  5
2E0
  8
0
  6
CONTINUOUS
 62
     7
 10
162.4939930364
 20
137.7109702309
 30
0.0
 11
164.4939930364
 21
137.7109702309
 31
0.0
  0
LINE
  5
2E1
  8
0
  6
CONTINUOUS
 62
     7
 10
219.9939930364
 20
131.7109702309
 30
0.0
 11
219.9939930364
 21
132.2109702309
 31
0.0
  0
LINE
  5
2E2
  8
0
  6
CONTINUOUS
 62
     7
 10
220.4939930364
 20
132.2109702309
 30
0.0
 11
219.9939930364
 21
132.2109702309
 31
0.0
  0
LINE
  5
2E3
  8
0
  6
CONTINUOUS
 62
     7
 10
220.4939930364
 20
132.2109702309
 30
0.0
 11
219.9939930364
 21
131.7109702309
 31
0.0
  0
LINE
  5
2E4
  8
0
  6
CONTINUOUS
 62
     7
 10
213.1164926264
 20
132.2109702309
 30
0.0
 11
219.9939930364
 21
132.2109702309
 31
0.0
  0
LINE
  5
2E5
  8
0
  6
CONTINUOUS
 62
     7
 10
219.9939930364
 20
131.7109702309
 30
0.0
 11
213.3139994303
 21
131.7109702309
 31
0.0
  0
LINE
  5
2E6
  8
0
  6
CONTINUOUS
 62
     7
 10
219.9939930364
 20
137.2109702309
 30
0.0
 11
213.1164926264
 21
137.2109702309
 31
0.0
  0
LINE
  5
2E7
  8
0
  6
CONTINUOUS
 62
     7
 10
219.9939930364
 20
132.2109702309
 30
0.0
 11
219.9939930364
 21
137.2109702309
 31
0.0
  0
LINE
  5
2E8
  8
0
  6
CONTINUOUS
 62
     7
 10
220.4939930364
 20
137.2109702309
 30
0.0
 11
220.4939930364
 21
132.2109702309
 31
0.0
  0
LINE
  5
2E9
  8
0
  6
CONTINUOUS
 62
     7
 10
220.4939930364
 20
137.2109702309
 30
0.0
 11
219.9939930364
 21
137.2109702309
 31
0.0
  0
LINE
  5
2EA
  8
0
  6
CONTINUOUS
 62
     7
 10
219.9939930364
 20
137.2109702309
 30
0.0
 11
219.9939930364
 21
137.7109702309
 31
0.0
  0
LINE
  5
2EB
  8
0
  6
CONTINUOUS
 62
     7
 10
220.4939930364
 20
137.2109702309
 30
0.0
 11
219.9939930364
 21
137.7109702309
 31
0.0
  0
LINE
  5
2EC
  8
0
  6
CONTINUOUS
 62
     7
 10
213.3139994303
 20
137.7109702309
 30
0.0
 11
219.9939930364
 21
137.7109702309
 31
0.0
  0
LINE
  5
2ED
  8
0
  6
CONTINUOUS
 62
     7
 10
190.4939930364
 20
130.2109702309
 30
0.0
 11
193.9939930364
 21
130.2109702309
 31
0.0
  0
LINE
  5
2EE
  8
0
  6
CONTINUOUS
 62
     7
 10
193.9939930364
 20
129.7109702309
 30
0.0
 11
189.9939930364
 21
129.7109702309
 31
0.0
  0
LINE
  5
2EF
  8
0
  6
CONTINUOUS
 62
     7
 10
193.9939930364
 20
130.2109702309
 30
0.0
 11
219.9939930364
 21
130.2109702309
 31
0.0
  0
LINE
  5
2F0
  8
0
  6
CONTINUOUS
 62
     7
 10
219.9939930364
 20
129.7109702309
 30
0.0
 11
219.9939930364
 21
130.2109702309
 31
0.0
  0
LINE
  5
2F1
  8
0
  6
CONTINUOUS
 62
     7
 10
219.9939930364
 20
129.7109702309
 30
0.0
 11
193.9939930364
 21
129.7109702309
 31
0.0
  0
LINE
  5
2F2
  8
0
  6
CONTINUOUS
 62
     7
 10
220.4939930364
 20
130.2109702309
 30
0.0
 11
219.9939930364
 21
130.2109702309
 31
0.0
  0
LINE
  5
2F3
  8
0
  6
CONTINUOUS
 62
     7
 10
219.9939930364
 20
129.7109702309
 30
0.0
 11
220.4939930364
 21
130.2109702309
 31
0.0
  0
LINE
  5
2F4
  8
0
  6
CONTINUOUS
 62
     7
 10
219.9939930364
 20
130.2109702309
 30
0.0
 11
219.9939930364
 21
131.7109702309
 31
0.0
  0
LINE
  5
2F5
  8
0
  6
CONTINUOUS
 62
     7
 10
220.4939930364
 20
132.2109702309
 30
0.0
 11
220.4939930364
 21
130.2109702309
 31
0.0
  0
DIMENSION
  5
2F6
  8
DIM
  2
_D_16
 10
105.9939930364
 20
115.3415649539
 30
0.0
 11
85.4939930364
 21
115.3415649539
 31
0.0
 70
   160
  1
%%c<>H8
  3
SLDDIMSTYLE3
 13
101.9939930364
 23
130.2109702309
 33
0.0
 14
105.9939930364
 24
130.2109702309
 34
0.0
  0
DIMENSION
  5
30A
  8
DIM
  2
_D_17
 10
85.4939930364
 20
133.7109702309
 30
0.0
 11
85.4939930364
 21
131.7109702309
 31
0.0
 70
   160
  1
<>
  3
SLDDIMSTYLE0
 13
95.9939930364
 23
129.7109702309
 33
0.0
 14
101.9939930364
 24
133.7109702309
 34
0.0
 50
90.0
  0
DIMENSION
  5
316
  8
DIM
  2
_D_18
 10
138.9416369019
 20
133.7109702309
 30
0.0
 11
138.9416369019
 21
123.2720007646
 31
0.0
 70
   160
  1
<>
  3
SLDDIMSTYLE0
 13
135.9939930364
 23
129.7109702309
 33
0.0
 14
143.9939930364
 24
133.7109702309
 34
0.0
 50
90.0
  0
DIMENSION
  5
321
  8
DIM
  2
_D_19
 10
230.4939930364
 20
129.7109702309
 30
0.0
 11
230.4939930364
 21
130.7109702309
 31
0.0
 70
   160
  1
<>
  3
SLDDIMSTYLE0
 13
219.9939930364
 23
131.7109702309
 33
0.0
 14
193.9939930364
 24
129.7109702309
 34
0.0
 50
90.0
  0
TEXT
  5
32D
  8
0
  6
CONTINUOUS
 62
     7
 10
154.9387846738
 20
147.0487694527
 30
0.0
 40
3.5
  1
A-A
 41
0.7
 11
154.9387846738
 21
145.812359236
 31
0.0
 73
     1
  0
LINE
  5
32E
  8
0
  6
CONTINUOUS
 62
     7
 10
156.9939930364
 20
137.7109702309
 30
0.0
 11
156.9939930364
 21
129.7109702309
 31
0.0
  0
LINE
  5
32F
  8
0
  6
CONTINUOUS
 62
     7
 10
153.9939930364
 20
137.7109702309
 30
0.0
 11
153.9939930364
 21
129.7109702309
 31
0.0
  0
LINE
  5
330
  8
0
  6
CONTINUOUS
 62
     7
 10
181.9939930364
 20
137.7109702309
 30
0.0
 11
181.9939930364
 21
129.7109702309
 31
0.0
  0
LINE
  5
331
  8
0
  6
CONTINUOUS
 62
     7
 10
178.9939930364
 20
137.7109702309
 30
0.0
 11
178.9939930364
 21
129.7109702309
 31
0.0
  0
LINE
  5
332
  8
DIM
  6
CENTERX2
 10
103.9939930364
 20
138.7109702309
 30
0.0
 11
103.9939930364
 21
125.2109702309
 31
0.0
  0
LINE
  5
333
  8
DIM
  6
CENTERX2
 10
146.9939930364
 20
138.7109702309
 30
0.0
 11
146.9939930364
 21
125.2109702309
 31
0.0
  0
CIRCLE
  5
334
  8
0
  6
CONTINUOUS
 62
     7
 10
106.874446855
 20
57.5220997026
 30
0.0
 40
1.700000000000003
  0
CIRCLE
  5
335
  8
0
  6
CONTINUOUS
 62
     7
 10
106.874446855
 20
79.0220997026
 30
0.0
 40
1.700000000000003
  0
CIRCLE
  5
336
  8
0
  6
CONTINUOUS
 62
     7
 10
125.4939930364
 20
89.7720997026
 30
0.0
 40
1.700000000000003
  0
CIRCLE
  5
337
  8
0
  6
CONTINUOUS
 62
     7
 10
144.1135392178
 20
79.0220997026
 30
0.0
 40
1.699999999999989
  0
CIRCLE
  5
338
  8
0
  6
CONTINUOUS
 62
     7
 10
144.1135392178
 20
57.5220997026
 30
0.0
 40
1.699999999999989
  0
CIRCLE
  5
339
  8
0
  6
CONTINUOUS
 62
     7
 10
125.4939930364
 20
46.7720997026
 30
0.0
 40
1.699999999999989
  0
CIRCLE
  5
33A
  8
0
  6
CONTINUOUS
 62
     7
 10
210.4939930364
 20
46.2720997026
 30
0.0
 40
1.249999999999972
  0
CIRCLE
  5
33B
  8
0
  6
CONTINUOUS
 62
     7
 10
185.4939930364
 20
46.2720997026
 30
0.0
 40
1.25
  0
LINE
  5
33C
  8
0
  6
CONTINUOUS
 62
     7
 10
219.9939930364
 20
52.7720997026
 30
0.0
 11
193.9939930364
 21
52.7720997026
 31
0.0
  0
LINE
  5
33D
  8
0
  6
CONTINUOUS
 62
     7
 10
219.9939930364
 20
41.4792064838
 30
0.0
 11
219.9939930364
 21
52.7720997026
 31
0.0
  0
LINE
  5
33E
  8
0
  6
CONTINUOUS
 62
     7
 10
217.2868862552
 20
38.7720997026
 30
0.0
 11
219.9939930364
 21
41.4792064838
 31
0.0
  0
LINE
  5
33F
  8
0
  6
CONTINUOUS
 62
     7
 10
125.4939930364
 20
38.7720997026
 30
0.0
 11
217.2868862552
 21
38.7720997026
 31
0.0
  0
ARC
  5
340
  8
0
  6
CONTINUOUS
 62
     7
 10
125.4939930364
 20
68.2720997026
 30
0.0
 40
29.5
 50
90.0
 51
270.0
  0
LINE
  5
341
  8
0
  6
CONTINUOUS
 62
     7
 10
217.2868862552
 20
97.7720997026
 30
0.0
 11
125.4939930364
 21
97.7720997026
 31
0.0
  0
LINE
  5
342
  8
0
  6
CONTINUOUS
 62
     7
 10
219.9939930364
 20
95.0649929214
 30
0.0
 11
217.2868862552
 21
97.7720997026
 31
0.0
  0
LINE
  5
343
  8
0
  6
CONTINUOUS
 62
     7
 10
219.9939930364
 20
83.7720997026
 30
0.0
 11
219.9939930364
 21
95.0649929214
 31
0.0
  0
LINE
  5
344
  8
0
  6
CONTINUOUS
 62
     7
 10
193.9939930364
 20
83.7720997026
 30
0.0
 11
219.9939930364
 21
83.7720997026
 31
0.0
  0
ARC
  5
345
  8
0
  6
CONTINUOUS
 62
     7
 10
193.9939930364
 20
79.7720997026
 30
0.0
 40
4.0
 50
90.0
 51
180.0
  0
LINE
  5
346
  8
0
  6
CONTINUOUS
 62
     7
 10
189.9939930364
 20
56.7720997026
 30
0.0
 11
189.9939930364
 21
79.7720997026
 31
0.0
  0
ARC
  5
347
  8
0
  6
CONTINUOUS
 62
     7
 10
193.9939930364
 20
56.7720997026
 30
0.0
 40
4.0
 50
180.0
 51
270.0
  0
LINE
  5
348
  8
0
  6
CONTINUOUS
 62
     7
 10
164.4939930364
 20
65.7720997026
 30
0.0
 11
162.4939930364
 21
65.7720997026
 31
0.0
  0
ARC
  5
349
  8
0
  6
CONTINUOUS
 62
     7
 10
164.4939930364
 20
68.2720997026
 30
0.0
 40
2.500000000000014
 50
270.0
 51
90.0
  0
LINE
  5
34A
  8
0
  6
CONTINUOUS
 62
     7
 10
162.4939930364
 20
70.7720997026
 30
0.0
 11
164.4939930364
 21
70.7720997026
 31
0.0
  0
ARC
  5
34B
  8
0
  6
CONTINUOUS
 62
     7
 10
162.4939930364
 20
68.2720997026
 30
0.0
 40
2.500000000000014
 50
90.0
 51
270.0
  0
CIRCLE
  5
34C
  8
0
  6
CONTINUOUS
 62
     7
 10
125.4939930364
 20
68.2720997026
 30
0.0
 40
10.49999999999997
  0
LINE
  5
34D
  8
0
  6
CONTINUOUS
 62
     7
 10
147.9939930364
 20
65.7720997026
 30
0.0
 11
145.9939930364
 21
65.7720997026
 31
0.0
  0
ARC
  5
34E
  8
0
  6
CONTINUOUS
 62
     7
 10
147.9939930364
 20
68.2720997026
 30
0.0
 40
2.500000000000014
 50
270.0
 51
90.0
  0
LINE
  5
34F
  8
0
  6
CONTINUOUS
 62
     7
 10
145.9939930364
 20
70.7720997026
 30
0.0
 11
147.9939930364
 21
70.7720997026
 31
0.0
  0
ARC
  5
350
  8
0
  6
CONTINUOUS
 62
     7
 10
145.9939930364
 20
68.2720997026
 30
0.0
 40
2.500000000000014
 50
90.0
 51
270.0
  0
CIRCLE
  5
351
  8
0
  6
CONTINUOUS
 62
     7
 10
103.9939930364
 20
68.2720997026
 30
0.0
 40
2.500000000000014
  0
CIRCLE
  5
352
  8
0
  6
CONTINUOUS
 62
     7
 10
155.4939930364
 20
68.2720997026
 30
0.0
 40
1.25
  0
CIRCLE
  5
353
  8
0
  6
CONTINUOUS
 62
     7
 10
180.4939930364
 20
68.2720997026
 30
0.0
 40
1.250000000000028
  0
CIRCLE
  5
354
  8
0
  6
CONTINUOUS
 62
     7
 10
210.4939930364
 20
90.2720997026
 30
0.0
 40
1.249999999999972
  0
CIRCLE
  5
355
  8
0
  6
CONTINUOUS
 62
     7
 10
185.4939930364
 20
90.2720997026
 30
0.0
 40
1.25
  0
CIRCLE
  5
356
  8
0
  6
CONTINUOUS
 62
     7
 10
160.4939930364
 20
90.2720997026
 30
0.0
 40
1.25
  0
CIRCLE
  5
357
  8
0
  6
CONTINUOUS
 62
     7
 10
160.4939930364
 20
46.2720997026
 30
0.0
 40
1.25
  0
ARC
  5
358
  8
0
  6
CONTINUOUS
 62
     7
 10
193.9939930364
 20
56.7720997026
 30
0.0
 40
3.5
 50
180.0
 51
270.0
  0
LINE
  5
359
  8
0
  6
CONTINUOUS
 62
     7
 10
190.4939930364
 20
79.7720997026
 30
0.0
 11
190.4939930364
 21
56.7720997026
 31
0.0
  0
ARC
  5
35A
  8
0
  6
CONTINUOUS
 62
     7
 10
193.9939930364
 20
79.7720997026
 30
0.0
 40
3.5
 50
90.0
 51
180.0
  0
LINE
  5
35B
  8
0
  6
CONTINUOUS
 62
     7
 10
219.9939930364
 20
83.2720997026
 30
0.0
 11
193.9939930364
 21
83.2720997026
 31
0.0
  0
LINE
  5
35C
  8
0
  6
CONTINUOUS
 62
     7
 10
219.9939930364
 20
83.2720997026
 30
0.0
 11
219.9939930364
 21
83.7720997026
 31
0.0
  0
LINE
  5
35D
  8
0
  6
CONTINUOUS
 62
     7
 10
145.9939930364
 20
66.2720997026
 30
0.0
 11
147.9939930364
 21
66.2720997026
 31
0.0
  0
ARC
  5
35E
  8
0
  6
CONTINUOUS
 62
     7
 10
147.9939930364
 20
68.2720997026
 30
0.0
 40
2.000000000000014
 50
270.0
 51
90.0
  0
LINE
  5
35F
  8
0
  6
CONTINUOUS
 62
     7
 10
147.9939930364
 20
70.2720997026
 30
0.0
 11
145.9939930364
 21
70.2720997026
 31
0.0
  0
CIRCLE
  5
360
  8
0
  6
CONTINUOUS
 62
     7
 10
125.4939930364
 20
68.2720997026
 30
0.0
 40
10.0
  0
LINE
  5
361
  8
0
  6
CONTINUOUS
 62
     7
 10
217.4939930364
 20
38.2720997026
 30
0.0
 11
125.4939930364
 21
38.2720997026
 31
0.0
  0
LINE
  5
362
  8
0
  6
CONTINUOUS
 62
     7
 10
217.4939930364
 20
38.2720997026
 30
0.0
 11
217.2868862552
 21
38.7720997026
 31
0.0
  0
ARC
  5
363
  8
0
  6
CONTINUOUS
 62
     7
 10
162.4939930364
 20
68.2720997026
 30
0.0
 40
2.000000000000014
 50
90.0
 51
270.0
  0
LINE
  5
364
  8
0
  6
CONTINUOUS
 62
     7
 10
164.4939930364
 20
70.2720997026
 30
0.0
 11
162.4939930364
 21
70.2720997026
 31
0.0
  0
ARC
  5
365
  8
0
  6
CONTINUOUS
 62
     7
 10
145.9939930364
 20
68.2720997026
 30
0.0
 40
2.000000000000014
 50
90.0
 51
270.0
  0
LINE
  5
366
  8
0
  6
CONTINUOUS
 62
     7
 10
219.9939930364
 20
52.7720997026
 30
0.0
 11
220.4939930364
 21
52.7720997026
 31
0.0
  0
LINE
  5
367
  8
0
  6
CONTINUOUS
 62
     7
 10
220.4939930364
 20
52.7720997026
 30
0.0
 11
220.4939930364
 21
41.2720997026
 31
0.0
  0
LINE
  5
368
  8
0
  6
CONTINUOUS
 62
     7
 10
219.9939930364
 20
41.4792064838
 30
0.0
 11
220.4939930364
 21
41.2720997026
 31
0.0
  0
CIRCLE
  5
369
  8
0
  6
CONTINUOUS
 62
     7
 10
103.9939930364
 20
68.2720997026
 30
0.0
 40
2.0
  0
LINE
  5
36A
  8
0
  6
CONTINUOUS
 62
     7
 10
219.9939930364
 20
52.7720997026
 30
0.0
 11
219.9939930364
 21
53.2720997026
 31
0.0
  0
LINE
  5
36B
  8
0
  6
CONTINUOUS
 62
     7
 10
220.4939930364
 20
52.7720997026
 30
0.0
 11
219.9939930364
 21
53.2720997026
 31
0.0
  0
LINE
  5
36C
  8
0
  6
CONTINUOUS
 62
     7
 10
125.4939930364
 20
98.2720997026
 30
0.0
 11
217.4939930364
 21
98.2720997026
 31
0.0
  0
LINE
  5
36D
  8
0
  6
CONTINUOUS
 62
     7
 10
217.4939930364
 20
98.2720997026
 30
0.0
 11
217.2868862552
 21
97.7720997026
 31
0.0
  0
LINE
  5
36E
  8
0
  6
CONTINUOUS
 62
     7
 10
162.4939930364
 20
66.2720997026
 30
0.0
 11
164.4939930364
 21
66.2720997026
 31
0.0
  0
LINE
  5
36F
  8
0
  6
CONTINUOUS
 62
     7
 10
193.9939930364
 20
53.2720997026
 30
0.0
 11
219.9939930364
 21
53.2720997026
 31
0.0
  0
LINE
  5
370
  8
0
  6
CONTINUOUS
 62
     7
 10
217.4939930364
 20
98.2720997026
 30
0.0
 11
220.4939930364
 21
95.2720997026
 31
0.0
  0
LINE
  5
371
  8
0
  6
CONTINUOUS
 62
     7
 10
220.4939930364
 20
95.2720997026
 30
0.0
 11
219.9939930364
 21
95.0649929214
 31
0.0
  0
ARC
  5
372
  8
0
  6
CONTINUOUS
 62
     7
 10
125.4939930364
 20
68.2720997026
 30
0.0
 40
30.0
 50
90.0
 51
270.0
  0
ARC
  5
373
  8
0
  6
CONTINUOUS
 62
     7
 10
164.4939930364
 20
68.2720997026
 30
0.0
 40
2.000000000000014
 50
270.0
 51
90.0
  0
LINE
  5
374
  8
0
  6
CONTINUOUS
 62
     7
 10
220.4939930364
 20
95.2720997026
 30
0.0
 11
220.4939930364
 21
83.7720997026
 31
0.0
  0
LINE
  5
375
  8
0
  6
CONTINUOUS
 62
     7
 10
220.4939930364
 20
83.7720997026
 30
0.0
 11
219.9939930364
 21
83.7720997026
 31
0.0
  0
LINE
  5
376
  8
0
  6
CONTINUOUS
 62
     7
 10
220.4939930364
 20
41.2720997026
 30
0.0
 11
217.4939930364
 21
38.2720997026
 31
0.0
  0
LINE
  5
377
  8
0
  6
CONTINUOUS
 62
     7
 10
219.9939930364
 20
83.2720997026
 30
0.0
 11
220.4939930364
 21
83.7720997026
 31
0.0
  0
LINE
  5
378
  8
0
  6
CONTINUOUS
 62
     7
 10
219.9939930364
 20
76.7720997026
 30
0.0
 11
219.9939930364
 21
83.2720997026
 31
0.0
  0
LINE
  5
379
  8
0
  6
CONTINUOUS
 62
     7
 10
213.3139994303
 20
76.7720997026
 30
0.0
 11
219.9939930364
 21
76.7720997026
 31
0.0
  0
ARC
  5
37A
  8
0
  6
CONTINUOUS
 62
     7
 10
205.4939930364
 20
68.2720997026
 30
0.0
 40
11.55000000000001
 50
47.3859206882
 51
312.6140793118
  0
LINE
  5
37B
  8
0
  6
CONTINUOUS
 62
     7
 10
219.9939930364
 20
59.7720997026
 30
0.0
 11
213.3139994303
 21
59.7720997026
 31
0.0
  0
LINE
  5
37C
  8
0
  6
CONTINUOUS
 62
     7
 10
219.9939930364
 20
53.2720997026
 30
0.0
 11
219.9939930364
 21
59.7720997026
 31
0.0
  0
CIRCLE
  5
37D
  8
0
  6
CONTINUOUS
 62
     7
 10
216.9939930364
 20
56.7720997026
 30
0.0
 40
1.450000000000017
  0
CIRCLE
  5
37E
  8
0
  6
CONTINUOUS
 62
     7
 10
193.9939930364
 20
79.7720997026
 30
0.0
 40
1.449999999999989
  0
CIRCLE
  5
37F
  8
0
  6
CONTINUOUS
 62
     7
 10
216.9939930364
 20
79.7720997026
 30
0.0
 40
1.450000000000017
  0
CIRCLE
  5
380
  8
0
  6
CONTINUOUS
 62
     7
 10
193.9939930364
 20
56.7720997026
 30
0.0
 40
1.449999999999989
  0
LINE
  5
381
  8
0
  6
CONTINUOUS
 62
     7
 10
213.3139994303
 20
59.7720997026
 30
0.0
 11
213.1164926264
 21
60.2720997026
 31
0.0
  0
LINE
  5
382
  8
0
  6
CONTINUOUS
 62
     7
 10
213.1164926264
 20
60.2720997026
 30
0.0
 11
219.9939930364
 21
60.2720997026
 31
0.0
  0
LINE
  5
383
  8
0
  6
CONTINUOUS
 62
     7
 10
219.9939930364
 20
59.7720997026
 30
0.0
 11
219.9939930364
 21
60.2720997026
 31
0.0
  0
LINE
  5
384
  8
0
  6
CONTINUOUS
 62
     7
 10
213.3139994303
 20
76.7720997026
 30
0.0
 11
213.1164926264
 21
76.2720997026
 31
0.0
  0
ARC
  5
385
  8
0
  6
CONTINUOUS
 62
     7
 10
205.4939930364
 20
68.2720997026
 30
0.0
 40
11.05000000000002
 50
46.3842197205
 51
313.6157802795
  0
LINE
  5
386
  8
0
  6
CONTINUOUS
 62
     7
 10
219.9939930364
 20
76.7720997026
 30
0.0
 11
220.4939930364
 21
76.7720997026
 31
0.0
  0
LINE
  5
387
  8
0
  6
CONTINUOUS
 62
     7
 10
219.9939930364
 20
76.2720997026
 30
0.0
 11
220.4939930364
 21
76.7720997026
 31
0.0
  0
LINE
  5
388
  8
0
  6
CONTINUOUS
 62
     7
 10
219.9939930364
 20
76.7720997026
 30
0.0
 11
219.9939930364
 21
76.2720997026
 31
0.0
  0
LINE
  5
389
  8
0
  6
CONTINUOUS
 62
     7
 10
220.4939930364
 20
59.7720997026
 30
0.0
 11
219.9939930364
 21
59.7720997026
 31
0.0
  0
LINE
  5
38A
  8
0
  6
CONTINUOUS
 62
     7
 10
220.4939930364
 20
59.7720997026
 30
0.0
 11
220.4939930364
 21
52.7720997026
 31
0.0
  0
LINE
  5
38B
  8
0
  6
CONTINUOUS
 62
     7
 10
220.4939930364
 20
83.7720997026
 30
0.0
 11
220.4939930364
 21
76.7720997026
 31
0.0
  0
LINE
  5
38C
  8
0
  6
CONTINUOUS
 62
     7
 10
220.4939930364
 20
59.7720997026
 30
0.0
 11
219.9939930364
 21
60.2720997026
 31
0.0
  0
LINE
  5
38D
  8
0
  6
CONTINUOUS
 62
     7
 10
219.9939930364
 20
76.2720997026
 30
0.0
 11
213.1164926264
 21
76.2720997026
 31
0.0
  0
LINE
  5
38E
  8
0
  6
CENTERX2
 62
     7
 10
146.9939930364
 20
74.6372536027
 30
0.0
 11
146.9939930364
 21
62.8217745473
 31
0.0
  0
POINT
  5
38F
  8
0
  6
CONTINUOUS
 62
     7
 10
143.9939930364
 20
68.2720997026
 30
0.0
  0
POINT
  5
390
  8
0
  6
CONTINUOUS
 62
     7
 10
149.9939930364
 20
68.2720997026
 30
0.0
  0
DIMENSION
  5
391
  8
DIM
  2
_D_20
 10
149.9939930364
 20
102.0349399453
 30
0.0
 11
138.5941699228
 21
102.0349399453
 31
0.0
 70
   160
  1
<>
  3
SLDDIMSTYLE0
 13
143.9939930364
 23
68.2720997026
 33
0.0
 14
149.9939930364
 24
68.2720997026
 34
0.0
 50
0.0
  0
DIMENSION
  5
39D
  8
DIM
  2
_D_21
 10
146.9939930364
 20
108.1484821234
 30
0.0
 11
125.4939930364
 21
108.1484821234
 31
0.0
 70
   160
  1
<>
  3
SLDDIMSTYLE1
 13
103.9939930364
 23
75.2720997026
 33
0.0
 14
146.9939930364
 24
74.6372536027
 34
0.0
  0
DIMENSION
  5
3A7
  8
DIM
  2
_D_22
 10
161.1251971636
 20
66.2720997026
 30
0.0
 11
161.1251971636
 21
110.7650377735
 31
0.0
 70
   160
  1
<>H8
  3
SLDDIMSTYLE3
 13
147.9939930364
 23
70.2720997026
 33
0.0
 14
147.9939930364
 24
66.2720997026
 34
0.0
 50
90.0
  0
DIMENSION
  5
3BA
  8
DIM
  2
_D_23
 10
241.7043702391
 20
53.2720997026
 30
0.0
 11
241.7043702391
 21
68.2720997026
 31
0.0
 70
   160
  1
<>
  3
SLDDIMSTYLE1
 13
219.9939930364
 23
83.2720997026
 33
0.0
 14
219.9939930364
 24
53.2720997026
 34
0.0
 50
90.0
  0
DIMENSION
  5
3C4
  8
DIM
  2
_D_24
 10
190.4939930364
 20
108.1484821234
 30
0.0
 11
205.4939930364
 21
108.1484821234
 31
0.0
 70
   160
  1
<>
  3
SLDDIMSTYLE1
 13
220.4939930364
 23
83.7720997026
 33
0.0
 14
190.4939930364
 24
79.7720997026
 34
0.0
  0
DIMENSION
  5
3CE
  8
DIM
  2
_D_25
 10
205.4939930364
 20
68.2720997026
 30
0.0
 11
223.9781076816
 21
63.3193087901
 31
0.0
 70
   164
  1
<>
  3
SLDDIMSTYLE7
 15
194.8205126559
 25
71.132050151
 35
0.0
 40
0.0
  0
DIMENSION
  5
3D6
  8
DIM
  2
_D_26
 10
234.393664894
 20
56.7720997026
 30
0.0
 11
234.393664894
 21
68.2720997026
 31
0.0
 70
   160
  1
<>
  3
SLDDIMSTYLE1
 13
223.4439930364
 23
79.7720997026
 33
0.0
 14
223.4439930364
 24
56.7720997026
 34
0.0
 50
90.0
  0
DIMENSION
  5
3E0
  8
DIM
  2
_D_27
 10
216.9939930364
 20
102.0349399453
 30
0.0
 11
205.4939930364
 21
102.0349399453
 31
0.0
 70
   160
  1
<>
  3
SLDDIMSTYLE1
 13
193.9939930364
 23
86.2220997026
 33
0.0
 14
216.9939930364
 24
86.2220997026
 34
0.0
  0
DIMENSION
  5
3EA
  8
DIM
  2
_D_28
 10
215.9518176593
 20
78.7639476886
 30
0.0
 11
234.393664894
 21
90.5940982893
 31
0.0
 70
   163
  1
4x<>
  3
SLDDIMSTYLE8
 15
218.0361684135
 25
80.7802517167
 35
0.0
 40
0.0
  0
INSERT
  5
401
  8
DIM
  2
SW_CENTERMARKSYMBOL_10
 10
125.4939930364
 20
68.2720997026
 30
0.0
  0
INSERT
  5
40D
  8
DIM
  2
SW_CENTERMARKSYMBOL_11
 10
103.9939930364
 20
68.2720997026
 30
0.0
  0
INSERT
  5
419
  8
DIM
  2
SW_CENTERMARKSYMBOL_12
 10
216.9939930364
 20
56.7720997026
 30
0.0
  0
INSERT
  5
425
  8
DIM
  2
SW_CENTERMARKSYMBOL_13
 10
193.9939930364
 20
56.7720997026
 30
0.0
  0
INSERT
  5
431
  8
DIM
  2
SW_CENTERMARKSYMBOL_14
 10
193.9939930364
 20
79.7720997026
 30
0.0
  0
INSERT
  5
43D
  8
DIM
  2
SW_CENTERMARKSYMBOL_15
 10
216.9939930364
 20
79.7720997026
 30
0.0
  0
INSERT
  5
449
  8
DIM
  2
SW_CENTERMARKSYMBOL_16
 10
205.4939930364
 20
68.2720997026
 30
0.0
  0
ARC
  5
44A
  8
0
  6
CONTINUOUS
 62
     7
 10
155.4939930364
 20
68.2720997026
 30
0.0
 40
1.500000000000011
 50
75.0
 51
345.0
  0
ARC
  5
44B
  8
0
  6
CONTINUOUS
 62
     7
 10
180.4939930364
 20
68.2720997026
 30
0.0
 40
1.500000000000004
 50
75.0
 51
345.0
  0
ARC
  5
44C
  8
0
  6
CONTINUOUS
 62
     7
 10
210.4939930364
 20
46.2720997026
 30
0.0
 40
1.49999999999999
 50
75.0
 51
345.0
  0
ARC
  5
44D
  8
0
  6
CONTINUOUS
 62
     7
 10
185.4939930364
 20
46.2720997026
 30
0.0
 40
1.500000000000011
 50
75.0
 51
345.0
  0
ARC
  5
44E
  8
0
  6
CONTINUOUS
 62
     7
 10
160.4939930364
 20
46.2720997026
 30
0.0
 40
1.500000000000011
 50
75.0
 51
345.0
  0
ARC
  5
44F
  8
0
  6
CONTINUOUS
 62
     7
 10
160.4939930364
 20
90.2720997026
 30
0.0
 40
1.500000000000011
 50
75.0
 51
345.0
  0
ARC
  5
450
  8
0
  6
CONTINUOUS
 62
     7
 10
185.4939930364
 20
90.2720997026
 30
0.0
 40
1.500000000000011
 50
75.0
 51
345.0
  0
ARC
  5
451
  8
0
  6
CONTINUOUS
 62
     7
 10
210.4939930364
 20
90.2720997026
 30
0.0
 40
1.49999999999999
 50
75.0
 51
345.0
  0
ENDSEC
  0
EOF
