  0
SECTION
  2
HEADER
  9
$ACADVER
  1
AC1009
  9
$DWGCODEPAGE
  3
dos932
  9
$INSBASE
 10
0.0
 20
0.0
 30
0.0
  9
$EXTMIN
 10
0.0
 20
0.0
 30
0.0
  9
$EXTMAX
 10
420.0
 20
297.0
 30
0.0
  9
$LIMMIN
 10
0.0
 20
0.0
  9
$LIMMAX
 10
420.0
 20
297.0
  9
$ORTHOMODE
 70
     0
  9
$REGENMODE
 70
     1
  9
$FILLMODE
 70
     1
  9
$QTEXTMODE
 70
     0
  9
$MIRRTEXT
 70
     1
  9
$DRAGMODE
 70
     2
  9
$LTSCALE
 40
1.0
  9
$OSMODE
 70
    37
  9
$ATTMODE
 70
     1
  9
$TEXTSIZE
 40
3.5
  9
$TRACEWID
 40
1.0
  9
$TEXTSTYLE
  7
STANDARD
  9
$CLAYER
  8
0
  9
$CELTYPE
  6
BYLAYER
  9
$CECOLOR
 62
   256
  9
$DIMSCALE
 40
1.0
  9
$DIMASZ
 40
3.0
  9
$DIMEXO
 40
0.01
  9
$DIMDLI
 40
3.75
  9
$DIMRND
 40
0.0
  9
$DIMDLE
 40
0.0
  9
$DIMEXE
 40
1.0
  9
$DIMTP
 40
0.0
  9
$DIMTM
 40
0.0
  9
$DIMTXT
 40
3.5
  9
$DIMCEN
 40
2.5
  9
$DIMTSZ
 40
0.0
  9
$DIMTOL
 70
     0
  9
$DIMLIM
 70
     0
  9
$DIMTIH
 70
     1
  9
$DIMTOH
 70
     1
  9
$DIMSE1
 70
     0
  9
$DIMSE2
 70
     0
  9
$DIMTAD
 70
     1
  9
$DIMZIN
 70
     0
  9
$DIMBLK
  1

  9
$DIMASO
 70
     1
  9
$DIMSHO
 70
     1
  9
$DIMPOST
  1

  9
$DIMAPOST
  1

  9
$DIMALT
 70
     0
  9
$DIMALTD
 70
     3
  9
$DIMALTF
 40
0.0393700787
  9
$DIMLFAC
 40
1.0
  9
$DIMTOFL
 70
     1
  9
$DIMTVP
 40
0.0
  9
$DIMTIX
 70
     0
  9
$DIMSOXD
 70
     0
  9
$DIMSAH
 70
     0
  9
$DIMBLK1
  1

  9
$DIMBLK2
  1

  9
$DIMSTYLE
  2
ISO-25
  9
$DIMCLRD
 70
     0
  9
$DIMCLRE
 70
     0
  9
$DIMCLRT
 70
     0
  9
$DIMTFAC
 40
1.0
  9
$DIMGAP
 40
1.524
  9
$LUNITS
 70
     2
  9
$LUPREC
 70
     4
  9
$SKETCHINC
 40
1.0
  9
$FILLETRAD
 40
10.0
  9
$AUNITS
 70
     0
  9
$AUPREC
 70
     2
  9
$MENU
  1
.
  9
$ELEVATION
 40
0.0
  9
$PELEVATION
 40
0.0
  9
$THICKNESS
 40
0.0
  9
$LIMCHECK
 70
     0
  9
$CHAMFERA
 40
0.0
  9
$CHAMFERB
 40
0.0
  9
$SKPOLY
 70
     0
  9
$TDCREATE
 40
2460356.606658252
  9
$TDUPDATE
 40
2460356.606660625
  9
$TDINDWG
 40
0.0000000116
  9
$TDUSRTIMER
 40
0.0000000116
  9
$USRTIMER
 70
     1
  9
$ANGBASE
 50
0.0
  9
$ANGDIR
 70
     0
  9
$PDMODE
 70
     0
  9
$PDSIZE
 40
-1.0
  9
$PLINEWID
 40
0.0
  9
$COORDS
 70
     1
  9
$SPLFRAME
 70
     0
  9
$SPLINETYPE
 70
     6
  9
$SPLINESEGS
 70
     8
  9
$ATTDIA
 70
     0
  9
$ATTREQ
 70
     1
  9
$HANDLING
 70
     1
  9
$HANDSEED
  5
2AD
  9
$SURFTAB1
 70
     6
  9
$SURFTAB2
 70
     6
  9
$SURFTYPE
 70
     6
  9
$SURFU
 70
     6
  9
$SURFV
 70
     6
  9
$UCSNAME
  2

  9
$UCSORG
 10
0.0
 20
0.0
 30
0.0
  9
$UCSXDIR
 10
1.0
 20
0.0
 30
0.0
  9
$UCSYDIR
 10
0.0
 20
1.0
 30
0.0
  9
$PUCSNAME
  2

  9
$PUCSORG
 10
0.0
 20
0.0
 30
0.0
  9
$PUCSXDIR
 10
1.0
 20
0.0
 30
0.0
  9
$PUCSYDIR
 10
0.0
 20
1.0
 30
0.0
  9
$USERI1
 70
     0
  9
$USERI2
 70
     0
  9
$USERI3
 70
     0
  9
$USERI4
 70
     0
  9
$USERI5
 70
     0
  9
$USERR1
 40
0.0
  9
$USERR2
 40
0.0
  9
$USERR3
 40
0.0
  9
$USERR4
 40
0.0
  9
$USERR5
 40
0.0
  9
$WORLDVIEW
 70
     1
  9
$SHADEDGE
 70
     3
  9
$SHADEDIF
 70
    70
  9
$TILEMODE
 70
     1
  9
$MAXACTVP
 70
    64
  9
$PLIMCHECK
 70
     0
  9
$PEXTMIN
 10
1.0000000000E+20
 20
1.0000000000E+20
 30
1.0000000000E+20
  9
$PEXTMAX
 10
-1.0000000000E+20
 20
-1.0000000000E+20
 30
-1.0000000000E+20
  9
$PLIMMIN
 10
0.0
 20
0.0
  9
$PLIMMAX
 10
420.0
 20
297.0
  9
$UNITMODE
 70
     0
  9
$VISRETAIN
 70
     1
  9
$PLINEGEN
 70
     0
  9
$PSLTSCALE
 70
     1
  0
ENDSEC
  0
SECTION
  2
TABLES
  0
TABLE
  2
VPORT
 70
     1
  0
VPORT
  2
*ACTIVE
 70
     0
 10
0.0
 20
0.0
 11
1.0
 21
1.0
 12
210.0
 22
148.5
 13
0.0
 23
0.0
 14
10.0
 24
10.0
 15
10.0
 25
10.0
 16
0.0
 26
0.0
 36
1.0
 17
0.0
 27
0.0
 37
0.0
 40
297.0
 41
1.4141414141
 42
50.0
 43
0.0
 44
0.0
 50
0.0
 51
0.0
 71
     0
 72
  2000
 73
     1
 74
     3
 75
     0
 76
     0
 77
     0
 78
     0
  0
ENDTAB
  0
TABLE
  2
LTYPE
 70
     6
  0
LTYPE
  2
CONTINUOUS
 70
     0
  3
Solid line
 72
    65
 73
     0
 40
0.0
  0
LTYPE
  2
HIDDEN
 70
     0
  3
Hidden __ __ __ __ __ __ __ __ __ __ __ __ __ __
 72
    65
 73
     2
 40
1.905
 49
1.27
 49
-0.635
  0
LTYPE
  2
PHANTOM
 70
     0
  3
Phantom ______  __  __  ______  __  __  ______
 72
    65
 73
     6
 40
12.7
 49
6.35
 49
-1.27
 49
1.27
 49
-1.27
 49
1.27
 49
-1.27
  0
LTYPE
  2
CENTER
 70
     0
  3
Center ____ _ ____ _ ____ _ ____ _ ____ _ ____
 72
    65
 73
     4
 40
10.16
 49
6.35
 49
-1.27
 49
1.27
 49
-1.27
  0
LTYPE
  2
CENTERX2
 70
     0
  3
Center (2x) ________  __  ________  __  _____
 72
    65
 73
     4
 40
20.32
 49
12.7
 49
-2.54
 49
2.54
 49
-2.54
  0
LTYPE
  2
DOT2
 70
     0
  3
Dot (.5x) ........................................
 72
    65
 73
     2
 40
0.635
 49
0.0
 49
-0.635
  0
ENDTAB
  0
TABLE
  2
LAYER
 70
     4
  0
LAYER
  2
0
 70
     0
 62
     7
  6
CONTINUOUS
  0
LAYER
  2
DIM
 70
     0
 62
     7
  6
CONTINUOUS
  0
LAYER
  2
TXT
 70
     0
 62
     7
  6
CONTINUOUS
  0
LAYER
  2
FRAME
 70
     0
 62
     7
  6
CONTINUOUS
  0
ENDTAB
  0
TABLE
  2
STYLE
 70
     1
  0
STYLE
  2
STANDARD
 70
     0
 40
0.0
 41
1.0
 50
0.0
 71
     0
 42
3.5
  3
txt
  4
bigfont
  0
ENDTAB
  0
TABLE
  2
VIEW
 70
     0
  0
ENDTAB
  0
TABLE
  2
UCS
 70
     0
  0
ENDTAB
  0
TABLE
  2
APPID
 70
     1
  0
APPID
  2
ACAD
 70
     0
  0
ENDTAB
  0
TABLE
  2
DIMSTYLE
 70
     6
  0
DIMSTYLE
  2
ISO-25
 70
     0
  3

  4

  5

  6

  7

 40
1.0
 41
2.5
 42
0.625
 43
3.75
 44
1.25
 45
0.0
 46
0.0
 47
0.0
 48
0.0
140
2.5
141
2.5
142
0.0
143
0.0393700787
144
1.0
145
0.0
146
1.0
147
0.625
 71
     0
 72
     0
 73
     0
 74
     0
 75
     0
 76
     0
 77
     1
 78
     8
170
     0
171
     3
172
     1
173
     0
174
     0
175
     0
176
     0
177
     0
178
     0
  0
DIMSTYLE
  2
SLDDIMSTYLE0
 70
     0
  3

  4

  5

  6
OPEN30
  7
OPEN30
 40
1.0
 41
3.0
 42
0.0625
 43
0.38
 44
0.0
 45
0.000000001
 46
0.0
 47
0.3
 48
0.3
140
3.5
141
0.09
142
0.0
143
25.4
144
1.0
145
0.0
146
1.0
147
0.875
 71
     1
 72
     0
 73
     0
 74
     0
 75
     0
 76
     0
 77
     3
 78
    12
170
     0
171
     2
172
     1
173
     1
174
     0
175
     0
176
     0
177
     0
178
     0
  0
DIMSTYLE
  2
SLDDIMSTYLE1
 70
     0
  3

  4

  5

  6
OPEN30
  7
OPEN30
 40
1.0
 41
3.0
 42
0.0625
 43
0.38
 44
0.0
 45
0.000000001
 46
0.0
 47
0.0
 48
0.0
140
3.5
141
0.09
142
0.0
143
25.4
144
1.0
145
0.0
146
1.0
147
0.875
 71
     0
 72
     0
 73
     0
 74
     0
 75
     0
 76
     0
 77
     3
 78
    12
170
     0
171
     2
172
     0
173
     1
174
     0
175
     0
176
     0
177
     0
178
     0
  0
DIMSTYLE
  2
SLDDIMSTYLE2
 70
     0
  3

  4

  5

  6
NONE
  7
OPEN30
 40
1.0
 41
3.0
 42
0.0625
 43
0.38
 44
0.0
 45
0.000000001
 46
0.0
 47
0.014
 48
0.0
140
3.5
141
0.0
142
0.0
143
25.4
144
1.0
145
0.0
146
1.0
147
0.875
 71
     1
 72
     0
 73
     1
 74
     1
 75
     0
 76
     0
 77
     0
 78
    12
170
     0
171
     2
172
     1
173
     1
174
     0
175
     0
176
     0
177
     0
178
     0
  0
DIMSTYLE
  2
SLDDIMSTYLE3
 70
     0
  3

  4

  5

  6
OPEN30
  7
OPEN30
 40
1.0
 41
3.0
 42
0.0625
 43
0.38
 44
0.0
 45
0.000000001
 46
0.0
 47
0.0
 48
0.0
140
3.5
141
0.09
142
0.0
143
25.4
144
1.0
145
0.0
146
1.0
147
0.875
 71
     0
 72
     0
 73
     0
 74
     0
 75
     0
 76
     0
 77
     3
 78
    12
170
     0
171
     2
172
     1
173
     1
174
     0
175
     0
176
     0
177
     0
178
     0
  0
DIMSTYLE
  2
SLDDIMSTYLE4
 70
     0
  3

  4

  5

  6
NONE
  7
OPEN30
 40
1.0
 41
3.0
 42
0.0625
 43
0.38
 44
0.0
 45
0.000000001
 46
0.0
 47
0.0
 48
0.0
140
3.5
141
0.0
142
0.0
143
25.4
144
1.0
145
0.0
146
1.0
147
0.875
 71
     0
 72
     0
 73
     1
 74
     1
 75
     0
 76
     0
 77
     0
 78
    12
170
     0
171
     2
172
     1
173
     1
174
     0
175
     0
176
     0
177
     0
178
     0
  0
ENDTAB
  0
ENDSEC
  0
SECTION
  2
BLOCKS
  0
BLOCK
  8
0
  2
$MODEL_SPACE
 70
     0
 10
0.0
 20
0.0
 30
0.0
  3
$MODEL_SPACE
  1

  0
ENDBLK
  5
21
  8
0
  0
BLOCK
 67
     1
  8
0
  2
$PAPER_SPACE
 70
     0
 10
0.0
 20
0.0
 30
0.0
  3
$PAPER_SPACE
  1

  0
ENDBLK
  5
1D
 67
     1
  8
0
  0
BLOCK
  8
0
  2
_OPEN30
 70
     0
 10
0.0
 20
0.0
 30
0.0
  3
_OPEN30
  1

  0
LINE
  5
9A
  8
0
  6
BYBLOCK
 62
     0
 10
-1.0
 20
0.267949
 30
0.0
 11
0.0
 21
0.0
 31
0.0
  0
LINE
  5
9B
  8
0
  6
BYBLOCK
 62
     0
 10
0.0
 20
0.0
 30
0.0
 11
-1.0
 21
-0.267949
 31
0.0
  0
LINE
  5
9C
  8
0
  6
BYBLOCK
 62
     0
 10
0.0
 20
0.0
 30
0.0
 11
-1.0
 21
0.0
 31
0.0
  0
ENDBLK
  5
99
  8
0
  0
BLOCK
  8
0
  2
_D
 70
     0
 10
0.0
 20
0.0
 30
0.0
  3
_D
  1

  0
INSERT
  5
A0
  8
DIM
  2
_OPEN30
 10
114.7429597474
 20
169.7803447735
 30
0.0
 41
3.0
 42
3.0
 50
0.0
  0
INSERT
  5
A1
  8
DIM
  2
_OPEN30
 10
134.2429597474
 20
169.7803447735
 30
0.0
 41
3.0
 42
3.0
 50
180.0
  0
LINE
  5
A2
  8
DIM
 10
114.7429597474
 20
188.7798535873
 30
0.0
 11
114.7429597474
 21
168.7803447735
 31
0.0
  0
LINE
  5
A3
  8
DIM
 10
134.2429597474
 20
203.6296523893
 30
0.0
 11
134.2429597474
 21
168.7803447735
 31
0.0
  0
LINE
  5
A4
  8
DIM
 10
114.7429597474
 20
169.7803447735
 30
0.0
 11
108.3929597474
 21
169.7803447735
 31
0.0
  0
LINE
  5
A5
  8
DIM
 10
114.7429597474
 20
169.7803447735
 30
0.0
 11
134.2429597474
 21
169.7803447735
 31
0.0
  0
LINE
  5
A6
  8
DIM
 10
134.2429597474
 20
169.7803447735
 30
0.0
 11
140.5929597474
 21
169.7803447735
 31
0.0
  0
TEXT
  5
A7
  8
DIM
 10
115.8365362084
 20
171.0167547574
 30
0.0
 40
3.5
  1
19.5
 50
0.0
 41
0.7
 11
115.8365362084
 21
169.7803445407
 31
0.0
 73
     1
  0
TEXT
  5
A8
  8
DIM
 10
123.9837581984
 20
171.0167547574
 30
0.0
 40
3.5
  1
 
 50
0.0
 41
0.7
 11
123.9837581984
 21
169.7803445407
 31
0.0
 73
     1
  0
TEXT
  5
A9
  8
DIM
 10
126.020563463
 20
170.8179150458
 30
0.0
 40
2.45
  1
±0.3
 50
0.0
 41
0.7
 11
126.020563463
 21
169.9524278941
 31
0.0
 73
     1
  0
ENDBLK
  5
9F
  8
0
  0
BLOCK
  8
0
  2
_D_1
 70
     0
 10
0.0
 20
0.0
 30
0.0
  3
_D_1
  1

  0
INSERT
  5
AF
  8
DIM
  2
_OPEN30
 10
103.0429597474
 20
246.8111535237
 30
-4.0
 41
3.0
 42
3.0
 50
180.0
  0
INSERT
  5
B0
  8
DIM
  2
_OPEN30
 10
178.5429597474
 20
246.8111535237
 30
-4.0
 41
3.0
 42
3.0
 50
0.0
  0
LINE
  5
B1
  8
DIM
 10
103.0429597474
 20
222.6496523893
 30
0.0
 11
103.0429597474
 21
247.8111535237
 31
0.0
  0
LINE
  5
B2
  8
DIM
 10
178.5429597474
 20
222.6496523893
 30
0.0
 11
178.5429597474
 21
247.8111535237
 31
0.0
  0
LINE
  5
B3
  8
DIM
 10
103.0429597474
 20
246.8111535237
 30
0.0
 11
178.5429597474
 21
246.8111535237
 31
0.0
  0
TEXT
  5
B4
  8
DIM
 10
136.7193487524
 20
248.0475635076
 30
-4.0
 40
3.5
  1
75.5
 41
0.7
 11
136.7193487524
 21
246.8111532909
 31
-4.0
 73
     1
  0
ENDBLK
  5
AE
  8
0
  0
BLOCK
  8
0
  2
_D_2
 70
     0
 10
0.0
 20
0.0
 30
0.0
  3
_D_2
  1

  0
INSERT
  5
B9
  8
DIM
  2
_OPEN30
 10
209.8397126064
 20
227.6396523893
 30
-4.0
 41
3.0
 42
3.0
 50
90.0
  0
INSERT
  5
BA
  8
DIM
  2
_OPEN30
 10
209.8397126064
 20
177.6396523893
 30
-4.0
 41
3.0
 42
3.0
 50
270.0
  0
LINE
  5
BB
  8
DIM
 10
173.5529597474
 20
227.6396523893
 30
0.0
 11
210.8397126064
 21
227.6396523893
 31
0.0
  0
LINE
  5
BC
  8
DIM
 10
173.5529597474
 20
177.6396523893
 30
0.0
 11
210.8397126064
 21
177.6396523893
 31
0.0
  0
LINE
  5
BD
  8
DIM
 10
209.8397126064
 20
227.6396523893
 30
0.0
 11
209.8397126064
 21
177.6396523893
 31
0.0
  0
TEXT
  5
BE
  8
DIM
 10
208.6033026225
 20
200.6028468918
 30
-4.0
 40
3.5
  1
50
 50
90.0
 41
0.7
 11
209.8397128393
 21
200.6028468918
 31
-4.0
 73
     1
  0
ENDBLK
  5
B8
  8
0
  0
BLOCK
  8
0
  2
_NONE
 70
     0
 10
0.0
 20
0.0
 30
0.0
  3
_NONE
  1

  0
ENDBLK
  5
C3
  8
0
  0
BLOCK
  8
0
  2
_D_3
 70
     0
 10
0.0
 20
0.0
 30
0.0
  3
_D_3
  1

  0
ARC
  5
C7
  8
DIM
 10
171.6790401832
 20
171.1855333687
 30
0.0
 40
6.37621018554247
 50
153.4349488229
 51
206.5650511771
  0
ARC
  5
C8
  8
DIM
 10
168.8275120677
 20
171.1855333687
 30
0.0
 40
6.37621018554247
 50
333.4349488229
 51
26.5650511771
  0
INSERT
  5
C9
  8
DIM
  2
_OPEN30
 10
134.8244251493
 20
193.7569383963
 30
-4.0
 41
3.0
 42
3.0
 50
112.8079566319
  0
LINE
  5
CA
  8
DIM
 10
134.8244251493
 20
193.7569383963
 30
0.0
 11
145.5877619244
 21
168.1619222199
 31
0.0
  0
LINE
  5
CB
  8
DIM
 10
133.6614943454
 20
196.5223663822
 30
0.0
 11
134.8244251493
 21
193.7569383963
 31
0.0
  0
LINE
  5
CC
  8
DIM
 10
145.5877619244
 20
168.1619222199
 30
0.0
 11
185.3877549864
 21
168.1619222199
 31
0.0
  0
TEXT
  5
CD
  8
DIM
 10
147.1752619244
 20
169.3983326694
 30
-4.0
 40
3.5
  1
2x
 41
0.7
 11
147.1752619244
 21
168.1619224527
 31
-4.0
 73
     1
  0
TEXT
  5
CE
  8
DIM
 10
151.2488729194
 20
169.3983326694
 30
-4.0
 40
3.5
  1
%%c
 41
0.7
 11
151.2488729194
 21
168.1619224527
 31
-4.0
 73
     1
  0
TEXT
  5
CF
  8
DIM
 10
155.1188036673
 20
169.3983326694
 30
-4.0
 40
3.5
  1
3
 41
0.7
 11
155.1188036673
 21
168.1619224527
 31
-4.0
 73
     1
  0
TEXT
  5
D0
  8
DIM
 10
157.1556089319
 20
169.3983326694
 30
-4.0
 40
3.5
  1
 H8 
 41
0.525
 11
157.1556089319
 21
168.1619224527
 31
-4.0
 73
     1
  0
TEXT
  5
D1
  8
DIM
 10
165.9759844177
 20
172.0510206077
 30
-4.0
 40
2.45
  1
+
 41
0.7
 11
165.9759844177
 21
171.185533456
 31
-4.0
 73
     1
  0
TEXT
  5
D2
  8
DIM
 10
165.9759844177
 20
169.199492725
 30
-4.0
 40
2.45
  1
 
 41
0.7
 11
165.9759844177
 21
168.3340055733
 31
-4.0
 73
     1
  0
TEXT
  5
D3
  8
DIM
 10
167.4017483591
 20
172.0510206077
 30
-4.0
 40
2.45
  1
0.014
 41
0.7
 11
167.4017483591
 21
171.185533456
 31
-4.0
 73
     1
  0
TEXT
  5
D4
  8
DIM
 10
167.4017483591
 20
169.199492725
 30
-4.0
 40
2.45
  1
0
 41
0.7
 11
167.4017483591
 21
168.3340055733
 31
-4.0
 73
     1
  0
TEXT
  5
D5
  8
DIM
 10
175.2037240066
 20
169.3983326694
 30
-4.0
 40
3.5
  1
深さ3
 41
0.7
 11
175.2037240066
 21
168.1619224527
 31
-4.0
 73
     1
  0
ENDBLK
  5
C6
  8
0
  0
BLOCK
  8
0
  2
_D_4
 70
     0
 10
0.0
 20
0.0
 30
0.0
  3
_D_4
  1

  0
INSERT
  5
DA
  8
DIM
  2
_OPEN30
 10
193.1974646905
 20
210.1396523893
 30
-4.0
 41
3.0
 42
3.0
 50
90.0
  0
INSERT
  5
DB
  8
DIM
  2
_OPEN30
 10
193.1974646905
 20
195.1396523893
 30
-4.0
 41
3.0
 42
3.0
 50
270.0
  0
LINE
  5
DC
  8
DIM
 10
140.7529597474
 20
210.1396523893
 30
0.0
 11
194.1974646905
 21
210.1396523893
 31
0.0
  0
LINE
  5
DD
  8
DIM
 10
140.7529597474
 20
195.1396523893
 30
0.0
 11
194.1974646905
 21
195.1396523893
 31
0.0
  0
LINE
  5
DE
  8
DIM
 10
193.1974646905
 20
210.1396523893
 30
0.0
 11
193.1974646905
 21
195.1396523893
 31
0.0
  0
TEXT
  5
DF
  8
DIM
 10
191.9610547066
 20
200.6028468918
 30
-4.0
 40
3.5
  1
15
 50
90.0
 41
0.7
 11
193.1974649233
 21
200.6028468918
 31
-4.0
 73
     1
  0
ENDBLK
  5
D9
  8
0
  0
BLOCK
  8
0
  2
_D_5
 70
     0
 10
0.0
 20
0.0
 30
0.0
  3
_D_5
  1

  0
INSERT
  5
E4
  8
DIM
  2
_OPEN30
 10
106.7429597474
 20
235.474406283
 30
-4.0
 41
3.0
 42
3.0
 50
180.0
  0
INSERT
  5
E5
  8
DIM
  2
_OPEN30
 10
122.7429597474
 20
235.474406283
 30
-4.0
 41
3.0
 42
3.0
 50
0.0
  0
LINE
  5
E6
  8
DIM
 10
106.7429597474
 20
209.3496523893
 30
0.0
 11
106.7429597474
 21
236.474406283
 31
0.0
  0
LINE
  5
E7
  8
DIM
 10
122.7429597474
 20
209.3496523893
 30
0.0
 11
122.7429597474
 21
236.474406283
 31
0.0
  0
LINE
  5
E8
  8
DIM
 10
106.7429597474
 20
235.474406283
 30
0.0
 11
122.7429597474
 21
235.474406283
 31
0.0
  0
TEXT
  5
E9
  8
DIM
 10
112.7061542499
 20
236.7108162669
 30
-4.0
 40
3.5
  1
16
 41
0.7
 11
112.7061542499
 21
235.4744060502
 31
-4.0
 73
     1
  0
ENDBLK
  5
E3
  8
0
  0
BLOCK
  8
0
  2
_D_6
 70
     0
 10
0.0
 20
0.0
 30
0.0
  3
_D_6
  1

  0
INSERT
  5
EE
  8
DIM
  2
_OPEN30
 10
178.5429597474
 20
235.474406283
 30
-4.0
 41
3.0
 42
3.0
 50
0.0
  0
INSERT
  5
EF
  8
DIM
  2
_OPEN30
 10
134.2429597474
 20
235.474406283
 30
-4.0
 41
3.0
 42
3.0
 50
180.0
  0
LINE
  5
F0
  8
DIM
 10
178.5429597474
 20
222.6496523893
 30
0.0
 11
178.5429597474
 21
236.474406283
 31
0.0
  0
LINE
  5
F1
  8
DIM
 10
134.2429597474
 20
216.6496523893
 30
0.0
 11
134.2429597474
 21
236.474406283
 31
0.0
  0
LINE
  5
F2
  8
DIM
 10
178.5429597474
 20
235.474406283
 30
0.0
 11
134.2429597474
 21
235.474406283
 31
0.0
  0
TEXT
  5
F3
  8
DIM
 10
152.3193487524
 20
236.7108162669
 30
-4.0
 40
3.5
  1
44.3
 50
0.0
 41
0.7
 11
152.3193487524
 21
235.4744060502
 31
-4.0
 73
     1
  0
ENDBLK
  5
ED
  8
0
  0
BLOCK
  8
0
  2
SW_NOTE_0
 70
     0
 10
0.0
 20
0.0
 30
0.0
  3
SW_NOTE_0
  1

  0
LINE
  5
F7
  8
TXT
 62
     0
 10
69.7010364082
 20
-16.4772552097
 30
0.0
 11
16.8705087391
 21
-16.4772552097
 31
0.0
  0
TEXT
  5
F8
  8
TXT
 62
     0
 10
17.3036063756
 20
-15.1232390555
 30
0.0
 40
3.5
  1
4xφ3.4,6.5深座ぐり深さ4.3
 41
0.7
 11
17.3036063756
 21
-16.3596492722
 31
0.0
 73
     1
  0
LINE
  5
F9
  8
TXT
 62
     0
 10
16.8705087391
 20
-16.4772552097
 30
0.0
 11
0.0
 21
0.0
 31
0.0
  0
INSERT
  5
FA
  8
TXT
 62
     0
  2
_OPEN30
 10
0.0
 20
0.0
 30
4.0
 41
3.0
 42
3.0
 50
135.6756292023
  0
ENDBLK
  5
F6
  8
0
  0
BLOCK
  8
0
  2
SW_CENTERMARKSYMBOL_0
 70
     0
 10
0.0
 20
0.0
 30
0.0
  3
SW_CENTERMARKSYMBOL_0
  1

  0
LINE
  5
FF
  8
DIM
 62
     0
 10
0.0
 20
0.0
 30
0.0
 11
0.0
 21
5.0
 31
0.0
  0
LINE
  5
100
  8
DIM
 62
     0
 10
0.0
 20
0.0
 30
0.0
 11
-5.0
 21
0.0
 31
0.0
  0
LINE
  5
101
  8
DIM
 62
     0
 10
0.0
 20
0.0
 30
0.0
 11
0.0
 21
-5.0
 31
0.0
  0
LINE
  5
102
  8
DIM
 62
     0
 10
0.0
 20
0.0
 30
0.0
 11
5.0
 21
0.0
 31
0.0
  0
LINE
  5
103
  8
DIM
 62
     0
 10
0.0
 20
5.0
 30
0.0
 11
0.0
 21
6.7
 31
0.0
  0
LINE
  5
104
  8
DIM
 62
     0
 10
-5.0
 20
0.0
 30
0.0
 11
-6.7
 21
0.0
 31
0.0
  0
LINE
  5
105
  8
DIM
 62
     0
 10
0.0
 20
-5.0
 30
0.0
 11
0.0
 21
-6.7
 31
0.0
  0
LINE
  5
106
  8
DIM
 62
     0
 10
5.0
 20
0.0
 30
0.0
 11
6.7
 21
0.0
 31
0.0
  0
ENDBLK
  5
FE
  8
0
  0
BLOCK
  8
0
  2
SW_CENTERMARKSYMBOL_1
 70
     0
 10
0.0
 20
0.0
 30
0.0
  3
SW_CENTERMARKSYMBOL_1
  1

  0
LINE
  5
10B
  8
DIM
 62
     0
 10
0.0
 20
0.0
 30
0.0
 11
0.0
 21
5.0
 31
0.0
  0
LINE
  5
10C
  8
DIM
 62
     0
 10
0.0
 20
0.0
 30
0.0
 11
-5.0
 21
0.0
 31
0.0
  0
LINE
  5
10D
  8
DIM
 62
     0
 10
0.0
 20
0.0
 30
0.0
 11
0.0
 21
-5.0
 31
0.0
  0
LINE
  5
10E
  8
DIM
 62
     0
 10
0.0
 20
0.0
 30
0.0
 11
5.0
 21
0.0
 31
0.0
  0
LINE
  5
10F
  8
DIM
 62
     0
 10
0.0
 20
5.0
 30
0.0
 11
0.0
 21
8.25
 31
0.0
  0
LINE
  5
110
  8
DIM
 62
     0
 10
-5.0
 20
0.0
 30
0.0
 11
-8.25
 21
0.0
 31
0.0
  0
LINE
  5
111
  8
DIM
 62
     0
 10
0.0
 20
-5.0
 30
0.0
 11
0.0
 21
-8.25
 31
0.0
  0
LINE
  5
112
  8
DIM
 62
     0
 10
5.0
 20
0.0
 30
0.0
 11
8.25
 21
0.0
 31
0.0
  0
ENDBLK
  5
10A
  8
0
  0
BLOCK
  8
0
  2
SW_CENTERMARKSYMBOL_2
 70
     0
 10
0.0
 20
0.0
 30
0.0
  3
SW_CENTERMARKSYMBOL_2
  1

  0
LINE
  5
117
  8
DIM
 62
     0
 10
0.0
 20
0.0
 30
0.0
 11
0.0
 21
5.0
 31
0.0
  0
LINE
  5
118
  8
DIM
 62
     0
 10
0.0
 20
0.0
 30
0.0
 11
-5.0
 21
0.0
 31
0.0
  0
LINE
  5
119
  8
DIM
 62
     0
 10
0.0
 20
0.0
 30
0.0
 11
0.0
 21
-5.0
 31
0.0
  0
LINE
  5
11A
  8
DIM
 62
     0
 10
0.0
 20
0.0
 30
0.0
 11
5.0
 21
0.0
 31
0.0
  0
LINE
  5
11B
  8
DIM
 62
     0
 10
0.0
 20
5.0
 30
0.0
 11
0.0
 21
8.25
 31
0.0
  0
LINE
  5
11C
  8
DIM
 62
     0
 10
-5.0
 20
0.0
 30
0.0
 11
-8.25
 21
0.0
 31
0.0
  0
LINE
  5
11D
  8
DIM
 62
     0
 10
0.0
 20
-5.0
 30
0.0
 11
0.0
 21
-8.25
 31
0.0
  0
LINE
  5
11E
  8
DIM
 62
     0
 10
5.0
 20
0.0
 30
0.0
 11
8.25
 21
0.0
 31
0.0
  0
ENDBLK
  5
116
  8
0
  0
BLOCK
  8
0
  2
SW_CENTERMARKSYMBOL_3
 70
     0
 10
0.0
 20
0.0
 30
0.0
  3
SW_CENTERMARKSYMBOL_3
  1

  0
LINE
  5
123
  8
DIM
 62
     0
 10
0.0
 20
0.0
 30
0.0
 11
0.0
 21
5.0
 31
0.0
  0
LINE
  5
124
  8
DIM
 62
     0
 10
0.0
 20
0.0
 30
0.0
 11
-5.0
 21
0.0
 31
0.0
  0
LINE
  5
125
  8
DIM
 62
     0
 10
0.0
 20
0.0
 30
0.0
 11
0.0
 21
-5.0
 31
0.0
  0
LINE
  5
126
  8
DIM
 62
     0
 10
0.0
 20
0.0
 30
0.0
 11
5.0
 21
0.0
 31
0.0
  0
LINE
  5
127
  8
DIM
 62
     0
 10
0.0
 20
5.0
 30
0.0
 11
0.0
 21
8.25
 31
0.0
  0
LINE
  5
128
  8
DIM
 62
     0
 10
-5.0
 20
0.0
 30
0.0
 11
-8.25
 21
0.0
 31
0.0
  0
LINE
  5
129
  8
DIM
 62
     0
 10
0.0
 20
-5.0
 30
0.0
 11
0.0
 21
-8.25
 31
0.0
  0
LINE
  5
12A
  8
DIM
 62
     0
 10
5.0
 20
0.0
 30
0.0
 11
8.25
 21
0.0
 31
0.0
  0
ENDBLK
  5
122
  8
0
  0
BLOCK
  8
0
  2
SW_CENTERMARKSYMBOL_4
 70
     0
 10
0.0
 20
0.0
 30
0.0
  3
SW_CENTERMARKSYMBOL_4
  1

  0
LINE
  5
12F
  8
DIM
 62
     0
 10
0.0
 20
0.0
 30
0.0
 11
0.0
 21
5.0
 31
0.0
  0
LINE
  5
130
  8
DIM
 62
     0
 10
0.0
 20
0.0
 30
0.0
 11
-5.0
 21
0.0
 31
0.0
  0
LINE
  5
131
  8
DIM
 62
     0
 10
0.0
 20
0.0
 30
0.0
 11
0.0
 21
-5.0
 31
0.0
  0
LINE
  5
132
  8
DIM
 62
     0
 10
0.0
 20
0.0
 30
0.0
 11
5.0
 21
0.0
 31
0.0
  0
LINE
  5
133
  8
DIM
 62
     0
 10
0.0
 20
5.0
 30
0.0
 11
0.0
 21
8.25
 31
0.0
  0
LINE
  5
134
  8
DIM
 62
     0
 10
-5.0
 20
0.0
 30
0.0
 11
-8.25
 21
0.0
 31
0.0
  0
LINE
  5
135
  8
DIM
 62
     0
 10
0.0
 20
-5.0
 30
0.0
 11
0.0
 21
-8.25
 31
0.0
  0
LINE
  5
136
  8
DIM
 62
     0
 10
5.0
 20
0.0
 30
0.0
 11
8.25
 21
0.0
 31
0.0
  0
ENDBLK
  5
12E
  8
0
  0
BLOCK
  8
0
  2
SW_CENTERMARKSYMBOL_5
 70
     0
 10
0.0
 20
0.0
 30
0.0
  3
SW_CENTERMARKSYMBOL_5
  1

  0
LINE
  5
13B
  8
DIM
 62
     0
 10
0.0
 20
0.0
 30
0.0
 11
0.0
 21
5.0
 31
0.0
  0
LINE
  5
13C
  8
DIM
 62
     0
 10
0.0
 20
0.0
 30
0.0
 11
-5.0
 21
0.0
 31
0.0
  0
LINE
  5
13D
  8
DIM
 62
     0
 10
0.0
 20
0.0
 30
0.0
 11
0.0
 21
-5.0
 31
0.0
  0
LINE
  5
13E
  8
DIM
 62
     0
 10
0.0
 20
0.0
 30
0.0
 11
5.0
 21
0.0
 31
0.0
  0
LINE
  5
13F
  8
DIM
 62
     0
 10
0.0
 20
5.0
 30
0.0
 11
0.0
 21
6.5
 31
0.0
  0
LINE
  5
140
  8
DIM
 62
     0
 10
-5.0
 20
0.0
 30
0.0
 11
-6.5
 21
0.0
 31
0.0
  0
LINE
  5
141
  8
DIM
 62
     0
 10
0.0
 20
-5.0
 30
0.0
 11
0.0
 21
-6.5
 31
0.0
  0
LINE
  5
142
  8
DIM
 62
     0
 10
5.0
 20
0.0
 30
0.0
 11
6.5
 21
0.0
 31
0.0
  0
ENDBLK
  5
13A
  8
0
  0
BLOCK
  8
0
  2
SW_CENTERMARKSYMBOL_6
 70
     0
 10
0.0
 20
0.0
 30
0.0
  3
SW_CENTERMARKSYMBOL_6
  1

  0
LINE
  5
147
  8
DIM
 62
     0
 10
0.0
 20
0.0
 30
0.0
 11
0.0
 21
5.0
 31
0.0
  0
LINE
  5
148
  8
DIM
 62
     0
 10
0.0
 20
0.0
 30
0.0
 11
-5.0
 21
0.0
 31
0.0
  0
LINE
  5
149
  8
DIM
 62
     0
 10
0.0
 20
0.0
 30
0.0
 11
0.0
 21
-5.0
 31
0.0
  0
LINE
  5
14A
  8
DIM
 62
     0
 10
0.0
 20
0.0
 30
0.0
 11
5.0
 21
0.0
 31
0.0
  0
LINE
  5
14B
  8
DIM
 62
     0
 10
0.0
 20
5.0
 30
0.0
 11
0.0
 21
6.5
 31
0.0
  0
LINE
  5
14C
  8
DIM
 62
     0
 10
-5.0
 20
0.0
 30
0.0
 11
-6.5
 21
0.0
 31
0.0
  0
LINE
  5
14D
  8
DIM
 62
     0
 10
0.0
 20
-5.0
 30
0.0
 11
0.0
 21
-6.5
 31
0.0
  0
LINE
  5
14E
  8
DIM
 62
     0
 10
5.0
 20
0.0
 30
0.0
 11
6.5
 21
0.0
 31
0.0
  0
ENDBLK
  5
146
  8
0
  0
BLOCK
  8
0
  2
SW_CENTERMARKSYMBOL_7
 70
     0
 10
0.0
 20
0.0
 30
0.0
  3
SW_CENTERMARKSYMBOL_7
  1

  0
LINE
  5
153
  8
DIM
 62
     0
 10
0.0
 20
0.0
 30
0.0
 11
0.0
 21
5.0
 31
0.0
  0
LINE
  5
154
  8
DIM
 62
     0
 10
0.0
 20
0.0
 30
0.0
 11
-5.0
 21
0.0
 31
0.0
  0
LINE
  5
155
  8
DIM
 62
     0
 10
0.0
 20
0.0
 30
0.0
 11
0.0
 21
-5.0
 31
0.0
  0
LINE
  5
156
  8
DIM
 62
     0
 10
0.0
 20
0.0
 30
0.0
 11
5.0
 21
0.0
 31
0.0
  0
LINE
  5
157
  8
DIM
 62
     0
 10
0.0
 20
5.0
 30
0.0
 11
0.0
 21
6.7
 31
0.0
  0
LINE
  5
158
  8
DIM
 62
     0
 10
-5.0
 20
0.0
 30
0.0
 11
-6.7
 21
0.0
 31
0.0
  0
LINE
  5
159
  8
DIM
 62
     0
 10
0.0
 20
-5.0
 30
0.0
 11
0.0
 21
-6.7
 31
0.0
  0
LINE
  5
15A
  8
DIM
 62
     0
 10
5.0
 20
0.0
 30
0.0
 11
6.7
 21
0.0
 31
0.0
  0
ENDBLK
  5
152
  8
0
  0
BLOCK
  8
0
  2
_D_7
 70
     0
 10
0.0
 20
0.0
 30
0.0
  3
_D_7
  1

  0
INSERT
  5
17A
  8
DIM
  2
_OPEN30
 10
230.1114224363
 20
241.7686729354
 30
0.0
 41
3.0
 42
3.0
 50
0.0
  0
INSERT
  5
17B
  8
DIM
  2
_OPEN30
 10
238.1114224363
 20
241.7686729354
 30
0.0
 41
3.0
 42
3.0
 50
180.0
  0
LINE
  5
17C
  8
DIM
 10
230.1114224363
 20
222.6496523893
 30
0.0
 11
230.1114224363
 21
242.7686729354
 31
0.0
  0
LINE
  5
17D
  8
DIM
 10
238.1114224363
 20
227.1496523893
 30
0.0
 11
238.1114224363
 21
242.7686729354
 31
0.0
  0
LINE
  5
17E
  8
DIM
 10
230.1114224363
 20
241.7686729354
 30
0.0
 11
223.7614224363
 21
241.7686729354
 31
0.0
  0
LINE
  5
17F
  8
DIM
 10
230.1114224363
 20
241.7686729354
 30
0.0
 11
238.1114224363
 21
241.7686729354
 31
0.0
  0
LINE
  5
180
  8
DIM
 10
238.1114224363
 20
241.7686729354
 30
0.0
 11
244.4614224363
 21
241.7686729354
 31
0.0
  0
TEXT
  5
181
  8
DIM
 10
233.0930196876
 20
243.0050829193
 30
0.0
 40
3.5
  1
8
 41
0.7
 11
233.0930196876
 21
241.7686727026
 31
0.0
 73
     1
  0
ENDBLK
  5
179
  8
0
  0
BLOCK
  8
0
  2
_D_8
 70
     0
 10
0.0
 20
0.0
 30
0.0
  3
_D_8
  1

  0
INSERT
  5
1BF
  8
DIM
  2
_OPEN30
 10
88.8406864747
 20
145.1449546345
 30
12.5
 41
3.0
 42
3.0
 50
90.0
  0
INSERT
  5
1C0
  8
DIM
  2
_OPEN30
 10
88.8406864747
 20
150.4449546345
 30
12.5
 41
3.0
 42
3.0
 50
270.0
  0
LINE
  5
1C1
  8
DIM
 10
106.7329597474
 20
145.1449546345
 30
0.0
 11
87.8406864747
 21
145.1449546345
 31
0.0
  0
LINE
  5
1C2
  8
DIM
 10
105.0329597474
 20
150.4449546345
 30
0.0
 11
87.8406864747
 21
150.4449546345
 31
0.0
  0
LINE
  5
1C3
  8
DIM
 10
88.8406864747
 20
145.1449546345
 30
0.0
 11
88.8406864747
 21
138.7949546345
 31
0.0
  0
LINE
  5
1C4
  8
DIM
 10
88.8406864747
 20
145.1449546345
 30
0.0
 11
88.8406864747
 21
150.4449546345
 31
0.0
  0
LINE
  5
1C5
  8
DIM
 10
88.8406864747
 20
150.4449546345
 30
0.0
 11
88.8406864747
 21
161.447272425
 31
0.0
  0
TEXT
  5
1C6
  8
DIM
 10
87.6042764908
 20
155.3368556997
 30
12.5
 40
3.5
  1
5.3
 50
90.0
 41
0.7
 11
88.8406867076
 21
155.3368556997
 31
12.5
 73
     1
  0
ENDBLK
  5
1BE
  8
0
  0
BLOCK
  8
0
  2
_D_9
 70
     0
 10
0.0
 20
0.0
 30
0.0
  3
_D_9
  1

  0
INSERT
  5
1F7
  8
DIM
  2
_OPEN30
 10
91.6107128995
 20
93.4700795836
 30
4.0
 41
3.0
 42
3.0
 50
270.0
  0
INSERT
  5
1F8
  8
DIM
  2
_OPEN30
 10
91.6107128995
 20
86.9700795836
 30
4.0
 41
3.0
 42
3.0
 50
90.0
  0
LINE
  5
1F9
  8
DIM
 10
103.5329597474
 20
93.4700795836
 30
0.0
 11
90.6107128995
 21
93.4700795836
 31
0.0
  0
LINE
  5
1FA
  8
DIM
 10
103.5329597474
 20
86.9700795836
 30
0.0
 11
90.6107128995
 21
86.9700795836
 31
0.0
  0
LINE
  5
1FB
  8
DIM
 10
91.6107128995
 20
93.4700795836
 30
0.0
 11
91.6107128995
 21
99.8200795836
 31
0.0
  0
LINE
  5
1FC
  8
DIM
 10
91.6107128995
 20
93.4700795836
 30
0.0
 11
91.6107128995
 21
86.9700795836
 31
0.0
  0
LINE
  5
1FD
  8
DIM
 10
91.6107128995
 20
86.9700795836
 30
0.0
 11
91.6107128995
 21
80.6200795836
 31
0.0
  0
TEXT
  5
1FE
  8
DIM
 10
90.3743029156
 20
87.1648712209
 30
4.0
 40
3.5
  1
6.5
 50
90.0
 41
0.7
 11
91.6107131323
 21
87.1648712209
 31
4.0
 73
     1
  0
ENDBLK
  5
1F6
  8
0
  0
BLOCK
  8
0
  2
_D_10
 70
     0
 10
0.0
 20
0.0
 30
0.0
  3
_D_10
  1

  0
ARC
  5
203
  8
DIM
 10
206.0369899692
 20
62.5225354385
 30
0.0
 40
6.37621018554247
 50
153.4349488229
 51
206.5650511771
  0
ARC
  5
204
  8
DIM
 10
203.1854618537
 20
62.5225354385
 30
0.0
 40
6.37621018554247
 50
333.4349488229
 51
26.5650511771
  0
INSERT
  5
205
  8
DIM
  2
_OPEN30
 10
165.7687069218
 20
74.6256195641
 30
4.0
 41
3.0
 42
3.0
 50
133.1437764439
  0
LINE
  5
206
  8
DIM
 10
165.7687069218
 20
74.6256195641
 30
0.0
 11
179.9457117104
 21
59.4989242897
 31
0.0
  0
LINE
  5
207
  8
DIM
 10
163.7172125729
 20
76.814539603
 30
0.0
 11
165.7687069218
 21
74.6256195641
 31
0.0
  0
LINE
  5
208
  8
DIM
 10
179.9457117104
 20
59.4989242897
 30
0.0
 11
221.7825109684
 21
59.4989242897
 31
0.0
  0
TEXT
  5
209
  8
DIM
 10
181.5332117104
 20
60.7353347392
 30
4.0
 40
3.5
  1
2x
 41
0.7
 11
181.5332117104
 21
59.4989245225
 31
4.0
 73
     1
  0
TEXT
  5
20A
  8
DIM
 10
185.6068227054
 20
60.7353347392
 30
4.0
 40
3.5
  1
%%c
 41
0.7
 11
185.6068227054
 21
59.4989245225
 31
4.0
 73
     1
  0
TEXT
  5
20B
  8
DIM
 10
189.4767534533
 20
60.7353347392
 30
4.0
 40
3.5
  1
3
 41
0.7
 11
189.4767534533
 21
59.4989245225
 31
4.0
 73
     1
  0
TEXT
  5
20C
  8
DIM
 10
191.5135587179
 20
60.7353347392
 30
4.0
 40
3.5
  1
 H8 
 41
0.525
 11
191.5135587179
 21
59.4989245225
 31
4.0
 73
     1
  0
TEXT
  5
20D
  8
DIM
 10
200.3339342038
 20
63.3880226775
 30
4.0
 40
2.45
  1
+
 41
0.7
 11
200.3339342038
 21
62.5225355258
 31
4.0
 73
     1
  0
TEXT
  5
20E
  8
DIM
 10
200.3339342038
 20
60.5364947948
 30
4.0
 40
2.45
  1
 
 41
0.7
 11
200.3339342038
 21
59.6710076431
 31
4.0
 73
     1
  0
TEXT
  5
20F
  8
DIM
 10
201.7596981451
 20
63.3880226775
 30
4.0
 40
2.45
  1
0.014
 41
0.7
 11
201.7596981451
 21
62.5225355258
 31
4.0
 73
     1
  0
TEXT
  5
210
  8
DIM
 10
201.7596981451
 20
60.5364947948
 30
4.0
 40
2.45
  1
0
 41
0.7
 11
201.7596981451
 21
59.6710076431
 31
4.0
 73
     1
  0
TEXT
  5
211
  8
DIM
 10
209.5616737926
 20
60.7353347392
 30
4.0
 40
3.5
  1
 深さ3
 41
0.7
 11
209.5616737926
 21
59.4989245225
 31
4.0
 73
     1
  0
ENDBLK
  5
202
  8
0
  0
BLOCK
  8
0
  2
_D_11
 70
     0
 10
0.0
 20
0.0
 30
0.0
  3
_D_11
  1

  0
INSERT
  5
216
  8
DIM
  2
_OPEN30
 10
195.0290776055
 20
104.7200795836
 30
4.0
 41
3.0
 42
3.0
 50
90.0
  0
INSERT
  5
217
  8
DIM
  2
_OPEN30
 10
195.0290776055
 20
75.7200795836
 30
4.0
 41
3.0
 42
3.0
 50
270.0
  0
LINE
  5
218
  8
DIM
 10
179.4529597474
 20
104.7200795836
 30
0.0
 11
196.0290776055
 21
104.7200795836
 31
0.0
  0
LINE
  5
219
  8
DIM
 10
179.4529597474
 20
75.7200795836
 30
0.0
 11
196.0290776055
 21
75.7200795836
 31
0.0
  0
LINE
  5
21A
  8
DIM
 10
195.0290776055
 20
104.7200795836
 30
0.0
 11
195.0290776055
 21
75.7200795836
 31
0.0
  0
TEXT
  5
21B
  8
DIM
 10
193.7926676216
 20
88.1832740861
 30
4.0
 40
3.5
  1
29
 50
90.0
 41
0.7
 11
195.0290778383
 21
88.1832740861
 31
4.0
 73
     1
  0
ENDBLK
  5
215
  8
0
  0
BLOCK
  8
0
  2
_D_12
 70
     0
 10
0.0
 20
0.0
 30
0.0
  3
_D_12
  1

  0
INSERT
  5
220
  8
DIM
  2
_OPEN30
 10
172.7429597474
 20
124.9639859101
 30
4.0
 41
3.0
 42
3.0
 50
0.0
  0
INSERT
  5
221
  8
DIM
  2
_OPEN30
 10
156.7429597474
 20
124.9639859101
 30
4.0
 41
3.0
 42
3.0
 50
180.0
  0
LINE
  5
222
  8
DIM
 10
172.7429597474
 20
111.4300795836
 30
0.0
 11
172.7429597474
 21
125.9639859101
 31
0.0
  0
LINE
  5
223
  8
DIM
 10
156.7429597474
 20
111.4300795836
 30
0.0
 11
156.7429597474
 21
125.9639859101
 31
0.0
  0
LINE
  5
224
  8
DIM
 10
172.7429597474
 20
124.9639859101
 30
0.0
 11
156.7429597474
 21
124.9639859101
 31
0.0
  0
TEXT
  5
225
  8
DIM
 10
162.7061542499
 20
126.200395894
 30
4.0
 40
3.5
  1
16
 50
0.0
 41
0.7
 11
162.7061542499
 21
124.9639856773
 31
4.0
 73
     1
  0
ENDBLK
  5
21F
  8
0
  0
BLOCK
  8
0
  2
_D_13
 70
     0
 10
0.0
 20
0.0
 30
0.0
  3
_D_13
  1

  0
INSERT
  5
22A
  8
DIM
  2
_OPEN30
 10
164.7429597474
 20
119.2502510075
 30
4.0
 41
3.0
 42
3.0
 50
180.0
  0
INSERT
  5
22B
  8
DIM
  2
_OPEN30
 10
172.7429597474
 20
119.2502510075
 30
4.0
 41
3.0
 42
3.0
 50
0.0
  0
LINE
  5
22C
  8
DIM
 10
164.7429597474
 20
111.2300795836
 30
0.0
 11
164.7429597474
 21
120.2502510075
 31
0.0
  0
LINE
  5
22D
  8
DIM
 10
172.7429597474
 20
111.4300795836
 30
0.0
 11
172.7429597474
 21
120.2502510075
 31
0.0
  0
LINE
  5
22E
  8
DIM
 10
164.7429597474
 20
119.2502510075
 30
0.0
 11
172.7429597474
 21
119.2502510075
 31
0.0
  0
TEXT
  5
22F
  8
DIM
 10
167.7245569986
 20
120.4866609914
 30
4.0
 40
3.5
  1
8
 41
0.7
 11
167.7245569986
 21
119.2502507747
 31
4.0
 73
     1
  0
ENDBLK
  5
229
  8
0
  0
BLOCK
  8
0
  2
_D_14
 70
     0
 10
0.0
 20
0.0
 30
0.0
  3
_D_14
  1

  0
INSERT
  5
234
  8
DIM
  2
_OPEN30
 10
178.5429597474
 20
50.7925928489
 30
4.0
 41
3.0
 42
3.0
 50
0.0
  0
INSERT
  5
235
  8
DIM
  2
_OPEN30
 10
164.7429597474
 20
50.7925928489
 30
4.0
 41
3.0
 42
3.0
 50
180.0
  0
LINE
  5
236
  8
DIM
 10
178.5429597474
 20
70.2100795836
 30
0.0
 11
178.5429597474
 21
49.7925928489
 31
0.0
  0
LINE
  5
237
  8
DIM
 10
164.7429597474
 20
69.2100795836
 30
0.0
 11
164.7429597474
 21
49.7925928489
 31
0.0
  0
LINE
  5
238
  8
DIM
 10
178.5429597474
 20
50.7925928489
 30
0.0
 11
164.7429597474
 21
50.7925928489
 31
0.0
  0
TEXT
  5
239
  8
DIM
 10
167.5693487524
 20
52.0290028328
 30
4.0
 40
3.5
  1
13.8
 50
0.0
 41
0.7
 11
167.5693487524
 21
50.7925926161
 31
4.0
 73
     1
  0
ENDBLK
  5
233
  8
0
  0
BLOCK
  8
0
  2
_D_15
 70
     0
 10
0.0
 20
0.0
 30
0.0
  3
_D_15
  1

  0
INSERT
  5
23F
  8
DIM
  2
_OPEN30
 10
105.7124520934
 20
88.8680241205
 30
4.0
 41
3.0
 42
3.0
 50
52.6861282406
  0
LINE
  5
240
  8
DIM
 10
105.7124520934
 20
88.8680241205
 30
0.0
 11
94.3246802953
 21
73.9269423991
 31
0.0
  0
LINE
  5
241
  8
DIM
 10
107.7734674013
 20
91.5721350466
 30
0.0
 11
105.7124520934
 21
88.8680241205
 31
0.0
  0
LINE
  5
242
  8
DIM
 10
94.3246802953
 20
73.9269423991
 30
0.0
 11
82.7568332878
 21
73.9269423991
 31
0.0
  0
TEXT
  5
243
  8
DIM
 10
82.7568332878
 20
75.1633528487
 30
4.0
 40
3.5
  1
%%c
 41
0.7
 11
82.7568332878
 21
73.926942632
 31
4.0
 73
     1
  0
TEXT
  5
244
  8
DIM
 10
86.6267638029
 20
75.1633528487
 30
4.0
 40
3.5
  1
3.4
 41
0.7
 11
86.6267638029
 21
73.926942632
 31
4.0
 73
     1
  0
ENDBLK
  5
23E
  8
0
  0
BLOCK
  8
0
  2
SW_NOTE_0_1
 70
     0
 10
0.0
 20
0.0
 30
0.0
  3
SW_NOTE_0_1
  1

  0
LINE
  5
248
  8
TXT
 62
     0
 10
-52.3428514009
 20
27.1253060025
 30
0.0
 11
-3.3330916231
 21
27.1253060025
 31
0.0
  0
TEXT
  5
249
  8
TXT
 62
     0
 10
-52.7851815041
 20
28.3659413195
 30
0.0
 40
3.5
  1
φ3.4,6.5深座ぐり深さ5.3
 41
0.7
 11
-52.7851815041
 21
27.1295311028
 31
0.0
 73
     1
  0
LINE
  5
24A
  8
TXT
 62
     0
 10
-3.3330916231
 20
27.1253060025
 30
0.0
 11
0.0
 21
0.0
 31
0.0
  0
INSERT
  5
24B
  8
TXT
 62
     0
  2
_OPEN30
 10
0.0
 20
0.0
 30
4.0
 41
3.0
 42
3.0
 50
277.005249689
  0
ENDBLK
  5
247
  8
0
  0
BLOCK
  8
0
  2
SW_CENTERMARKSYMBOL_8
 70
     0
 10
0.0
 20
0.0
 30
0.0
  3
SW_CENTERMARKSYMBOL_8
  1

  0
LINE
  5
250
  8
DIM
 62
     0
 10
0.0
 20
0.0
 30
0.0
 11
0.0
 21
5.0
 31
0.0
  0
LINE
  5
251
  8
DIM
 62
     0
 10
0.0
 20
0.0
 30
0.0
 11
-5.0
 21
0.0
 31
0.0
  0
LINE
  5
252
  8
DIM
 62
     0
 10
0.0
 20
0.0
 30
0.0
 11
0.0
 21
-5.0
 31
0.0
  0
LINE
  5
253
  8
DIM
 62
     0
 10
0.0
 20
0.0
 30
0.0
 11
5.0
 21
0.0
 31
0.0
  0
LINE
  5
254
  8
DIM
 62
     0
 10
0.0
 20
5.0
 30
0.0
 11
0.0
 21
6.7
 31
0.0
  0
LINE
  5
255
  8
DIM
 62
     0
 10
-5.0
 20
0.0
 30
0.0
 11
-6.7
 21
0.0
 31
0.0
  0
LINE
  5
256
  8
DIM
 62
     0
 10
0.0
 20
-5.0
 30
0.0
 11
0.0
 21
-6.7
 31
0.0
  0
LINE
  5
257
  8
DIM
 62
     0
 10
5.0
 20
0.0
 30
0.0
 11
6.7
 21
0.0
 31
0.0
  0
ENDBLK
  5
24F
  8
0
  0
BLOCK
  8
0
  2
SW_CENTERMARKSYMBOL_9
 70
     0
 10
0.0
 20
0.0
 30
0.0
  3
SW_CENTERMARKSYMBOL_9
  1

  0
LINE
  5
25C
  8
DIM
 62
     0
 10
0.0
 20
0.0
 30
0.0
 11
0.0
 21
5.0
 31
0.0
  0
LINE
  5
25D
  8
DIM
 62
     0
 10
0.0
 20
0.0
 30
0.0
 11
-5.0
 21
0.0
 31
0.0
  0
LINE
  5
25E
  8
DIM
 62
     0
 10
0.0
 20
0.0
 30
0.0
 11
0.0
 21
-5.0
 31
0.0
  0
LINE
  5
25F
  8
DIM
 62
     0
 10
0.0
 20
0.0
 30
0.0
 11
5.0
 21
0.0
 31
0.0
  0
LINE
  5
260
  8
DIM
 62
     0
 10
0.0
 20
5.0
 30
0.0
 11
0.0
 21
6.7
 31
0.0
  0
LINE
  5
261
  8
DIM
 62
     0
 10
-5.0
 20
0.0
 30
0.0
 11
-6.7
 21
0.0
 31
0.0
  0
LINE
  5
262
  8
DIM
 62
     0
 10
0.0
 20
-5.0
 30
0.0
 11
0.0
 21
-6.7
 31
0.0
  0
LINE
  5
263
  8
DIM
 62
     0
 10
5.0
 20
0.0
 30
0.0
 11
6.7
 21
0.0
 31
0.0
  0
ENDBLK
  5
25B
  8
0
  0
BLOCK
  8
0
  2
SW_CENTERMARKSYMBOL_10
 70
     0
 10
0.0
 20
0.0
 30
0.0
  3
SW_CENTERMARKSYMBOL_10
  1

  0
LINE
  5
268
  8
DIM
 62
     0
 10
0.0
 20
0.0
 30
0.0
 11
0.0
 21
5.0
 31
0.0
  0
LINE
  5
269
  8
DIM
 62
     0
 10
0.0
 20
0.0
 30
0.0
 11
-5.0
 21
0.0
 31
0.0
  0
LINE
  5
26A
  8
DIM
 62
     0
 10
0.0
 20
0.0
 30
0.0
 11
0.0
 21
-5.0
 31
0.0
  0
LINE
  5
26B
  8
DIM
 62
     0
 10
0.0
 20
0.0
 30
0.0
 11
5.0
 21
0.0
 31
0.0
  0
LINE
  5
26C
  8
DIM
 62
     0
 10
0.0
 20
5.0
 30
0.0
 11
0.0
 21
6.7
 31
0.0
  0
LINE
  5
26D
  8
DIM
 62
     0
 10
-5.0
 20
0.0
 30
0.0
 11
-6.7
 21
0.0
 31
0.0
  0
LINE
  5
26E
  8
DIM
 62
     0
 10
0.0
 20
-5.0
 30
0.0
 11
0.0
 21
-6.7
 31
0.0
  0
LINE
  5
26F
  8
DIM
 62
     0
 10
5.0
 20
0.0
 30
0.0
 11
6.7
 21
0.0
 31
0.0
  0
ENDBLK
  5
267
  8
0
  0
BLOCK
  8
0
  2
SW_CENTERMARKSYMBOL_11
 70
     0
 10
0.0
 20
0.0
 30
0.0
  3
SW_CENTERMARKSYMBOL_11
  1

  0
LINE
  5
274
  8
DIM
 62
     0
 10
0.0
 20
0.0
 30
0.0
 11
0.0
 21
5.0
 31
0.0
  0
LINE
  5
275
  8
DIM
 62
     0
 10
0.0
 20
0.0
 30
0.0
 11
-5.0
 21
0.0
 31
0.0
  0
LINE
  5
276
  8
DIM
 62
     0
 10
0.0
 20
0.0
 30
0.0
 11
0.0
 21
-5.0
 31
0.0
  0
LINE
  5
277
  8
DIM
 62
     0
 10
0.0
 20
0.0
 30
0.0
 11
5.0
 21
0.0
 31
0.0
  0
LINE
  5
278
  8
DIM
 62
     0
 10
0.0
 20
5.0
 30
0.0
 11
0.0
 21
6.7
 31
0.0
  0
LINE
  5
279
  8
DIM
 62
     0
 10
-5.0
 20
0.0
 30
0.0
 11
-6.7
 21
0.0
 31
0.0
  0
LINE
  5
27A
  8
DIM
 62
     0
 10
0.0
 20
-5.0
 30
0.0
 11
0.0
 21
-6.7
 31
0.0
  0
LINE
  5
27B
  8
DIM
 62
     0
 10
5.0
 20
0.0
 30
0.0
 11
6.7
 21
0.0
 31
0.0
  0
ENDBLK
  5
273
  8
0
  0
BLOCK
  8
0
  2
SW_CENTERMARKSYMBOL_12
 70
     0
 10
0.0
 20
0.0
 30
0.0
  3
SW_CENTERMARKSYMBOL_12
  1

  0
LINE
  5
280
  8
DIM
 62
     0
 10
0.0
 20
0.0
 30
0.0
 11
0.0
 21
5.0
 31
0.0
  0
LINE
  5
281
  8
DIM
 62
     0
 10
0.0
 20
0.0
 30
0.0
 11
-5.0
 21
0.0
 31
0.0
  0
LINE
  5
282
  8
DIM
 62
     0
 10
0.0
 20
0.0
 30
0.0
 11
0.0
 21
-5.0
 31
0.0
  0
LINE
  5
283
  8
DIM
 62
     0
 10
0.0
 20
0.0
 30
0.0
 11
5.0
 21
0.0
 31
0.0
  0
LINE
  5
284
  8
DIM
 62
     0
 10
0.0
 20
5.0
 30
0.0
 11
0.0
 21
6.7
 31
0.0
  0
LINE
  5
285
  8
DIM
 62
     0
 10
-5.0
 20
0.0
 30
0.0
 11
-6.7
 21
0.0
 31
0.0
  0
LINE
  5
286
  8
DIM
 62
     0
 10
0.0
 20
-5.0
 30
0.0
 11
0.0
 21
-6.7
 31
0.0
  0
LINE
  5
287
  8
DIM
 62
     0
 10
5.0
 20
0.0
 30
0.0
 11
6.7
 21
0.0
 31
0.0
  0
ENDBLK
  5
27F
  8
0
  0
BLOCK
  8
0
  2
SW_CENTERMARKSYMBOL_13
 70
     0
 10
0.0
 20
0.0
 30
0.0
  3
SW_CENTERMARKSYMBOL_13
  1

  0
LINE
  5
28C
  8
DIM
 62
     0
 10
0.0
 20
0.0
 30
0.0
 11
0.0
 21
5.0
 31
0.0
  0
LINE
  5
28D
  8
DIM
 62
     0
 10
0.0
 20
0.0
 30
0.0
 11
-5.0
 21
0.0
 31
0.0
  0
LINE
  5
28E
  8
DIM
 62
     0
 10
0.0
 20
0.0
 30
0.0
 11
0.0
 21
-5.0
 31
0.0
  0
LINE
  5
28F
  8
DIM
 62
     0
 10
0.0
 20
0.0
 30
0.0
 11
5.0
 21
0.0
 31
0.0
  0
LINE
  5
290
  8
DIM
 62
     0
 10
0.0
 20
5.0
 30
0.0
 11
0.0
 21
8.25
 31
0.0
  0
LINE
  5
291
  8
DIM
 62
     0
 10
-5.0
 20
0.0
 30
0.0
 11
-8.25
 21
0.0
 31
0.0
  0
LINE
  5
292
  8
DIM
 62
     0
 10
0.0
 20
-5.0
 30
0.0
 11
0.0
 21
-8.25
 31
0.0
  0
LINE
  5
293
  8
DIM
 62
     0
 10
5.0
 20
0.0
 30
0.0
 11
38.5396257332
 21
0.0
 31
0.0
  0
ENDBLK
  5
28B
  8
0
  0
BLOCK
  8
0
  2
SW_CENTERMARKSYMBOL_14
 70
     0
 10
0.0
 20
0.0
 30
0.0
  3
SW_CENTERMARKSYMBOL_14
  1

  0
LINE
  5
298
  8
DIM
 62
     0
 10
0.0
 20
0.0
 30
0.0
 11
0.0
 21
5.0
 31
0.0
  0
LINE
  5
299
  8
DIM
 62
     0
 10
0.0
 20
0.0
 30
0.0
 11
-5.0
 21
0.0
 31
0.0
  0
LINE
  5
29A
  8
DIM
 62
     0
 10
0.0
 20
0.0
 30
0.0
 11
0.0
 21
-5.0
 31
0.0
  0
LINE
  5
29B
  8
DIM
 62
     0
 10
0.0
 20
0.0
 30
0.0
 11
5.0
 21
0.0
 31
0.0
  0
LINE
  5
29C
  8
DIM
 62
     0
 10
0.0
 20
5.0
 30
0.0
 11
0.0
 21
6.5
 31
0.0
  0
LINE
  5
29D
  8
DIM
 62
     0
 10
-5.0
 20
0.0
 30
0.0
 11
-6.5
 21
0.0
 31
0.0
  0
LINE
  5
29E
  8
DIM
 62
     0
 10
0.0
 20
-5.0
 30
0.0
 11
0.0
 21
-6.5
 31
0.0
  0
LINE
  5
29F
  8
DIM
 62
     0
 10
5.0
 20
0.0
 30
0.0
 11
6.5
 21
0.0
 31
0.0
  0
ENDBLK
  5
297
  8
0
  0
BLOCK
  8
0
  2
SW_CENTERMARKSYMBOL_15
 70
     0
 10
0.0
 20
0.0
 30
0.0
  3
SW_CENTERMARKSYMBOL_15
  1

  0
LINE
  5
2A4
  8
DIM
 62
     0
 10
0.0
 20
0.0
 30
0.0
 11
0.0
 21
5.0
 31
0.0
  0
LINE
  5
2A5
  8
DIM
 62
     0
 10
0.0
 20
0.0
 30
0.0
 11
-5.0
 21
0.0
 31
0.0
  0
LINE
  5
2A6
  8
DIM
 62
     0
 10
0.0
 20
0.0
 30
0.0
 11
0.0
 21
-5.0
 31
0.0
  0
LINE
  5
2A7
  8
DIM
 62
     0
 10
0.0
 20
0.0
 30
0.0
 11
5.0
 21
0.0
 31
0.0
  0
LINE
  5
2A8
  8
DIM
 62
     0
 10
0.0
 20
5.0
 30
0.0
 11
0.0
 21
6.5
 31
0.0
  0
LINE
  5
2A9
  8
DIM
 62
     0
 10
-5.0
 20
0.0
 30
0.0
 11
-6.5
 21
0.0
 31
0.0
  0
LINE
  5
2AA
  8
DIM
 62
     0
 10
0.0
 20
-5.0
 30
0.0
 11
0.0
 21
-6.5
 31
0.0
  0
LINE
  5
2AB
  8
DIM
 62
     0
 10
5.0
 20
0.0
 30
0.0
 11
6.5
 21
0.0
 31
0.0
  0
ENDBLK
  5
2A3
  8
0
  0
ENDSEC
  0
SECTION
  2
ENTITIES
  0
LINE
  5
76
  8
0
  6
CONTINUOUS
 62
     7
 10
103.5429597474
 20
222.6396523893
 30
0.0
 11
103.5429597474
 21
182.6396523893
 31
0.0
  0
LINE
  5
77
  8
0
  6
CONTINUOUS
 62
     7
 10
103.0429597474
 20
182.6396523893
 30
0.0
 11
103.0429597474
 21
222.6396523893
 31
0.0
  0
LINE
  5
78
  8
0
  6
CONTINUOUS
 62
     7
 10
178.0429597474
 20
182.6396523893
 30
0.0
 11
178.0429597474
 21
222.6396523893
 31
0.0
  0
LINE
  5
79
  8
0
  6
CONTINUOUS
 62
     7
 10
178.5429597474
 20
222.6396523893
 30
0.0
 11
178.5429597474
 21
182.6396523893
 31
0.0
  0
CIRCLE
  5
7A
  8
0
  6
CONTINUOUS
 62
     7
 10
156.7429597474
 20
188.1396523893
 30
0.0
 40
3.25
  0
CIRCLE
  5
7B
  8
0
  6
CONTINUOUS
 62
     7
 10
156.7429597474
 20
217.1396523893
 30
0.0
 40
3.249999999999972
  0
CIRCLE
  5
7C
  8
0
  6
CONTINUOUS
 62
     7
 10
106.7429597474
 20
202.6396523893
 30
0.0
 40
1.699999999999989
  0
CIRCLE
  5
7D
  8
0
  6
CONTINUOUS
 62
     7
 10
122.7429597474
 20
202.6396523893
 30
0.0
 40
1.699999999999989
  0
LINE
  5
7E
  8
0
  6
CONTINUOUS
 62
     7
 10
173.5429597474
 20
227.1396523893
 30
0.0
 11
108.0429597474
 21
227.1396523893
 31
0.0
  0
ARC
  5
7F
  8
0
  6
CONTINUOUS
 62
     7
 10
173.5429597474
 20
222.6396523893
 30
0.0
 40
4.5
 50
0.0
 51
90.0
  0
ARC
  5
80
  8
0
  6
CONTINUOUS
 62
     7
 10
173.5429597474
 20
182.6396523893
 30
0.0
 40
4.500000000000028
 50
270.0
 51
0.0
  0
LINE
  5
81
  8
0
  6
CONTINUOUS
 62
     7
 10
108.0429597474
 20
178.1396523893
 30
0.0
 11
173.5429597474
 21
178.1396523893
 31
0.0
  0
ARC
  5
82
  8
0
  6
CONTINUOUS
 62
     7
 10
108.0429597474
 20
182.6396523893
 30
0.0
 40
4.500000000000028
 50
180.0
 51
270.0
  0
ARC
  5
83
  8
0
  6
CONTINUOUS
 62
     7
 10
108.0429597474
 20
222.6396523893
 30
0.0
 40
4.5
 50
90.0
 51
180.0
  0
CIRCLE
  5
84
  8
0
  6
CONTINUOUS
 62
     7
 10
134.2429597474
 20
210.1396523893
 30
0.0
 40
2.0
  0
CIRCLE
  5
85
  8
0
  6
CONTINUOUS
 62
     7
 10
134.2429597474
 20
195.1396523893
 30
0.0
 40
2.0
  0
CIRCLE
  5
86
  8
0
  6
CONTINUOUS
 62
     7
 10
172.7429597474
 20
188.1396523893
 30
0.0
 40
3.25
  0
CIRCLE
  5
87
  8
0
  6
CONTINUOUS
 62
     7
 10
172.7429597474
 20
217.1396523893
 30
0.0
 40
3.249999999999972
  0
LINE
  5
88
  8
0
  6
CONTINUOUS
 62
     7
 10
108.0429597474
 20
227.6396523893
 30
0.0
 11
173.5429597474
 21
227.6396523893
 31
0.0
  0
ARC
  5
89
  8
0
  6
CONTINUOUS
 62
     7
 10
108.0429597474
 20
222.6396523893
 30
0.0
 40
5.0
 50
90.0
 51
180.0
  0
CIRCLE
  5
8A
  8
0
  6
CONTINUOUS
 62
     7
 10
134.2429597474
 20
210.1396523893
 30
0.0
 40
1.5
  0
ARC
  5
8B
  8
0
  6
CONTINUOUS
 62
     7
 10
173.5429597474
 20
222.6396523893
 30
0.0
 40
5.0
 50
0.0
 51
90.0
  0
ARC
  5
8C
  8
0
  6
CONTINUOUS
 62
     7
 10
173.5429597474
 20
182.6396523893
 30
0.0
 40
5.000000000000028
 50
270.0
 51
0.0
  0
ARC
  5
8D
  8
0
  6
CONTINUOUS
 62
     7
 10
108.0429597474
 20
182.6396523893
 30
0.0
 40
5.000000000000028
 50
180.0
 51
270.0
  0
LINE
  5
8E
  8
0
  6
CONTINUOUS
 62
     7
 10
173.5429597474
 20
177.6396523893
 30
0.0
 11
108.0429597474
 21
177.6396523893
 31
0.0
  0
CIRCLE
  5
8F
  8
0
  6
CONTINUOUS
 62
     7
 10
134.2429597474
 20
195.1396523893
 30
0.0
 40
1.5
  0
CIRCLE
  5
90
  8
0
  6
CONTINUOUS
 62
     7
 10
156.7429597474
 20
217.1396523893
 30
0.0
 40
1.699999999999989
  0
CIRCLE
  5
91
  8
0
  6
CONTINUOUS
 62
     7
 10
156.7429597474
 20
188.1396523893
 30
0.0
 40
1.700000000000017
  0
CIRCLE
  5
92
  8
0
  6
CONTINUOUS
 62
     7
 10
172.7429597474
 20
217.1396523893
 30
0.0
 40
1.699999999999989
  0
CIRCLE
  5
93
  8
0
  6
CONTINUOUS
 62
     7
 10
172.7429597474
 20
188.1396523893
 30
0.0
 40
1.700000000000017
  0
LINE
  5
94
  8
0
  6
CENTERX2
 62
     7
 10
114.7429597474
 20
217.1184369628
 30
0.0
 11
114.7429597474
 21
188.7898535873
 31
0.0
  0
DIMENSION
  5
95
  8
DIM
  2
_D
 10
134.2429597474
 20
169.7803447735
 30
0.0
 11
124.4929597474
 21
169.7803447735
 31
0.0
 70
   160
  1
<>
  3
SLDDIMSTYLE0
 13
114.7429597474
 23
188.7898535873
 33
0.0
 14
134.2429597474
 24
203.6396523893
 34
0.0
  0
DIMENSION
  5
AA
  8
DIM
  2
_D_1
 10
178.5429597474
 20
246.8111535237
 30
0.0
 11
140.7929597474
 21
246.8111535237
 31
0.0
 70
   160
  1
<>
  3
SLDDIMSTYLE1
 13
103.0429597474
 23
222.6396523893
 33
0.0
 14
178.5429597474
 24
222.6396523893
 34
0.0
  0
DIMENSION
  5
B5
  8
DIM
  2
_D_2
 10
209.8397126064
 20
177.6396523893
 30
0.0
 11
209.8397126064
 21
202.6396523893
 31
0.0
 70
   160
  1
<>
  3
SLDDIMSTYLE1
 13
173.5429597474
 23
227.6396523893
 33
0.0
 14
173.5429597474
 24
177.6396523893
 34
0.0
 50
90.0
  0
DIMENSION
  5
BF
  8
DIM
  2
_D_3
 10
133.6614943454
 20
196.5223663822
 30
0.0
 11
166.2815084554
 21
171.2777121847
 31
0.0
 70
   163
  1
2x<>H8深さ3
  3
SLDDIMSTYLE2
 15
134.8244251493
 25
193.7569383963
 35
0.0
 40
0.0
  0
DIMENSION
  5
D6
  8
DIM
  2
_D_4
 10
193.1974646905
 20
195.1396523893
 30
0.0
 11
193.1974646905
 21
202.6396523893
 31
0.0
 70
   160
  1
<>
  3
SLDDIMSTYLE1
 13
140.7429597474
 23
210.1396523893
 33
0.0
 14
140.7429597474
 24
195.1396523893
 34
0.0
 50
90.0
  0
DIMENSION
  5
E0
  8
DIM
  2
_D_5
 10
122.7429597474
 20
235.474406283
 30
0.0
 11
114.7429597474
 21
235.474406283
 31
0.0
 70
   160
  1
<>
  3
SLDDIMSTYLE1
 13
106.7429597474
 23
209.3396523893
 33
0.0
 14
122.7429597474
 24
209.3396523893
 34
0.0
  0
DIMENSION
  5
EA
  8
DIM
  2
_D_6
 10
134.2429597474
 20
235.474406283
 30
0.0
 11
156.3929597474
 21
235.474406283
 31
0.0
 70
   160
  1
<>
  3
SLDDIMSTYLE1
 13
178.5429597474
 23
222.6396523893
 33
0.0
 14
134.2429597474
 24
216.6396523893
 34
0.0
  0
INSERT
  5
FB
  8
TXT
  2
SW_NOTE_0
 10
174.7281006162
 20
185.5663829259
 30
0.0
  0
INSERT
  5
107
  8
DIM
  2
SW_CENTERMARKSYMBOL_0
 10
106.7429597474
 20
202.6396523893
 30
0.0
  0
INSERT
  5
113
  8
DIM
  2
SW_CENTERMARKSYMBOL_1
 10
156.7429597474
 20
188.1396523893
 30
0.0
  0
INSERT
  5
11F
  8
DIM
  2
SW_CENTERMARKSYMBOL_2
 10
172.7429597474
 20
188.1396523893
 30
0.0
  0
INSERT
  5
12B
  8
DIM
  2
SW_CENTERMARKSYMBOL_3
 10
156.7429597474
 20
217.1396523893
 30
0.0
  0
INSERT
  5
137
  8
DIM
  2
SW_CENTERMARKSYMBOL_4
 10
172.7429597474
 20
217.1396523893
 30
0.0
  0
INSERT
  5
143
  8
DIM
  2
SW_CENTERMARKSYMBOL_5
 10
134.2429597474
 20
210.1396523893
 30
0.0
  0
INSERT
  5
14F
  8
DIM
  2
SW_CENTERMARKSYMBOL_6
 10
134.2429597474
 20
195.1396523893
 30
0.0
  0
INSERT
  5
15B
  8
DIM
  2
SW_CENTERMARKSYMBOL_7
 10
122.7429597474
 20
202.6396523893
 30
0.0
  0
LINE
  5
15C
  8
0
  6
CENTERX2
 62
     7
 10
185.1429597474
 20
202.6396523893
 30
0.0
 11
95.1221612919
 21
202.6396523893
 31
0.0
  0
LINE
  5
15D
  8
0
  6
CONTINUOUS
 62
     7
 10
183.1429597474
 20
189.9396523893
 30
0.0
 11
183.1429597474
 21
202.6396523893
 31
0.0
  0
INSERT
  5
15E
  8
0
  6
CONTINUOUS
 62
     7
  2
_OPEN30
 10
183.1429597474
 20
202.6396523893
 30
0.0
 41
3.0
 42
3.0
 50
90.0
  0
LINE
  5
15F
  8
0
  6
CONTINUOUS
 62
     7
 10
97.1221612919
 20
189.9396523893
 30
0.0
 11
97.1221612919
 21
202.6396523893
 31
0.0
  0
INSERT
  5
160
  8
0
  6
CONTINUOUS
 62
     7
  2
_OPEN30
 10
97.1221612919
 20
202.6396523893
 30
0.0
 41
3.0
 42
3.0
 50
90.0
  0
TEXT
  5
161
  8
0
  6
CONTINUOUS
 62
     7
 10
183.9564168396
 20
190.5069378507
 30
0.0
 40
3.5
  1
A
 41
0.7
 11
183.9564168396
 21
194.0069378507
 31
0.0
 73
     3
  0
TEXT
  5
162
  8
0
  6
CONTINUOUS
 62
     7
 10
94.2750614689
 20
190.5069378507
 30
0.0
 40
3.5
  1
A
 41
0.7
 11
94.2750614689
 21
194.0069378507
 31
0.0
 73
     3
  0
LINE
  5
163
  8
0
  6
CONTINUOUS
 62
     7
 10
237.6114224363
 20
222.6396523893
 30
0.0
 11
237.6114224363
 21
227.6396523893
 31
0.0
  0
LINE
  5
164
  8
0
  6
CONTINUOUS
 62
     7
 10
237.6114224363
 20
227.6396523893
 30
0.0
 11
238.1114224363
 21
227.1396523893
 31
0.0
  0
LINE
  5
165
  8
0
  6
CONTINUOUS
 62
     7
 10
238.1114224363
 20
227.1396523893
 30
0.0
 11
238.1114224363
 21
222.6396523893
 31
0.0
  0
LINE
  5
166
  8
0
  6
CONTINUOUS
 62
     7
 10
237.6114224363
 20
177.6396523893
 30
0.0
 11
237.6114224363
 21
182.6396523893
 31
0.0
  0
LINE
  5
167
  8
0
  6
CONTINUOUS
 62
     7
 10
238.1114224363
 20
182.6396523893
 30
0.0
 11
238.1114224363
 21
178.1396523893
 31
0.0
  0
LINE
  5
168
  8
0
  6
CONTINUOUS
 62
     7
 10
238.1114224363
 20
178.1396523893
 30
0.0
 11
237.6114224363
 21
177.6396523893
 31
0.0
  0
LINE
  5
169
  8
0
  6
CONTINUOUS
 62
     7
 10
237.6114224363
 20
182.6396523893
 30
0.0
 11
237.6114224363
 21
222.6396523893
 31
0.0
  0
LINE
  5
16A
  8
0
  6
CONTINUOUS
 62
     7
 10
238.1114224363
 20
222.6396523893
 30
0.0
 11
238.1114224363
 21
182.6396523893
 31
0.0
  0
LINE
  5
16B
  8
0
  6
CONTINUOUS
 62
     7
 10
230.6114224363
 20
222.6396523893
 30
0.0
 11
230.6114224363
 21
182.6396523893
 31
0.0
  0
LINE
  5
16C
  8
0
  6
CONTINUOUS
 62
     7
 10
230.6114224363
 20
227.6396523893
 30
0.0
 11
230.6114224363
 21
222.6396523893
 31
0.0
  0
LINE
  5
16D
  8
0
  6
CONTINUOUS
 62
     7
 10
230.6114224363
 20
227.6396523893
 30
0.0
 11
237.6114224363
 21
227.6396523893
 31
0.0
  0
LINE
  5
16E
  8
0
  6
CONTINUOUS
 62
     7
 10
230.6114224363
 20
182.6396523893
 30
0.0
 11
230.6114224363
 21
177.6396523893
 31
0.0
  0
LINE
  5
16F
  8
0
  6
CONTINUOUS
 62
     7
 10
237.6114224363
 20
177.6396523893
 30
0.0
 11
230.6114224363
 21
177.6396523893
 31
0.0
  0
LINE
  5
170
  8
0
  6
CONTINUOUS
 62
     7
 10
230.1114224363
 20
182.6396523893
 30
0.0
 11
230.1114224363
 21
222.6396523893
 31
0.0
  0
LINE
  5
171
  8
0
  6
CONTINUOUS
 62
     7
 10
230.1114224363
 20
222.6396523893
 30
0.0
 11
230.1114224363
 21
227.1396523893
 31
0.0
  0
LINE
  5
172
  8
0
  6
CONTINUOUS
 62
     7
 10
230.1114224363
 20
227.1396523893
 30
0.0
 11
230.6114224363
 21
227.6396523893
 31
0.0
  0
LINE
  5
173
  8
0
  6
CONTINUOUS
 62
     7
 10
230.6114224363
 20
177.6396523893
 30
0.0
 11
230.1114224363
 21
178.1396523893
 31
0.0
  0
LINE
  5
174
  8
0
  6
CONTINUOUS
 62
     7
 10
230.1114224363
 20
178.1396523893
 30
0.0
 11
230.1114224363
 21
182.6396523893
 31
0.0
  0
DIMENSION
  5
175
  8
DIM
  2
_D_7
 10
238.1114224363
 20
241.7686729354
 30
0.0
 11
234.1114224363
 21
241.7686729354
 31
0.0
 70
   160
  1
<>
  3
SLDDIMSTYLE3
 13
230.1114224363
 23
222.6396523893
 33
0.0
 14
238.1114224363
 24
227.1396523893
 34
0.0
  0
LINE
  5
182
  8
0
  6
CONTINUOUS
 62
     7
 10
109.6515510815
 20
153.1449546345
 30
0.0
 11
108.4429597474
 21
151.9363633003
 31
0.0
  0
LINE
  5
183
  8
0
  6
CONTINUOUS
 62
     7
 10
114.141679142
 20
153.1449546345
 30
0.0
 11
109.9929597474
 21
148.9962352398
 31
0.0
  0
LINE
  5
184
  8
0
  6
CONTINUOUS
 62
     7
 10
118.6318072025
 20
153.1449546345
 30
0.0
 11
110.6318072025
 21
145.1449546345
 31
0.0
  0
LINE
  5
185
  8
0
  6
CONTINUOUS
 62
     7
 10
119.4929597474
 20
149.5159791187
 30
0.0
 11
115.1219352631
 21
145.1449546345
 31
0.0
  0
LINE
  5
186
  8
0
  6
CONTINUOUS
 62
     7
 10
121.0429597474
 20
151.0659791187
 30
0.0
 11
120.4219352631
 21
150.4449546345
 31
0.0
  0
LINE
  5
187
  8
0
  6
CONTINUOUS
 62
     7
 10
105.0429597474
 20
153.0264913609
 30
0.0
 11
103.0429597474
 21
151.0264913609
 31
0.0
  0
LINE
  5
188
  8
0
  6
CONTINUOUS
 62
     7
 10
127.6120633236
 20
153.1449546345
 30
0.0
 11
124.9120633236
 21
150.4449546345
 31
0.0
  0
LINE
  5
189
  8
0
  6
CONTINUOUS
 62
     7
 10
132.1021913842
 20
153.1449546345
 30
0.0
 11
125.9929597474
 21
147.0357229977
 31
0.0
  0
LINE
  5
18A
  8
0
  6
CONTINUOUS
 62
     7
 10
136.5923194447
 20
153.1449546345
 30
0.0
 11
128.5923194447
 21
145.1449546345
 31
0.0
  0
LINE
  5
18B
  8
0
  6
CONTINUOUS
 62
     7
 10
141.0824475052
 20
153.1449546345
 30
0.0
 11
133.0824475052
 21
145.1449546345
 31
0.0
  0
LINE
  5
18C
  8
0
  6
CONTINUOUS
 62
     7
 10
145.5725755658
 20
153.1449546345
 30
0.0
 11
137.5725755658
 21
145.1449546345
 31
0.0
  0
LINE
  5
18D
  8
0
  6
CONTINUOUS
 62
     7
 10
150.0627036263
 20
153.1449546345
 30
0.0
 11
142.0627036263
 21
145.1449546345
 31
0.0
  0
LINE
  5
18E
  8
0
  6
CONTINUOUS
 62
     7
 10
154.5528316868
 20
153.1449546345
 30
0.0
 11
146.5528316868
 21
145.1449546345
 31
0.0
  0
LINE
  5
18F
  8
0
  6
CONTINUOUS
 62
     7
 10
159.0429597474
 20
153.1449546345
 30
0.0
 11
151.0429597474
 21
145.1449546345
 31
0.0
  0
LINE
  5
190
  8
0
  6
CONTINUOUS
 62
     7
 10
163.5330878079
 20
153.1449546345
 30
0.0
 11
155.5330878079
 21
145.1449546345
 31
0.0
  0
LINE
  5
191
  8
0
  6
CONTINUOUS
 62
     7
 10
168.0232158684
 20
153.1449546345
 30
0.0
 11
160.0232158684
 21
145.1449546345
 31
0.0
  0
LINE
  5
192
  8
0
  6
CONTINUOUS
 62
     7
 10
172.513343929
 20
153.1449546345
 30
0.0
 11
164.513343929
 21
145.1449546345
 31
0.0
  0
LINE
  5
193
  8
0
  6
CONTINUOUS
 62
     7
 10
177.0034719895
 20
153.1449546345
 30
0.0
 11
169.0034719895
 21
145.1449546345
 31
0.0
  0
LINE
  5
194
  8
0
  6
CONTINUOUS
 62
     7
 10
178.5429597474
 20
150.1943143318
 30
0.0
 11
173.49360005
 21
145.1449546345
 31
0.0
  0
LINE
  5
195
  8
0
  6
CONTINUOUS
 62
     7
 10
178.5429597474
 20
145.7041862713
 30
0.0
 11
177.9837281106
 21
145.1449546345
 31
0.0
  0
LINE
  5
196
  8
0
  6
CONTINUOUS
 62
     7
 10
119.4929597474
 20
145.1449546345
 30
0.0
 11
119.4929597474
 21
150.4449546345
 31
0.0
  0
LINE
  5
197
  8
0
  6
CONTINUOUS
 62
     7
 10
110.4929597474
 20
145.1449546345
 30
0.0
 11
119.4929597474
 21
145.1449546345
 31
0.0
  0
LINE
  5
198
  8
0
  6
CONTINUOUS
 62
     7
 10
110.4929597474
 20
145.1449546345
 30
0.0
 11
109.9929597474
 21
145.6449546345
 31
0.0
  0
LINE
  5
199
  8
0
  6
CONTINUOUS
 62
     7
 10
109.9929597474
 20
150.4449546345
 30
0.0
 11
109.9929597474
 21
145.6449546345
 31
0.0
  0
LINE
  5
19A
  8
0
  6
CONTINUOUS
 62
     7
 10
108.4429597474
 20
150.4449546345
 30
0.0
 11
109.9929597474
 21
150.4449546345
 31
0.0
  0
LINE
  5
19B
  8
0
  6
CONTINUOUS
 62
     7
 10
108.4429597474
 20
153.1449546345
 30
0.0
 11
108.4429597474
 21
150.4449546345
 31
0.0
  0
LINE
  5
19C
  8
0
  6
CONTINUOUS
 62
     7
 10
108.4429597474
 20
153.1449546345
 30
0.0
 11
121.0429597474
 21
153.1449546345
 31
0.0
  0
LINE
  5
19D
  8
0
  6
CONTINUOUS
 62
     7
 10
121.0429597474
 20
150.4449546345
 30
0.0
 11
121.0429597474
 21
153.1449546345
 31
0.0
  0
LINE
  5
19E
  8
0
  6
CONTINUOUS
 62
     7
 10
119.4929597474
 20
150.4449546345
 30
0.0
 11
121.0429597474
 21
150.4449546345
 31
0.0
  0
LINE
  5
19F
  8
0
  6
CONTINUOUS
 62
     7
 10
125.9929597474
 20
150.4449546345
 30
0.0
 11
125.9929597474
 21
145.1449546345
 31
0.0
  0
LINE
  5
1A0
  8
0
  6
CONTINUOUS
 62
     7
 10
119.4929597474
 20
145.1449546345
 30
0.0
 11
125.9929597474
 21
145.1449546345
 31
0.0
  0
LINE
  5
1A1
  8
0
  6
CONTINUOUS
 62
     7
 10
106.7429597474
 20
145.6449546345
 30
0.0
 11
109.9929597474
 21
145.6449546345
 31
0.0
  0
LINE
  5
1A2
  8
0
  6
CONTINUOUS
 62
     7
 10
110.4929597474
 20
145.1449546345
 30
0.0
 11
106.7429597474
 21
145.1449546345
 31
0.0
  0
LINE
  5
1A3
  8
0
  6
CONTINUOUS
 62
     7
 10
124.4429597474
 20
153.1449546345
 30
0.0
 11
178.0429597474
 21
153.1449546345
 31
0.0
  0
LINE
  5
1A4
  8
0
  6
CONTINUOUS
 62
     7
 10
178.0429597474
 20
153.1449546345
 30
0.0
 11
178.5429597474
 21
152.6449546345
 31
0.0
  0
LINE
  5
1A5
  8
0
  6
CONTINUOUS
 62
     7
 10
178.5429597474
 20
145.6449546345
 30
0.0
 11
178.5429597474
 21
152.6449546345
 31
0.0
  0
LINE
  5
1A6
  8
0
  6
CONTINUOUS
 62
     7
 10
178.5429597474
 20
145.6449546345
 30
0.0
 11
178.0429597474
 21
145.1449546345
 31
0.0
  0
LINE
  5
1A7
  8
0
  6
CONTINUOUS
 62
     7
 10
124.4429597474
 20
150.4449546345
 30
0.0
 11
125.9929597474
 21
150.4449546345
 31
0.0
  0
LINE
  5
1A8
  8
0
  6
CONTINUOUS
 62
     7
 10
124.4429597474
 20
153.1449546345
 30
0.0
 11
124.4429597474
 21
150.4449546345
 31
0.0
  0
LINE
  5
1A9
  8
0
  6
CONTINUOUS
 62
     7
 10
125.9929597474
 20
145.1449546345
 30
0.0
 11
178.0429597474
 21
145.1449546345
 31
0.0
  0
LINE
  5
1AA
  8
0
  6
CONTINUOUS
 62
     7
 10
105.0429597474
 20
153.1449546345
 30
0.0
 11
108.4429597474
 21
153.1449546345
 31
0.0
  0
LINE
  5
1AB
  8
0
  6
CONTINUOUS
 62
     7
 10
105.0429597474
 20
150.4449546345
 30
0.0
 11
108.4429597474
 21
150.4449546345
 31
0.0
  0
LINE
  5
1AC
  8
0
  6
CONTINUOUS
 62
     7
 10
105.0429597474
 20
150.4449546345
 30
0.0
 11
105.0429597474
 21
153.1449546345
 31
0.0
  0
LINE
  5
1AD
  8
0
  6
CONTINUOUS
 62
     7
 10
103.5429597474
 20
150.4449546345
 30
0.0
 11
103.0429597474
 21
150.9449546345
 31
0.0
  0
LINE
  5
1AE
  8
0
  6
CONTINUOUS
 62
     7
 10
103.0429597474
 20
152.6449546345
 30
0.0
 11
103.5429597474
 21
153.1449546345
 31
0.0
  0
LINE
  5
1AF
  8
0
  6
CONTINUOUS
 62
     7
 10
103.5429597474
 20
153.1449546345
 30
0.0
 11
105.0429597474
 21
153.1449546345
 31
0.0
  0
LINE
  5
1B0
  8
0
  6
CONTINUOUS
 62
     7
 10
103.5429597474
 20
150.4449546345
 30
0.0
 11
105.0429597474
 21
150.4449546345
 31
0.0
  0
LINE
  5
1B1
  8
0
  6
CONTINUOUS
 62
     7
 10
103.0429597474
 20
152.6449546345
 30
0.0
 11
103.0429597474
 21
150.9449546345
 31
0.0
  0
LINE
  5
1B2
  8
0
  6
CONTINUOUS
 62
     7
 10
121.0429597474
 20
153.1449546345
 30
0.0
 11
124.4429597474
 21
153.1449546345
 31
0.0
  0
LINE
  5
1B3
  8
0
  6
CONTINUOUS
 62
     7
 10
121.0429597474
 20
150.4449546345
 30
0.0
 11
124.4429597474
 21
150.4449546345
 31
0.0
  0
LINE
  5
1B4
  8
0
  6
CONTINUOUS
 62
     7
 10
103.5429597474
 20
145.6449546345
 30
0.0
 11
106.7429597474
 21
145.6449546345
 31
0.0
  0
LINE
  5
1B5
  8
0
  6
CONTINUOUS
 62
     7
 10
103.5429597474
 20
145.6449546345
 30
0.0
 11
103.5429597474
 21
145.1449546345
 31
0.0
  0
LINE
  5
1B6
  8
0
  6
CONTINUOUS
 62
     7
 10
106.7429597474
 20
145.1449546345
 30
0.0
 11
103.5429597474
 21
145.1449546345
 31
0.0
  0
LINE
  5
1B7
  8
0
  6
CONTINUOUS
 62
     7
 10
103.0429597474
 20
145.6449546345
 30
0.0
 11
103.5429597474
 21
145.1449546345
 31
0.0
  0
LINE
  5
1B8
  8
0
  6
CONTINUOUS
 62
     7
 10
103.5429597474
 20
145.6449546345
 30
0.0
 11
103.0429597474
 21
145.6449546345
 31
0.0
  0
LINE
  5
1B9
  8
0
  6
CONTINUOUS
 62
     7
 10
103.5429597474
 20
150.4449546345
 30
0.0
 11
103.5429597474
 21
145.6449546345
 31
0.0
  0
LINE
  5
1BA
  8
0
  6
CONTINUOUS
 62
     7
 10
103.0429597474
 20
145.6449546345
 30
0.0
 11
103.0429597474
 21
150.9449546345
 31
0.0
  0
DIMENSION
  5
1BB
  8
DIM
  2
_D_8
 10
88.8406864747
 20
150.4449546345
 30
0.0
 11
88.8406864747
 21
158.3920640624
 31
0.0
 70
   160
  1
<>
  3
SLDDIMSTYLE3
 13
106.7429597474
 23
145.1449546345
 33
0.0
 14
105.0429597474
 24
150.4449546345
 34
0.0
 50
90.0
  0
TEXT
  5
1C7
  8
0
  6
CONTINUOUS
 62
     7
 10
137.7377513847
 20
162.4827538562
 30
0.0
 40
3.5
  1
A-A
 41
0.7
 11
137.7377513847
 21
161.2463436395
 31
0.0
 73
     1
  0
ARC
  5
1C8
  8
0
  6
CONTINUOUS
 62
     7
 10
173.5429597474
 20
70.2200795836
 30
0.0
 40
5.000000000000014
 50
270.0
 51
0.0
  0
ARC
  5
1C9
  8
0
  6
CONTINUOUS
 62
     7
 10
173.5429597474
 20
70.2200795836
 30
0.0
 40
4.500000000000014
 50
270.0
 51
0.0
  0
ARC
  5
1CA
  8
0
  6
CONTINUOUS
 62
     7
 10
108.0429597474
 20
70.2200795836
 30
0.0
 40
5.0
 50
180.0
 51
270.0
  0
ARC
  5
1CB
  8
0
  6
CONTINUOUS
 62
     7
 10
108.0429597474
 20
70.2200795836
 30
0.0
 40
4.500000000000014
 50
180.0
 51
270.0
  0
LINE
  5
1CC
  8
0
  6
CONTINUOUS
 62
     7
 10
173.5429597474
 20
65.2200795836
 30
0.0
 11
108.0429597474
 21
65.2200795836
 31
0.0
  0
LINE
  5
1CD
  8
0
  6
CONTINUOUS
 62
     7
 10
108.0429597474
 20
65.7200795836
 30
0.0
 11
173.5429597474
 21
65.7200795836
 31
0.0
  0
CIRCLE
  5
1CE
  8
0
  6
CONTINUOUS
 62
     7
 10
156.7429597474
 20
104.7200795836
 30
0.0
 40
1.699999999999989
  0
CIRCLE
  5
1CF
  8
0
  6
CONTINUOUS
 62
     7
 10
172.7429597474
 20
104.7200795836
 30
0.0
 40
1.699999999999989
  0
CIRCLE
  5
1D0
  8
0
  6
CONTINUOUS
 62
     7
 10
156.7429597474
 20
75.7200795836
 30
0.0
 40
1.700000000000003
  0
CIRCLE
  5
1D1
  8
0
  6
CONTINUOUS
 62
     7
 10
172.7429597474
 20
75.7200795836
 30
0.0
 40
1.700000000000003
  0
CIRCLE
  5
1D2
  8
0
  6
CONTINUOUS
 62
     7
 10
122.7429597474
 20
90.2200795836
 30
0.0
 40
3.25
  0
LINE
  5
1D3
  8
0
  6
CONTINUOUS
 62
     7
 10
103.5429597474
 20
93.9700795836
 30
0.0
 11
106.7429597474
 21
93.9700795836
 31
0.0
  0
LINE
  5
1D4
  8
0
  6
CONTINUOUS
 62
     7
 10
103.5429597474
 20
110.2200795836
 30
0.0
 11
103.5429597474
 21
93.9700795836
 31
0.0
  0
ARC
  5
1D5
  8
0
  6
CONTINUOUS
 62
     7
 10
108.0429597474
 20
110.2200795836
 30
0.0
 40
4.5
 50
90.0
 51
180.0
  0
LINE
  5
1D6
  8
0
  6
CONTINUOUS
 62
     7
 10
173.5429597474
 20
114.7200795836
 30
0.0
 11
108.0429597474
 21
114.7200795836
 31
0.0
  0
ARC
  5
1D7
  8
0
  6
CONTINUOUS
 62
     7
 10
173.5429597474
 20
110.2200795836
 30
0.0
 40
4.5
 50
0.0
 51
90.0
  0
LINE
  5
1D8
  8
0
  6
CONTINUOUS
 62
     7
 10
178.0429597474
 20
70.2200795836
 30
0.0
 11
178.0429597474
 21
110.2200795836
 31
0.0
  0
LINE
  5
1D9
  8
0
  6
CONTINUOUS
 62
     7
 10
103.5429597474
 20
86.4700795836
 30
0.0
 11
103.5429597474
 21
70.2200795836
 31
0.0
  0
LINE
  5
1DA
  8
0
  6
CONTINUOUS
 62
     7
 10
106.7429597474
 20
86.4700795836
 30
0.0
 11
103.5429597474
 21
86.4700795836
 31
0.0
  0
ARC
  5
1DB
  8
0
  6
CONTINUOUS
 62
     7
 10
106.7429597474
 20
90.2200795836
 30
0.0
 40
3.75
 50
270.0
 51
90.0
  0
CIRCLE
  5
1DC
  8
0
  6
CONTINUOUS
 62
     7
 10
164.7429597474
 20
104.7200795836
 30
0.0
 40
2.000000000000014
  0
CIRCLE
  5
1DD
  8
0
  6
CONTINUOUS
 62
     7
 10
164.7429597474
 20
75.7200795836
 30
0.0
 40
2.000000000000014
  0
LINE
  5
1DE
  8
0
  6
CONTINUOUS
 62
     7
 10
103.0429597474
 20
70.2200795836
 30
0.0
 11
103.0429597474
 21
86.4700795836
 31
0.0
  0
LINE
  5
1DF
  8
0
  6
CONTINUOUS
 62
     7
 10
103.0429597474
 20
86.4700795836
 30
0.0
 11
103.5429597474
 21
86.4700795836
 31
0.0
  0
LINE
  5
1E0
  8
0
  6
CONTINUOUS
 62
     7
 10
178.5429597474
 20
110.2200795836
 30
0.0
 11
178.5429597474
 21
70.2200795836
 31
0.0
  0
CIRCLE
  5
1E1
  8
0
  6
CONTINUOUS
 62
     7
 10
164.7429597474
 20
75.7200795836
 30
0.0
 40
1.5
  0
LINE
  5
1E2
  8
0
  6
CONTINUOUS
 62
     7
 10
103.5429597474
 20
86.9700795836
 30
0.0
 11
103.5429597474
 21
86.4700795836
 31
0.0
  0
LINE
  5
1E3
  8
0
  6
CONTINUOUS
 62
     7
 10
103.5429597474
 20
86.9700795836
 30
0.0
 11
103.0429597474
 21
86.4700795836
 31
0.0
  0
LINE
  5
1E4
  8
0
  6
CONTINUOUS
 62
     7
 10
103.5429597474
 20
86.9700795836
 30
0.0
 11
106.7429597474
 21
86.9700795836
 31
0.0
  0
ARC
  5
1E5
  8
0
  6
CONTINUOUS
 62
     7
 10
106.7429597474
 20
90.2200795836
 30
0.0
 40
3.25
 50
270.0
 51
90.0
  0
LINE
  5
1E6
  8
0
  6
CONTINUOUS
 62
     7
 10
106.7429597474
 20
93.4700795836
 30
0.0
 11
103.5429597474
 21
93.4700795836
 31
0.0
  0
LINE
  5
1E7
  8
0
  6
CONTINUOUS
 62
     7
 10
103.5429597474
 20
93.9700795836
 30
0.0
 11
103.5429597474
 21
93.4700795836
 31
0.0
  0
LINE
  5
1E8
  8
0
  6
CONTINUOUS
 62
     7
 10
103.0429597474
 20
93.9700795836
 30
0.0
 11
103.5429597474
 21
93.4700795836
 31
0.0
  0
LINE
  5
1E9
  8
0
  6
CONTINUOUS
 62
     7
 10
103.5429597474
 20
93.9700795836
 30
0.0
 11
103.0429597474
 21
93.9700795836
 31
0.0
  0
LINE
  5
1EA
  8
0
  6
CONTINUOUS
 62
     7
 10
103.0429597474
 20
93.9700795836
 30
0.0
 11
103.0429597474
 21
110.2200795836
 31
0.0
  0
CIRCLE
  5
1EB
  8
0
  6
CONTINUOUS
 62
     7
 10
164.7429597474
 20
104.7200795836
 30
0.0
 40
1.5
  0
ARC
  5
1EC
  8
0
  6
CONTINUOUS
 62
     7
 10
108.0429597474
 20
110.2200795836
 30
0.0
 40
5.000000000000014
 50
90.0
 51
180.0
  0
ARC
  5
1ED
  8
0
  6
CONTINUOUS
 62
     7
 10
173.5429597474
 20
110.2200795836
 30
0.0
 40
5.000000000000014
 50
0.0
 51
90.0
  0
LINE
  5
1EE
  8
0
  6
CONTINUOUS
 62
     7
 10
108.0429597474
 20
115.2200795836
 30
0.0
 11
173.5429597474
 21
115.2200795836
 31
0.0
  0
LINE
  5
1EF
  8
0
  6
CONTINUOUS
 62
     7
 10
103.5429597474
 20
93.4700795836
 30
0.0
 11
103.5429597474
 21
86.9700795836
 31
0.0
  0
LINE
  5
1F0
  8
0
  6
CONTINUOUS
 62
     7
 10
103.0429597474
 20
86.4700795836
 30
0.0
 11
103.0429597474
 21
93.9700795836
 31
0.0
  0
CIRCLE
  5
1F1
  8
0
  6
CONTINUOUS
 62
     7
 10
106.7429597474
 20
90.2200795836
 30
0.0
 40
1.699999999999989
  0
CIRCLE
  5
1F2
  8
0
  6
CONTINUOUS
 62
     7
 10
122.7429597474
 20
90.2200795836
 30
0.0
 40
1.699999999999989
  0
DIMENSION
  5
1F3
  8
DIM
  2
_D_9
 10
91.6107128995
 20
86.9700795836
 30
0.0
 11
91.6107128995
 21
90.2200795836
 31
0.0
 70
   160
  1
<>
  3
SLDDIMSTYLE3
 13
103.5429597474
 23
93.4700795836
 33
0.0
 14
103.5429597474
 24
86.9700795836
 34
0.0
 50
90.0
  0
DIMENSION
  5
1FF
  8
DIM
  2
_D_10
 10
163.7172125729
 20
76.814539603
 30
0.0
 11
201.6578613394
 21
62.6147142545
 31
0.0
 70
   163
  1
2x<>H8 深さ3
  3
SLDDIMSTYLE2
 15
165.7687069218
 25
74.6256195641
 35
0.0
 40
0.0
  0
DIMENSION
  5
212
  8
DIM
  2
_D_11
 10
195.0290776055
 20
75.7200795836
 30
0.0
 11
195.0290776055
 21
90.2200795836
 31
0.0
 70
   160
  1
<>
  3
SLDDIMSTYLE1
 13
179.4429597474
 23
104.7200795836
 33
0.0
 14
179.4429597474
 24
75.7200795836
 34
0.0
 50
90.0
  0
DIMENSION
  5
21C
  8
DIM
  2
_D_12
 10
156.7429597474
 20
124.9639859101
 30
0.0
 11
164.7429597474
 21
124.9639859101
 31
0.0
 70
   160
  1
<>
  3
SLDDIMSTYLE1
 13
172.7429597474
 23
111.4200795836
 33
0.0
 14
156.7429597474
 24
111.4200795836
 34
0.0
  0
DIMENSION
  5
226
  8
DIM
  2
_D_13
 10
172.7429597474
 20
119.2502510075
 30
0.0
 11
168.7429597474
 21
119.2502510075
 31
0.0
 70
   160
  1
<>
  3
SLDDIMSTYLE1
 13
164.7429597474
 23
111.2200795836
 33
0.0
 14
172.7429597474
 24
111.4200795836
 34
0.0
  0
DIMENSION
  5
230
  8
DIM
  2
_D_14
 10
164.7429597474
 20
50.7925928489
 30
0.0
 11
171.6429597474
 21
50.7925928489
 31
0.0
 70
   160
  1
<>
  3
SLDDIMSTYLE1
 13
178.5429597474
 23
70.2200795836
 33
0.0
 14
164.7429597474
 24
69.2200795836
 34
0.0
  0
DIMENSION
  5
23A
  8
DIM
  2
_D_15
 10
107.7734674013
 20
91.5721350466
 30
0.0
 11
87.7470067916
 21
76.2505535729
 31
0.0
 70
   163
  1
<>
  3
SLDDIMSTYLE4
 15
105.7124520934
 25
88.8680241205
 35
0.0
 40
0.0
  0
INSERT
  5
24C
  8
TXT
  2
SW_NOTE_0_1
 10
121.679766698
 20
93.2912553421
 30
0.0
  0
INSERT
  5
258
  8
DIM
  2
SW_CENTERMARKSYMBOL_8
 10
106.7429597474
 20
90.2200795836
 30
0.0
  0
INSERT
  5
264
  8
DIM
  2
SW_CENTERMARKSYMBOL_9
 10
156.7429597474
 20
104.7200795836
 30
0.0
  0
INSERT
  5
270
  8
DIM
  2
SW_CENTERMARKSYMBOL_10
 10
172.7429597474
 20
104.7200795836
 30
0.0
  0
INSERT
  5
27C
  8
DIM
  2
SW_CENTERMARKSYMBOL_11
 10
156.7429597474
 20
75.7200795836
 30
0.0
  0
INSERT
  5
288
  8
DIM
  2
SW_CENTERMARKSYMBOL_12
 10
172.7429597474
 20
75.7200795836
 30
0.0
  0
INSERT
  5
294
  8
DIM
  2
SW_CENTERMARKSYMBOL_13
 10
122.7429597474
 20
90.2200795836
 30
0.0
  0
INSERT
  5
2A0
  8
DIM
  2
SW_CENTERMARKSYMBOL_14
 10
164.7429597474
 20
104.7200795836
 30
0.0
  0
INSERT
  5
2AC
  8
DIM
  2
SW_CENTERMARKSYMBOL_15
 10
164.7429597474
 20
75.7200795836
 30
0.0
  0
ENDSEC
  0
EOF
