  0
SECTION
  2
HEADER
  9
$ACADVER
  1
AC1009
  9
$DWGCODEPAGE
  3
dos932
  9
$INSBASE
 10
0.0
 20
0.0
 30
0.0
  9
$EXTMIN
 10
0.0
 20
0.0
 30
0.0
  9
$EXTMAX
 10
420.0
 20
297.0
 30
0.0
  9
$LIMMIN
 10
0.0
 20
0.0
  9
$LIMMAX
 10
420.0
 20
297.0
  9
$ORTHOMODE
 70
     0
  9
$REGENMODE
 70
     1
  9
$FILLMODE
 70
     1
  9
$QTEXTMODE
 70
     0
  9
$MIRRTEXT
 70
     1
  9
$DRAGMODE
 70
     2
  9
$LTSCALE
 40
1.0
  9
$OSMODE
 70
    37
  9
$ATTMODE
 70
     1
  9
$TEXTSIZE
 40
3.5
  9
$TRACEWID
 40
1.0
  9
$TEXTSTYLE
  7
STANDARD
  9
$CLAYER
  8
0
  9
$CELTYPE
  6
BYLAYER
  9
$CECOLOR
 62
   256
  9
$DIMSCALE
 40
1.0
  9
$DIMASZ
 40
3.0
  9
$DIMEXO
 40
0.01
  9
$DIMDLI
 40
3.75
  9
$DIMRND
 40
0.0
  9
$DIMDLE
 40
0.0
  9
$DIMEXE
 40
1.0
  9
$DIMTP
 40
0.0
  9
$DIMTM
 40
0.0
  9
$DIMTXT
 40
3.5
  9
$DIMCEN
 40
2.5
  9
$DIMTSZ
 40
0.0
  9
$DIMTOL
 70
     0
  9
$DIMLIM
 70
     0
  9
$DIMTIH
 70
     1
  9
$DIMTOH
 70
     1
  9
$DIMSE1
 70
     0
  9
$DIMSE2
 70
     0
  9
$DIMTAD
 70
     1
  9
$DIMZIN
 70
     0
  9
$DIMBLK
  1

  9
$DIMASO
 70
     1
  9
$DIMSHO
 70
     1
  9
$DIMPOST
  1

  9
$DIMAPOST
  1

  9
$DIMALT
 70
     0
  9
$DIMALTD
 70
     3
  9
$DIMALTF
 40
0.0393700787
  9
$DIMLFAC
 40
1.0
  9
$DIMTOFL
 70
     1
  9
$DIMTVP
 40
0.0
  9
$DIMTIX
 70
     0
  9
$DIMSOXD
 70
     0
  9
$DIMSAH
 70
     0
  9
$DIMBLK1
  1

  9
$DIMBLK2
  1

  9
$DIMSTYLE
  2
ISO-25
  9
$DIMCLRD
 70
     0
  9
$DIMCLRE
 70
     0
  9
$DIMCLRT
 70
     0
  9
$DIMTFAC
 40
1.0
  9
$DIMGAP
 40
1.524
  9
$LUNITS
 70
     2
  9
$LUPREC
 70
     4
  9
$SKETCHINC
 40
1.0
  9
$FILLETRAD
 40
10.0
  9
$AUNITS
 70
     0
  9
$AUPREC
 70
     2
  9
$MENU
  1
.
  9
$ELEVATION
 40
0.0
  9
$PELEVATION
 40
0.0
  9
$THICKNESS
 40
0.0
  9
$LIMCHECK
 70
     0
  9
$CHAMFERA
 40
0.0
  9
$CHAMFERB
 40
0.0
  9
$SKPOLY
 70
     0
  9
$TDCREATE
 40
2460356.611635116
  9
$TDUPDATE
 40
2460356.611638565
  9
$TDINDWG
 40
0.0000000116
  9
$TDUSRTIMER
 40
0.0000000116
  9
$USRTIMER
 70
     1
  9
$ANGBASE
 50
0.0
  9
$ANGDIR
 70
     0
  9
$PDMODE
 70
     0
  9
$PDSIZE
 40
-1.0
  9
$PLINEWID
 40
0.0
  9
$COORDS
 70
     1
  9
$SPLFRAME
 70
     0
  9
$SPLINETYPE
 70
     6
  9
$SPLINESEGS
 70
     8
  9
$ATTDIA
 70
     0
  9
$ATTREQ
 70
     1
  9
$HANDLING
 70
     1
  9
$HANDSEED
  5
3F1
  9
$SURFTAB1
 70
     6
  9
$SURFTAB2
 70
     6
  9
$SURFTYPE
 70
     6
  9
$SURFU
 70
     6
  9
$SURFV
 70
     6
  9
$UCSNAME
  2

  9
$UCSORG
 10
0.0
 20
0.0
 30
0.0
  9
$UCSXDIR
 10
1.0
 20
0.0
 30
0.0
  9
$UCSYDIR
 10
0.0
 20
1.0
 30
0.0
  9
$PUCSNAME
  2

  9
$PUCSORG
 10
0.0
 20
0.0
 30
0.0
  9
$PUCSXDIR
 10
1.0
 20
0.0
 30
0.0
  9
$PUCSYDIR
 10
0.0
 20
1.0
 30
0.0
  9
$USERI1
 70
     0
  9
$USERI2
 70
     0
  9
$USERI3
 70
     0
  9
$USERI4
 70
     0
  9
$USERI5
 70
     0
  9
$USERR1
 40
0.0
  9
$USERR2
 40
0.0
  9
$USERR3
 40
0.0
  9
$USERR4
 40
0.0
  9
$USERR5
 40
0.0
  9
$WORLDVIEW
 70
     1
  9
$SHADEDGE
 70
     3
  9
$SHADEDIF
 70
    70
  9
$TILEMODE
 70
     1
  9
$MAXACTVP
 70
    64
  9
$PLIMCHECK
 70
     0
  9
$PEXTMIN
 10
1.0000000000E+20
 20
1.0000000000E+20
 30
1.0000000000E+20
  9
$PEXTMAX
 10
-1.0000000000E+20
 20
-1.0000000000E+20
 30
-1.0000000000E+20
  9
$PLIMMIN
 10
0.0
 20
0.0
  9
$PLIMMAX
 10
420.0
 20
297.0
  9
$UNITMODE
 70
     0
  9
$VISRETAIN
 70
     1
  9
$PLINEGEN
 70
     0
  9
$PSLTSCALE
 70
     1
  0
ENDSEC
  0
SECTION
  2
TABLES
  0
TABLE
  2
VPORT
 70
     1
  0
VPORT
  2
*ACTIVE
 70
     0
 10
0.0
 20
0.0
 11
1.0
 21
1.0
 12
210.0
 22
148.5
 13
0.0
 23
0.0
 14
10.0
 24
10.0
 15
10.0
 25
10.0
 16
0.0
 26
0.0
 36
1.0
 17
0.0
 27
0.0
 37
0.0
 40
297.0
 41
1.4141414141
 42
50.0
 43
0.0
 44
0.0
 50
0.0
 51
0.0
 71
     0
 72
  2000
 73
     1
 74
     3
 75
     0
 76
     0
 77
     0
 78
     0
  0
ENDTAB
  0
TABLE
  2
LTYPE
 70
     6
  0
LTYPE
  2
CONTINUOUS
 70
     0
  3
Solid line
 72
    65
 73
     0
 40
0.0
  0
LTYPE
  2
HIDDEN
 70
     0
  3
Hidden __ __ __ __ __ __ __ __ __ __ __ __ __ __
 72
    65
 73
     2
 40
1.905
 49
1.27
 49
-0.635
  0
LTYPE
  2
PHANTOM
 70
     0
  3
Phantom ______  __  __  ______  __  __  ______
 72
    65
 73
     6
 40
12.7
 49
6.35
 49
-1.27
 49
1.27
 49
-1.27
 49
1.27
 49
-1.27
  0
LTYPE
  2
CENTER
 70
     0
  3
Center ____ _ ____ _ ____ _ ____ _ ____ _ ____
 72
    65
 73
     4
 40
10.16
 49
6.35
 49
-1.27
 49
1.27
 49
-1.27
  0
LTYPE
  2
CENTERX2
 70
     0
  3
Center (2x) ________  __  ________  __  _____
 72
    65
 73
     4
 40
20.32
 49
12.7
 49
-2.54
 49
2.54
 49
-2.54
  0
LTYPE
  2
DOT2
 70
     0
  3
Dot (.5x) ........................................
 72
    65
 73
     2
 40
0.635
 49
0.0
 49
-0.635
  0
ENDTAB
  0
TABLE
  2
LAYER
 70
     4
  0
LAYER
  2
0
 70
     0
 62
     7
  6
CONTINUOUS
  0
LAYER
  2
DIM
 70
     0
 62
     7
  6
CONTINUOUS
  0
LAYER
  2
TXT
 70
     0
 62
     7
  6
CONTINUOUS
  0
LAYER
  2
FRAME
 70
     0
 62
     7
  6
CONTINUOUS
  0
ENDTAB
  0
TABLE
  2
STYLE
 70
     1
  0
STYLE
  2
STANDARD
 70
     0
 40
0.0
 41
1.0
 50
0.0
 71
     0
 42
3.5
  3
txt
  4
bigfont
  0
ENDTAB
  0
TABLE
  2
VIEW
 70
     0
  0
ENDTAB
  0
TABLE
  2
UCS
 70
     0
  0
ENDTAB
  0
TABLE
  2
APPID
 70
     1
  0
APPID
  2
ACAD
 70
     0
  0
ENDTAB
  0
TABLE
  2
DIMSTYLE
 70
     9
  0
DIMSTYLE
  2
ISO-25
 70
     0
  3

  4

  5

  6

  7

 40
1.0
 41
2.5
 42
0.625
 43
3.75
 44
1.25
 45
0.0
 46
0.0
 47
0.0
 48
0.0
140
2.5
141
2.5
142
0.0
143
0.0393700787
144
1.0
145
0.0
146
1.0
147
0.625
 71
     0
 72
     0
 73
     0
 74
     0
 75
     0
 76
     0
 77
     1
 78
     8
170
     0
171
     3
172
     1
173
     0
174
     0
175
     0
176
     0
177
     0
178
     0
  0
DIMSTYLE
  2
SLDDIMSTYLE0
 70
     0
  3

  4

  5

  6
OPEN30
  7
OPEN30
 40
1.0
 41
3.0
 42
0.0625
 43
0.38
 44
0.0
 45
0.000000001
 46
0.0
 47
0.0
 48
0.0
140
3.5
141
0.09
142
0.0
143
25.4
144
1.0
145
0.0
146
1.0
147
0.875
 71
     0
 72
     0
 73
     0
 74
     0
 75
     0
 76
     0
 77
     3
 78
    12
170
     0
171
     2
172
     1
173
     1
174
     0
175
     0
176
     0
177
     0
178
     0
  0
DIMSTYLE
  2
SLDDIMSTYLE1
 70
     0
  3

  4

  5

  6
OPEN30
  7
OPEN30
 40
1.0
 41
3.0
 42
0.0625
 43
0.38
 44
0.0
 45
0.000000001
 46
0.0
 47
0.0
 48
0.0
140
3.5
141
0.09
142
0.0
143
25.4
144
1.0
145
0.0
146
1.0
147
0.875
 71
     0
 72
     0
 73
     0
 74
     0
 75
     0
 76
     0
 77
     3
 78
    12
170
     0
171
     2
172
     0
173
     1
174
     0
175
     0
176
     0
177
     0
178
     0
  0
DIMSTYLE
  2
SLDDIMSTYLE2
 70
     0
  3

  4

  5

  6
OPEN30
  7
OPEN30
 40
1.0
 41
3.0
 42
0.0625
 43
0.38
 44
0.0
 45
0.0
 46
0.0
 47
0.0
 48
0.0
140
3.5
141
0.09
142
0.0
143
25.4
144
1.0
145
0.0
146
1.0
147
0.875
 71
     0
 72
     0
 73
     0
 74
     0
 75
     0
 76
     0
 77
     3
 78
    12
170
     0
171
     2
172
     0
173
     1
174
     0
175
     0
176
     0
177
     0
178
     0
  0
DIMSTYLE
  2
SLDDIMSTYLE3
 70
     0
  3

  4

  5

  6
OPEN30
  7
OPEN30
 40
1.0
 41
3.0
 42
0.0625
 43
0.38
 44
0.0
 45
0.000000001
 46
0.0
 47
0.018
 48
0.0
140
3.5
141
0.09
142
0.0
143
25.4
144
1.0
145
0.0
146
1.0
147
0.875
 71
     1
 72
     0
 73
     0
 74
     0
 75
     0
 76
     0
 77
     3
 78
    12
170
     0
171
     2
172
     1
173
     1
174
     0
175
     0
176
     0
177
     0
178
     0
  0
DIMSTYLE
  2
SLDDIMSTYLE4
 70
     0
  3

  4

  5

  6
OPEN30
  7
OPEN30
 40
1.0
 41
3.0
 42
0.0625
 43
0.38
 44
0.0
 45
0.000000001
 46
0.0
 47
0.0
 48
0.0
140
3.5
141
0.0
142
0.0
143
25.4
144
1.0
145
0.0
146
1.0
147
0.875
 71
     0
 72
     0
 73
     0
 74
     0
 75
     0
 76
     0
 77
     3
 78
    12
170
     0
171
     2
172
     1
173
     1
174
     0
175
     0
176
     0
177
     0
178
     0
  0
DIMSTYLE
  2
SLDDIMSTYLE5
 70
     0
  3

  4

  5

  6
OPEN30
  7
OPEN30
 40
1.0
 41
3.0
 42
0.0625
 43
0.38
 44
0.0
 45
0.000000001
 46
0.0
 47
0.0
 48
0.0
140
3.5
141
0.0
142
0.0
143
25.4
144
1.0
145
0.0
146
1.0
147
0.875
 71
     0
 72
     0
 73
     0
 74
     0
 75
     0
 76
     0
 77
     3
 78
    12
170
     0
171
     2
172
     1
173
     1
174
     0
175
     0
176
     0
177
     0
178
     0
  0
DIMSTYLE
  2
SLDDIMSTYLE6
 70
     0
  3
<>
  4

  5

  6
NONE
  7
OPEN30
 40
1.0
 41
3.0
 42
0.0625
 43
0.38
 44
0.0
 45
0.000000001
 46
0.0
 47
0.0
 48
0.0
140
3.5
141
0.0
142
0.0
143
25.4
144
1.0
145
0.0
146
1.0
147
0.875
 71
     0
 72
     0
 73
     1
 74
     1
 75
     0
 76
     0
 77
     0
 78
    12
170
     0
171
     2
172
     1
173
     1
174
     0
175
     0
176
     0
177
     0
178
     0
  0
DIMSTYLE
  2
SLDDIMSTYLE7
 70
     0
  3

  4

  5

  6
OPEN30
  7
OPEN30
 40
1.0
 41
3.0
 42
0.0625
 43
0.38
 44
0.0
 45
0.000000001
 46
0.0
 47
0.014
 48
0.0
140
3.5
141
0.09
142
0.0
143
25.4
144
1.0
145
0.0
146
1.0
147
0.875
 71
     1
 72
     0
 73
     0
 74
     0
 75
     0
 76
     0
 77
     3
 78
    12
170
     0
171
     2
172
     1
173
     1
174
     0
175
     0
176
     0
177
     0
178
     0
  0
ENDTAB
  0
ENDSEC
  0
SECTION
  2
BLOCKS
  0
BLOCK
  8
0
  2
$MODEL_SPACE
 70
     0
 10
0.0
 20
0.0
 30
0.0
  3
$MODEL_SPACE
  1

  0
ENDBLK
  5
21
  8
0
  0
BLOCK
 67
     1
  8
0
  2
$PAPER_SPACE
 70
     0
 10
0.0
 20
0.0
 30
0.0
  3
$PAPER_SPACE
  1

  0
ENDBLK
  5
1D
 67
     1
  8
0
  0
BLOCK
  8
0
  2
_OPEN30
 70
     0
 10
0.0
 20
0.0
 30
0.0
  3
_OPEN30
  1

  0
LINE
  5
AF
  8
0
  6
BYBLOCK
 62
     0
 10
-1.0
 20
0.267949
 30
0.0
 11
0.0
 21
0.0
 31
0.0
  0
LINE
  5
B0
  8
0
  6
BYBLOCK
 62
     0
 10
0.0
 20
0.0
 30
0.0
 11
-1.0
 21
-0.267949
 31
0.0
  0
LINE
  5
B1
  8
0
  6
BYBLOCK
 62
     0
 10
0.0
 20
0.0
 30
0.0
 11
-1.0
 21
0.0
 31
0.0
  0
ENDBLK
  5
AE
  8
0
  0
BLOCK
  8
0
  2
_D
 70
     0
 10
0.0
 20
0.0
 30
0.0
  3
_D
  1

  0
INSERT
  5
B5
  8
DIM
  2
_OPEN30
 10
142.738596713
 20
240.5086799715
 30
0.0
 41
3.0
 42
3.0
 50
0.0
  0
INSERT
  5
B6
  8
DIM
  2
_OPEN30
 10
148.738596713
 20
240.5086799715
 30
0.0
 41
3.0
 42
3.0
 50
180.0
  0
LINE
  5
B7
  8
DIM
 10
142.738596713
 20
205.7660429836
 30
0.0
 11
142.738596713
 21
241.5086799715
 31
0.0
  0
LINE
  5
B8
  8
DIM
 10
148.738596713
 20
205.7660429836
 30
0.0
 11
148.738596713
 21
241.5086799715
 31
0.0
  0
LINE
  5
B9
  8
DIM
 10
142.738596713
 20
240.5086799715
 30
0.0
 11
136.388596713
 21
240.5086799715
 31
0.0
  0
LINE
  5
BA
  8
DIM
 10
142.738596713
 20
240.5086799715
 30
0.0
 11
148.738596713
 21
240.5086799715
 31
0.0
  0
LINE
  5
BB
  8
DIM
 10
148.738596713
 20
240.5086799715
 30
0.0
 11
154.9504810954
 21
240.5086799715
 31
0.0
  0
TEXT
  5
BC
  8
DIM
 10
152.9136755979
 20
241.7450899553
 30
0.0
 40
3.5
  1
6
 41
0.7
 11
152.9136755979
 21
240.5086797386
 31
0.0
 73
     1
  0
ENDBLK
  5
B4
  8
0
  0
BLOCK
  8
0
  2
_D_1
 70
     0
 10
0.0
 20
0.0
 30
0.0
  3
_D_1
  1

  0
INSERT
  5
C2
  8
DIM
  2
_OPEN30
 10
77.738596713
 20
271.5389407016
 30
0.0
 41
3.0
 42
3.0
 50
180.0
  0
INSERT
  5
C3
  8
DIM
  2
_OPEN30
 10
221.238596713
 20
271.5389407016
 30
0.0
 41
3.0
 42
3.0
 50
0.0
  0
LINE
  5
C4
  8
DIM
 10
77.738596713
 20
205.7660429836
 30
0.0
 11
77.738596713
 21
272.5389407016
 31
0.0
  0
LINE
  5
C5
  8
DIM
 10
221.238596713
 20
232.7660429836
 30
0.0
 11
221.238596713
 21
272.5389407016
 31
0.0
  0
LINE
  5
C6
  8
DIM
 10
77.738596713
 20
271.5389407016
 30
0.0
 11
221.238596713
 21
271.5389407016
 31
0.0
  0
TEXT
  5
C7
  8
DIM
 10
144.3965830857
 20
272.7753506855
 30
0.0
 40
3.5
  1
143.5
 41
0.7
 11
144.3965830857
 21
271.5389404688
 31
0.0
 73
     1
  0
ENDBLK
  5
C1
  8
0
  0
BLOCK
  8
0
  2
_D_2
 70
     0
 10
0.0
 20
0.0
 30
0.0
  3
_D_2
  1

  0
INSERT
  5
CC
  8
DIM
  2
_OPEN30
 10
107.738596713
 20
246.960141967
 30
0.0
 41
3.0
 42
3.0
 50
180.0
  0
INSERT
  5
CD
  8
DIM
  2
_OPEN30
 10
145.738596713
 20
246.960141967
 30
0.0
 41
3.0
 42
3.0
 50
0.0
  0
LINE
  5
CE
  8
DIM
 10
107.738596713
 20
220.7660429836
 30
0.0
 11
107.738596713
 21
247.960141967
 31
0.0
  0
LINE
  5
CF
  8
DIM
 10
145.738596713
 20
211.131485671
 30
0.0
 11
145.738596713
 21
247.960141967
 31
0.0
  0
LINE
  5
D0
  8
DIM
 10
107.738596713
 20
246.960141967
 30
0.0
 11
145.738596713
 21
246.960141967
 31
0.0
  0
TEXT
  5
D1
  8
DIM
 10
124.7017912155
 20
248.1965519509
 30
0.0
 40
3.5
  1
38
 41
0.7
 11
124.7017912155
 21
246.9601417341
 31
0.0
 73
     1
  0
ENDBLK
  5
CB
  8
0
  0
BLOCK
  8
0
  2
_D_3
 70
     0
 10
0.0
 20
0.0
 30
0.0
  3
_D_3
  1

  0
ARC
  5
D7
  8
DIM
 10
107.738596713
 20
205.7560429836
 30
0.0
 40
42.87510206061277
 50
150.0
 51
180.0
  0
INSERT
  5
D8
  8
DIM
  2
_OPEN30
 10
70.6076691387
 20
227.1935940139
 30
0.0
 41
3.0
 42
3.0
 50
62.0012505775
  0
INSERT
  5
D9
  8
DIM
  2
_OPEN30
 10
64.8634946524
 20
205.7560429836
 30
0.0
 41
3.0
 42
3.0
 50
267.9987494225
  0
LINE
  5
DA
  8
DIM
 10
81.9656806964
 20
220.6360429836
 30
0.0
 11
69.7416437349
 21
227.6935940139
 31
0.0
  0
TEXT
  5
DB
  8
DIM
 10
64.0758198847
 20
213.2381363427
 30
0.0
 40
3.5
  1
30°
 50
75.0
 41
0.7
 11
65.270100445
 21
212.918129831
 31
0.0
 73
     1
  0
ENDBLK
  5
D6
  8
0
  0
BLOCK
  8
0
  2
_D_4
 70
     0
 10
0.0
 20
0.0
 30
0.0
  3
_D_4
  1

  0
ARC
  5
E1
  8
DIM
 10
163.377882569
 20
254.6884154019
 30
0.0
 40
6.376210185542482
 50
243.4349488229
 51
296.5650511771
  0
ARC
  5
E2
  8
DIM
 10
163.377882569
 20
251.8368872863
 30
0.0
 40
6.376210185542507
 50
63.4349488229
 51
116.5650511771
  0
INSERT
  5
E3
  8
DIM
  2
_OPEN30
 10
166.4014932522
 20
207.7560429836
 30
-4.0
 41
3.0
 42
3.0
 50
270.0
  0
INSERT
  5
E4
  8
DIM
  2
_OPEN30
 10
166.4014932522
 20
203.7560429836
 30
-4.0
 41
3.0
 42
3.0
 50
90.0
  0
LINE
  5
E5
  8
DIM
 10
146.748596713
 20
207.7560429836
 30
0.0
 11
167.4014932522
 21
207.7560429836
 31
0.0
  0
LINE
  5
E6
  8
DIM
 10
146.748596713
 20
203.7560429836
 30
0.0
 11
167.4014932522
 21
203.7560429836
 31
0.0
  0
LINE
  5
E7
  8
DIM
 10
166.4014932522
 20
207.7560429836
 30
0.0
 11
166.4014932522
 21
258.2130973626
 31
0.0
  0
LINE
  5
E8
  8
DIM
 10
166.4014932522
 20
207.7560429836
 30
0.0
 11
166.4014932522
 21
203.7560429836
 31
0.0
  0
LINE
  5
E9
  8
DIM
 10
166.4014932522
 20
203.7560429836
 30
0.0
 11
166.4014932522
 21
197.4060429836
 31
0.0
  0
TEXT
  5
EA
  8
DIM
 10
165.1650832683
 20
238.1281779546
 30
-4.0
 40
3.5
  1
4
 50
90.0
 41
0.7
 11
166.401493485
 21
238.1281779546
 31
-4.0
 73
     1
  0
TEXT
  5
EB
  8
DIM
 10
165.1650832683
 20
240.1649834521
 30
-4.0
 40
3.5
  1
 H8 
 50
90.0
 41
0.525
 11
166.401493485
 21
240.1649834521
 31
-4.0
 73
     1
  0
TEXT
  5
EC
  8
DIM
 10
162.51239533
 20
248.9853596364
 30
-4.0
 40
2.45
  1
+
 50
90.0
 41
0.7
 11
163.3778824817
 21
248.9853596364
 31
-4.0
 73
     1
  0
TEXT
  5
ED
  8
DIM
 10
165.3639232127
 20
248.9853596364
 30
-4.0
 40
2.45
  1
 
 50
90.0
 41
0.7
 11
166.2294103644
 21
248.9853596364
 31
-4.0
 73
     1
  0
TEXT
  5
EE
  8
DIM
 10
162.51239533
 20
250.4111235778
 30
-4.0
 40
2.45
  1
0.018
 50
90.0
 41
0.7
 11
163.3778824817
 21
250.4111235778
 31
-4.0
 73
     1
  0
TEXT
  5
EF
  8
DIM
 10
165.3639232127
 20
250.4111235778
 30
-4.0
 40
2.45
  1
0
 50
90.0
 41
0.7
 11
166.2294103644
 21
250.4111235778
 31
-4.0
 73
     1
  0
ENDBLK
  5
E0
  8
0
  0
BLOCK
  8
0
  2
_D_5
 70
     0
 10
0.0
 20
0.0
 30
0.0
  3
_D_5
  1

  0
INSERT
  5
F4
  8
DIM
  2
_OPEN30
 10
156.238596713
 20
262.7294055513
 30
-4.0
 41
3.0
 42
3.0
 50
180.0
  0
INSERT
  5
F5
  8
DIM
  2
_OPEN30
 10
196.238596713
 20
262.7294055513
 30
-4.0
 41
3.0
 42
3.0
 50
0.0
  0
LINE
  5
F6
  8
DIM
 10
156.238596713
 20
212.4160429836
 30
0.0
 11
156.238596713
 21
263.7294055513
 31
0.0
  0
LINE
  5
F7
  8
DIM
 10
196.238596713
 20
212.4160429836
 30
0.0
 11
196.238596713
 21
263.7294055513
 31
0.0
  0
LINE
  5
F8
  8
DIM
 10
156.238596713
 20
262.7294055513
 30
0.0
 11
196.238596713
 21
262.7294055513
 31
0.0
  0
TEXT
  5
F9
  8
DIM
 10
174.2017912155
 20
263.9658155352
 30
-4.0
 40
3.5
  1
40
 41
0.7
 11
174.2017912155
 21
262.7294053185
 31
-4.0
 73
     1
  0
ENDBLK
  5
F3
  8
0
  0
BLOCK
  8
0
  2
_D_6
 70
     0
 10
0.0
 20
0.0
 30
0.0
  3
_D_6
  1

  0
INSERT
  5
FF
  8
DIM
  2
_OPEN30
 10
112.738596713
 20
197.0957889457
 30
-4.0
 41
3.0
 42
3.0
 50
300.0
  0
INSERT
  5
100
  8
DIM
  2
_OPEN30
 10
102.738596713
 20
214.4162970214
 30
-4.0
 41
3.0
 42
3.0
 50
120.0
  0
LINE
  5
101
  8
DIM
 10
102.738596713
 20
214.4162970214
 30
0.0
 11
85.7218190315
 21
243.8902205468
 31
0.0
  0
LINE
  5
102
  8
DIM
 10
102.738596713
 20
214.4162970214
 30
0.0
 11
112.738596713
 21
197.0957889457
 31
0.0
  0
TEXT
  5
103
  8
DIM
 10
86.7892168806
 20
244.5064829823
 30
-4.0
 40
3.5
  1
%%c
 50
-60.0
 41
0.7
 11
85.7184542234
 21
243.888277874
 31
-4.0
 73
     1
  0
TEXT
  5
104
  8
DIM
 10
88.7241821381
 20
241.1550248454
 30
-4.0
 40
3.5
  1
20
 50
-60.0
 41
0.7
 11
87.653419481
 21
240.536819737
 31
-4.0
 73
     1
  0
ENDBLK
  5
FE
  8
0
  0
BLOCK
  8
0
  2
_D_7
 70
     0
 10
0.0
 20
0.0
 30
0.0
  3
_D_7
  1

  0
INSERT
  5
10A
  8
DIM
  2
_OPEN30
 10
122.9413925085
 20
190.5532471881
 30
-4.0
 41
3.0
 42
3.0
 50
315.0
  0
INSERT
  5
10B
  8
DIM
  2
_OPEN30
 10
92.5358009175
 20
220.9588387791
 30
-4.0
 41
3.0
 42
3.0
 50
135.0
  0
LINE
  5
10C
  8
DIM
 10
92.5358009175
 20
220.9588387791
 30
0.0
 11
77.9157779661
 21
235.5788617304
 31
0.0
  0
LINE
  5
10D
  8
DIM
 10
92.5358009175
 20
220.9588387791
 30
0.0
 11
122.9413925085
 21
190.5532471881
 31
0.0
  0
TEXT
  5
10E
  8
DIM
 10
78.7870327137
 20
236.450116478
 30
-4.0
 40
3.5
  1
%%c
 50
-45.0
 41
0.7
 11
77.9127586651
 21
235.5758424294
 31
-4.0
 73
     1
  0
TEXT
  5
10F
  8
DIM
 10
81.5234868236
 20
233.7136623681
 30
-4.0
 40
3.5
  1
43
 50
-45.0
 41
0.7
 11
80.6492127751
 21
232.8393883195
 31
-4.0
 73
     1
  0
ENDBLK
  5
109
  8
0
  0
BLOCK
  8
0
  2
_D_8
 70
     0
 10
0.0
 20
0.0
 30
0.0
  3
_D_8
  1

  0
INSERT
  5
114
  8
DIM
  2
_OPEN30
 10
248.3036133514
 20
235.7560429836
 30
-4.0
 41
3.0
 42
3.0
 50
90.0
  0
INSERT
  5
115
  8
DIM
  2
_OPEN30
 10
248.3036133514
 20
175.7560429836
 30
-4.0
 41
3.0
 42
3.0
 50
270.0
  0
LINE
  5
116
  8
DIM
 10
218.248596713
 20
235.7560429836
 30
0.0
 11
249.3036133514
 21
235.7560429836
 31
0.0
  0
LINE
  5
117
  8
DIM
 10
218.248596713
 20
175.7560429836
 30
0.0
 11
249.3036133514
 21
175.7560429836
 31
0.0
  0
LINE
  5
118
  8
DIM
 10
248.3036133514
 20
235.7560429836
 30
0.0
 11
248.3036133514
 21
175.7560429836
 31
0.0
  0
TEXT
  5
119
  8
DIM
 10
247.0672033675
 20
203.7192374861
 30
-4.0
 40
3.5
  1
60
 50
90.0
 41
0.7
 11
248.3036135842
 21
203.7192374861
 31
-4.0
 73
     1
  0
ENDBLK
  5
113
  8
0
  0
BLOCK
  8
0
  2
_NONE
 70
     0
 10
0.0
 20
0.0
 30
0.0
  3
_NONE
  1

  0
ENDBLK
  5
11E
  8
0
  0
BLOCK
  8
0
  2
_D_9
 70
     0
 10
0.0
 20
0.0
 30
0.0
  3
_D_9
  1

  0
INSERT
  5
122
  8
DIM
  2
_OPEN30
 10
156.9403074653
 20
203.8831836669
 30
-4.0
 41
3.0
 42
3.0
 50
110.5396426596
  0
LINE
  5
123
  8
DIM
 10
156.9403074653
 20
203.8831836669
 30
0.0
 11
170.539688376
 21
167.5865654971
 31
0.0
  0
LINE
  5
124
  8
DIM
 10
155.5368859608
 20
207.6289023003
 30
0.0
 11
156.9403074653
 21
203.8831836669
 31
0.0
  0
LINE
  5
125
  8
DIM
 10
170.539688376
 20
167.5865654971
 30
0.0
 11
180.2744103659
 21
167.5865654971
 31
0.0
  0
TEXT
  5
126
  8
DIM
 10
172.127188376
 20
168.822975481
 30
-4.0
 40
3.5
  1
2x
 41
0.7
 11
172.127188376
 21
167.5865652643
 31
-4.0
 73
     1
  0
TEXT
  5
127
  8
DIM
 10
176.200799371
 20
168.822975481
 30
-4.0
 40
3.5
  1
M4
 41
0.7
 11
176.200799371
 21
167.5865652643
 31
-4.0
 73
     1
  0
ENDBLK
  5
121
  8
0
  0
BLOCK
  8
0
  2
_D_10
 70
     0
 10
0.0
 20
0.0
 30
0.0
  3
_D_10
  1

  0
INSERT
  5
12C
  8
DIM
  2
_OPEN30
 10
196.238596713
 20
262.7294055513
 30
-4.0
 41
3.0
 42
3.0
 50
180.0
  0
INSERT
  5
12D
  8
DIM
  2
_OPEN30
 10
221.238596713
 20
262.7294055513
 30
-4.0
 41
3.0
 42
3.0
 50
0.0
  0
LINE
  5
12E
  8
DIM
 10
196.238596713
 20
212.4160429836
 30
0.0
 11
196.238596713
 21
263.7294055513
 31
0.0
  0
LINE
  5
12F
  8
DIM
 10
221.238596713
 20
232.7660429836
 30
0.0
 11
221.238596713
 21
263.7294055513
 31
0.0
  0
LINE
  5
130
  8
DIM
 10
196.238596713
 20
262.7294055513
 30
0.0
 11
221.238596713
 21
262.7294055513
 31
0.0
  0
TEXT
  5
131
  8
DIM
 10
206.7017912155
 20
263.9658155352
 30
-4.0
 40
3.5
  1
25
 41
0.7
 11
206.7017912155
 21
262.7294053185
 31
-4.0
 73
     1
  0
ENDBLK
  5
12B
  8
0
  0
BLOCK
  8
0
  2
SW_NOTE_0
 70
     0
 10
0.0
 20
0.0
 30
0.0
  3
SW_NOTE_0
  1

  0
LINE
  5
135
  8
TXT
 62
     0
 10
80.6842013397
 20
-22.2330832279
 30
0.0
 11
7.4856154361
 21
-22.2330832279
 31
0.0
  0
TEXT
  5
136
  8
TXT
 62
     0
 10
7.9354644566
 20
-20.918280212
 30
0.0
 40
3.5
  1
6xφ3.4,6.5深座ぐり深さ5.3(60°等配)
 41
0.7
 11
7.9354644566
 21
-22.1546904288
 31
0.0
 73
     1
  0
LINE
  5
137
  8
TXT
 62
     0
 10
7.4856154361
 20
-22.2330832279
 30
0.0
 11
0.0
 21
0.0
 31
0.0
  0
INSERT
  5
138
  8
TXT
 62
     0
  2
_OPEN30
 10
0.0
 20
0.0
 30
4.0
 41
3.0
 42
3.0
 50
108.607768996
  0
ENDBLK
  5
134
  8
0
  0
BLOCK
  8
0
  2
SW_NOTE_0_1
 70
     0
 10
0.0
 20
0.0
 30
0.0
  3
SW_NOTE_0_1
  1

  0
LINE
  5
13D
  8
TXT
 62
     0
 10
56.7471444625
 20
-21.3725636918
 30
0.0
 11
7.9902291853
 21
-21.3725636918
 31
0.0
  0
TEXT
  5
13E
  8
TXT
 62
     0
 10
8.3750482472
 20
-20.0836083404
 30
0.0
 40
3.5
  1
4xφ4.5,8深座ぐり深さ5.3
 41
0.7
 11
8.3750482472
 21
-21.3200185571
 31
0.0
 73
     1
  0
LINE
  5
13F
  8
TXT
 62
     0
 10
7.9902291853
 20
-21.3725636918
 30
0.0
 11
0.0
 21
0.0
 31
0.0
  0
INSERT
  5
140
  8
TXT
 62
     0
  2
_OPEN30
 10
0.0
 20
0.0
 30
4.0
 41
3.0
 42
3.0
 50
110.4984830715
  0
ENDBLK
  5
13C
  8
0
  0
BLOCK
  8
0
  2
SW_CENTERMARKSYMBOL_0
 70
     0
 10
0.0
 20
0.0
 30
0.0
  3
SW_CENTERMARKSYMBOL_0
  1

  0
LINE
  5
145
  8
DIM
 62
     0
 10
0.0
 20
0.0
 30
0.0
 11
0.0
 21
5.0
 31
0.0
  0
LINE
  5
146
  8
DIM
 62
     0
 10
0.0
 20
0.0
 30
0.0
 11
-5.0
 21
0.0
 31
0.0
  0
LINE
  5
147
  8
DIM
 62
     0
 10
0.0
 20
0.0
 30
0.0
 11
0.0
 21
-5.0
 31
0.0
  0
LINE
  5
148
  8
DIM
 62
     0
 10
0.0
 20
0.0
 30
0.0
 11
5.0
 21
0.0
 31
0.0
  0
LINE
  5
149
  8
DIM
 62
     0
 10
0.0
 20
10.0
 30
0.0
 11
0.0
 21
15.0
 31
0.0
  0
LINE
  5
14A
  8
DIM
 62
     0
 10
-10.0
 20
0.0
 30
0.0
 11
-15.0
 21
0.0
 31
0.0
  0
LINE
  5
14B
  8
DIM
 62
     0
 10
0.0
 20
-10.0
 30
0.0
 11
0.0
 21
-15.0
 31
0.0
  0
LINE
  5
14C
  8
DIM
 62
     0
 10
10.0
 20
0.0
 30
0.0
 11
15.0
 21
0.0
 31
0.0
  0
ENDBLK
  5
144
  8
0
  0
BLOCK
  8
0
  2
SW_CENTERMARKSYMBOL_1
 70
     0
 10
0.0
 20
0.0
 30
0.0
  3
SW_CENTERMARKSYMBOL_1
  1

  0
LINE
  5
151
  8
DIM
 62
     0
 10
0.0
 20
0.0
 30
0.0
 11
0.0
 21
5.0
 31
0.0
  0
LINE
  5
152
  8
DIM
 62
     0
 10
0.0
 20
0.0
 30
0.0
 11
-5.0
 21
0.0
 31
0.0
  0
LINE
  5
153
  8
DIM
 62
     0
 10
0.0
 20
0.0
 30
0.0
 11
0.0
 21
-5.0
 31
0.0
  0
LINE
  5
154
  8
DIM
 62
     0
 10
0.0
 20
0.0
 30
0.0
 11
5.0
 21
0.0
 31
0.0
  0
LINE
  5
155
  8
DIM
 62
     0
 10
0.0
 20
5.0
 30
0.0
 11
0.0
 21
9.0
 31
0.0
  0
LINE
  5
156
  8
DIM
 62
     0
 10
-5.0
 20
0.0
 30
0.0
 11
-9.0
 21
0.0
 31
0.0
  0
LINE
  5
157
  8
DIM
 62
     0
 10
0.0
 20
-5.0
 30
0.0
 11
0.0
 21
-9.0
 31
0.0
  0
LINE
  5
158
  8
DIM
 62
     0
 10
5.0
 20
0.0
 30
0.0
 11
9.0
 21
0.0
 31
0.0
  0
ENDBLK
  5
150
  8
0
  0
BLOCK
  8
0
  2
SW_CENTERMARKSYMBOL_2
 70
     0
 10
0.0
 20
0.0
 30
0.0
  3
SW_CENTERMARKSYMBOL_2
  1

  0
LINE
  5
15D
  8
DIM
 62
     0
 10
0.0
 20
0.0
 30
0.0
 11
0.0
 21
5.0
 31
0.0
  0
LINE
  5
15E
  8
DIM
 62
     0
 10
0.0
 20
0.0
 30
0.0
 11
-5.0
 21
0.0
 31
0.0
  0
LINE
  5
15F
  8
DIM
 62
     0
 10
0.0
 20
0.0
 30
0.0
 11
0.0
 21
-5.0
 31
0.0
  0
LINE
  5
160
  8
DIM
 62
     0
 10
0.0
 20
0.0
 30
0.0
 11
5.0
 21
0.0
 31
0.0
  0
LINE
  5
161
  8
DIM
 62
     0
 10
0.0
 20
5.0
 30
0.0
 11
0.0
 21
9.0
 31
0.0
  0
LINE
  5
162
  8
DIM
 62
     0
 10
-5.0
 20
0.0
 30
0.0
 11
-9.0
 21
0.0
 31
0.0
  0
LINE
  5
163
  8
DIM
 62
     0
 10
0.0
 20
-5.0
 30
0.0
 11
0.0
 21
-9.0
 31
0.0
  0
LINE
  5
164
  8
DIM
 62
     0
 10
5.0
 20
0.0
 30
0.0
 11
9.0
 21
0.0
 31
0.0
  0
ENDBLK
  5
15C
  8
0
  0
BLOCK
  8
0
  2
SW_CENTERMARKSYMBOL_3
 70
     0
 10
0.0
 20
0.0
 30
0.0
  3
SW_CENTERMARKSYMBOL_3
  1

  0
LINE
  5
169
  8
DIM
 62
     0
 10
0.0
 20
0.0
 30
0.0
 11
0.0
 21
5.0
 31
0.0
  0
LINE
  5
16A
  8
DIM
 62
     0
 10
0.0
 20
0.0
 30
0.0
 11
-5.0
 21
0.0
 31
0.0
  0
LINE
  5
16B
  8
DIM
 62
     0
 10
0.0
 20
0.0
 30
0.0
 11
0.0
 21
-5.0
 31
0.0
  0
LINE
  5
16C
  8
DIM
 62
     0
 10
0.0
 20
0.0
 30
0.0
 11
5.0
 21
0.0
 31
0.0
  0
LINE
  5
16D
  8
DIM
 62
     0
 10
0.0
 20
5.0
 30
0.0
 11
0.0
 21
9.0
 31
0.0
  0
LINE
  5
16E
  8
DIM
 62
     0
 10
-5.0
 20
0.0
 30
0.0
 11
-9.0
 21
0.0
 31
0.0
  0
LINE
  5
16F
  8
DIM
 62
     0
 10
0.0
 20
-5.0
 30
0.0
 11
0.0
 21
-9.0
 31
0.0
  0
LINE
  5
170
  8
DIM
 62
     0
 10
5.0
 20
0.0
 30
0.0
 11
9.0
 21
0.0
 31
0.0
  0
ENDBLK
  5
168
  8
0
  0
BLOCK
  8
0
  2
SW_CENTERMARKSYMBOL_4
 70
     0
 10
0.0
 20
0.0
 30
0.0
  3
SW_CENTERMARKSYMBOL_4
  1

  0
LINE
  5
175
  8
DIM
 62
     0
 10
0.0
 20
0.0
 30
0.0
 11
0.0
 21
5.0
 31
0.0
  0
LINE
  5
176
  8
DIM
 62
     0
 10
0.0
 20
0.0
 30
0.0
 11
-5.0
 21
0.0
 31
0.0
  0
LINE
  5
177
  8
DIM
 62
     0
 10
0.0
 20
0.0
 30
0.0
 11
0.0
 21
-5.0
 31
0.0
  0
LINE
  5
178
  8
DIM
 62
     0
 10
0.0
 20
0.0
 30
0.0
 11
5.0
 21
0.0
 31
0.0
  0
LINE
  5
179
  8
DIM
 62
     0
 10
0.0
 20
5.0
 30
0.0
 11
0.0
 21
9.0
 31
0.0
  0
LINE
  5
17A
  8
DIM
 62
     0
 10
-5.0
 20
0.0
 30
0.0
 11
-9.0
 21
0.0
 31
0.0
  0
LINE
  5
17B
  8
DIM
 62
     0
 10
0.0
 20
-5.0
 30
0.0
 11
0.0
 21
-9.0
 31
0.0
  0
LINE
  5
17C
  8
DIM
 62
     0
 10
5.0
 20
0.0
 30
0.0
 11
9.0
 21
0.0
 31
0.0
  0
ENDBLK
  5
174
  8
0
  0
BLOCK
  8
0
  2
SW_CENTERMARKSYMBOL_5
 70
     0
 10
0.0
 20
0.0
 30
0.0
  3
SW_CENTERMARKSYMBOL_5
  1

  0
LINE
  5
181
  8
DIM
 62
     0
 10
0.0
 20
0.0
 30
0.0
 11
0.0
 21
5.0
 31
0.0
  0
LINE
  5
182
  8
DIM
 62
     0
 10
0.0
 20
0.0
 30
0.0
 11
-5.0
 21
0.0
 31
0.0
  0
LINE
  5
183
  8
DIM
 62
     0
 10
0.0
 20
0.0
 30
0.0
 11
0.0
 21
-5.0
 31
0.0
  0
LINE
  5
184
  8
DIM
 62
     0
 10
0.0
 20
0.0
 30
0.0
 11
5.0
 21
0.0
 31
0.0
  0
LINE
  5
185
  8
DIM
 62
     0
 10
0.0
 20
5.0
 30
0.0
 11
0.0
 21
6.65
 31
0.0
  0
LINE
  5
186
  8
DIM
 62
     0
 10
-5.0
 20
0.0
 30
0.0
 11
-6.65
 21
0.0
 31
0.0
  0
LINE
  5
187
  8
DIM
 62
     0
 10
0.0
 20
-5.0
 30
0.0
 11
0.0
 21
-6.65
 31
0.0
  0
LINE
  5
188
  8
DIM
 62
     0
 10
5.0
 20
0.0
 30
0.0
 11
6.65
 21
0.0
 31
0.0
  0
ENDBLK
  5
180
  8
0
  0
BLOCK
  8
0
  2
SW_CENTERMARKSYMBOL_6
 70
     0
 10
0.0
 20
0.0
 30
0.0
  3
SW_CENTERMARKSYMBOL_6
  1

  0
LINE
  5
18D
  8
DIM
 62
     0
 10
0.0
 20
0.0
 30
0.0
 11
0.0
 21
5.0
 31
0.0
  0
LINE
  5
18E
  8
DIM
 62
     0
 10
0.0
 20
0.0
 30
0.0
 11
-5.0
 21
0.0
 31
0.0
  0
LINE
  5
18F
  8
DIM
 62
     0
 10
0.0
 20
0.0
 30
0.0
 11
0.0
 21
-5.0
 31
0.0
  0
LINE
  5
190
  8
DIM
 62
     0
 10
0.0
 20
0.0
 30
0.0
 11
5.0
 21
0.0
 31
0.0
  0
LINE
  5
191
  8
DIM
 62
     0
 10
0.0
 20
5.0
 30
0.0
 11
0.0
 21
6.65
 31
0.0
  0
LINE
  5
192
  8
DIM
 62
     0
 10
-5.0
 20
0.0
 30
0.0
 11
-6.65
 21
0.0
 31
0.0
  0
LINE
  5
193
  8
DIM
 62
     0
 10
0.0
 20
-5.0
 30
0.0
 11
0.0
 21
-6.65
 31
0.0
  0
LINE
  5
194
  8
DIM
 62
     0
 10
5.0
 20
0.0
 30
0.0
 11
6.65
 21
0.0
 31
0.0
  0
ENDBLK
  5
18C
  8
0
  0
BLOCK
  8
0
  2
SW_CENTERMARKSYMBOL_7
 70
     0
 10
0.0
 20
0.0
 30
0.0
  3
SW_CENTERMARKSYMBOL_7
  1

  0
ARC
  5
199
  8
DIM
 62
     0
 10
18.6195461814
 20
-10.75
 30
0.0
 40
21.5
 50
150.0
 51
163.3245998868
  0
ARC
  5
19A
  8
DIM
 62
     0
 10
18.6195461814
 20
-10.75
 30
0.0
 40
21.50000000000001
 50
136.6754001132
 51
150.0
  0
ARC
  5
19B
  8
DIM
 62
     0
 10
18.6195461814
 20
-10.75
 30
0.0
 40
21.50000000000002
 50
90.0
 51
103.3245998868
  0
ARC
  5
19C
  8
DIM
 62
     0
 10
18.6195461814
 20
-10.75
 30
0.0
 40
21.50000000000002
 50
76.6754001132
 51
90.0
  0
ARC
  5
19D
  8
DIM
 62
     0
 10
18.6195461814
 20
-10.75
 30
0.0
 40
21.50000000000002
 50
30.0
 51
43.3245998868
  0
ARC
  5
19E
  8
DIM
 62
     0
 10
18.6195461814
 20
-10.75
 30
0.0
 40
21.50000000000002
 50
16.6754001132
 51
30.0
  0
ARC
  5
19F
  8
DIM
 62
     0
 10
18.6195461814
 20
-10.75
 30
0.0
 40
21.5
 50
330.0
 51
343.3245998868
  0
ARC
  5
1A0
  8
DIM
 62
     0
 10
18.6195461814
 20
-10.75
 30
0.0
 40
21.5
 50
316.6754001132
 51
330.0
  0
ARC
  5
1A1
  8
DIM
 62
     0
 10
18.6195461814
 20
-10.75
 30
0.0
 40
21.50000000000002
 50
270.0
 51
283.3245998868
  0
ARC
  5
1A2
  8
DIM
 62
     0
 10
18.6195461814
 20
-10.75
 30
0.0
 40
21.50000000000002
 50
256.6754001132
 51
270.0
  0
ARC
  5
1A3
  8
DIM
 62
     0
 10
18.6195461814
 20
-10.75
 30
0.0
 40
21.5
 50
210.0
 51
223.3245998868
  0
ARC
  5
1A4
  8
DIM
 62
     0
 10
18.6195461814
 20
-10.75
 30
0.0
 40
21.5
 50
196.6754001132
 51
210.0
  0
ARC
  5
1A5
  8
DIM
 62
     0
 10
18.6195461814
 20
-10.75
 30
0.0
 40
21.50000000000001
 50
56.6491997735
 51
63.3508002265
  0
ARC
  5
1A6
  8
DIM
 62
     0
 10
18.6195461814
 20
-10.75
 30
0.0
 40
21.50000000000001
 50
116.6491997735
 51
123.3508002265
  0
ARC
  5
1A7
  8
DIM
 62
     0
 10
18.6195461814
 20
-10.75
 30
0.0
 40
21.5
 50
356.6491997735
 51
3.3508002265
  0
ARC
  5
1A8
  8
DIM
 62
     0
 10
18.6195461814
 20
-10.75
 30
0.0
 40
21.50000000000001
 50
296.6491997735
 51
303.3508002265
  0
ARC
  5
1A9
  8
DIM
 62
     0
 10
18.6195461814
 20
-10.75
 30
0.0
 40
21.5
 50
176.6491997735
 51
183.3508002265
  0
ARC
  5
1AA
  8
DIM
 62
     0
 10
18.6195461814
 20
-10.75
 30
0.0
 40
21.50000000000001
 50
236.6491997735
 51
243.3508002265
  0
LINE
  5
1AB
  8
DIM
 62
     0
 10
0.0
 20
0.0
 30
0.0
 11
-4.3301270189
 21
2.5
 31
0.0
  0
LINE
  5
1AC
  8
DIM
 62
     0
 10
0.0
 20
0.0
 30
0.0
 11
4.3301270189
 21
-2.5
 31
0.0
  0
LINE
  5
1AD
  8
DIM
 62
     0
 10
-4.3301270189
 20
2.5
 30
0.0
 11
-7.1447095812
 21
4.125
 31
0.0
  0
LINE
  5
1AE
  8
DIM
 62
     0
 10
4.3301270189
 20
-2.5
 30
0.0
 11
7.1447095812
 21
-4.125
 31
0.0
  0
LINE
  5
1AF
  8
DIM
 62
     0
 10
18.6195461814
 20
10.75
 30
0.0
 11
18.6195461814
 21
15.75
 31
0.0
  0
LINE
  5
1B0
  8
DIM
 62
     0
 10
18.6195461814
 20
10.75
 30
0.0
 11
18.6195461814
 21
5.75
 31
0.0
  0
LINE
  5
1B1
  8
DIM
 62
     0
 10
18.6195461814
 20
15.75
 30
0.0
 11
18.6195461814
 21
19.0
 31
0.0
  0
LINE
  5
1B2
  8
DIM
 62
     0
 10
18.6195461814
 20
5.75
 30
0.0
 11
18.6195461814
 21
2.5
 31
0.0
  0
LINE
  5
1B3
  8
DIM
 62
     0
 10
37.2390923627
 20
0.0
 30
0.0
 11
41.5692193817
 21
2.5
 31
0.0
  0
LINE
  5
1B4
  8
DIM
 62
     0
 10
37.2390923627
 20
0.0
 30
0.0
 11
32.9089653438
 21
-2.5
 31
0.0
  0
LINE
  5
1B5
  8
DIM
 62
     0
 10
41.5692193817
 20
2.5
 30
0.0
 11
44.383801944
 21
4.125
 31
0.0
  0
LINE
  5
1B6
  8
DIM
 62
     0
 10
32.9089653438
 20
-2.5
 30
0.0
 11
30.0943827815
 21
-4.125
 31
0.0
  0
LINE
  5
1B7
  8
DIM
 62
     0
 10
18.6195461814
 20
-10.75
 30
0.0
 11
18.6195461814
 21
-5.75
 31
0.0
  0
LINE
  5
1B8
  8
DIM
 62
     0
 10
18.6195461814
 20
-10.75
 30
0.0
 11
13.6195461814
 21
-10.75
 31
0.0
  0
LINE
  5
1B9
  8
DIM
 62
     0
 10
18.6195461814
 20
-10.75
 30
0.0
 11
18.6195461814
 21
-15.75
 31
0.0
  0
LINE
  5
1BA
  8
DIM
 62
     0
 10
18.6195461814
 20
-10.75
 30
0.0
 11
23.6195461814
 21
-10.75
 31
0.0
  0
LINE
  5
1BB
  8
DIM
 62
     0
 10
18.6195461814
 20
-0.75
 30
0.0
 11
18.6195461814
 21
12.8695461814
 31
0.0
  0
LINE
  5
1BC
  8
DIM
 62
     0
 10
8.6195461814
 20
-10.75
 30
0.0
 11
-5.0
 21
-10.75
 31
0.0
  0
LINE
  5
1BD
  8
DIM
 62
     0
 10
18.6195461814
 20
-20.75
 30
0.0
 11
18.6195461814
 21
-34.3695461814
 31
0.0
  0
LINE
  5
1BE
  8
DIM
 62
     0
 10
28.6195461814
 20
-10.75
 30
0.0
 11
42.2390923627
 21
-10.75
 31
0.0
  0
LINE
  5
1BF
  8
DIM
 62
     0
 10
37.2390923627
 20
-21.5
 30
0.0
 11
41.5692193817
 21
-24.0
 31
0.0
  0
LINE
  5
1C0
  8
DIM
 62
     0
 10
37.2390923627
 20
-21.5
 30
0.0
 11
32.9089653438
 21
-19.0
 31
0.0
  0
LINE
  5
1C1
  8
DIM
 62
     0
 10
41.5692193817
 20
-24.0
 30
0.0
 11
44.383801944
 21
-25.625
 31
0.0
  0
LINE
  5
1C2
  8
DIM
 62
     0
 10
32.9089653438
 20
-19.0
 30
0.0
 11
30.0943827815
 21
-17.375
 31
0.0
  0
LINE
  5
1C3
  8
DIM
 62
     0
 10
18.6195461814
 20
-32.25
 30
0.0
 11
18.6195461814
 21
-37.25
 31
0.0
  0
LINE
  5
1C4
  8
DIM
 62
     0
 10
18.6195461814
 20
-32.25
 30
0.0
 11
18.6195461814
 21
-27.25
 31
0.0
  0
LINE
  5
1C5
  8
DIM
 62
     0
 10
18.6195461814
 20
-37.25
 30
0.0
 11
18.6195461814
 21
-40.5
 31
0.0
  0
LINE
  5
1C6
  8
DIM
 62
     0
 10
18.6195461814
 20
-27.25
 30
0.0
 11
18.6195461814
 21
-24.0
 31
0.0
  0
LINE
  5
1C7
  8
DIM
 62
     0
 10
0.0
 20
-21.5
 30
0.0
 11
-4.3301270189
 21
-24.0
 31
0.0
  0
LINE
  5
1C8
  8
DIM
 62
     0
 10
0.0
 20
-21.5
 30
0.0
 11
4.3301270189
 21
-19.0
 31
0.0
  0
LINE
  5
1C9
  8
DIM
 62
     0
 10
-4.3301270189
 20
-24.0
 30
0.0
 11
-7.1447095812
 21
-25.625
 31
0.0
  0
LINE
  5
1CA
  8
DIM
 62
     0
 10
4.3301270189
 20
-19.0
 30
0.0
 11
7.1447095812
 21
-17.375
 31
0.0
  0
ENDBLK
  5
198
  8
0
  0
BLOCK
  8
0
  2
_D_11
 70
     0
 10
0.0
 20
0.0
 30
0.0
  3
_D_11
  1

  0
INSERT
  5
1F1
  8
DIM
  2
_OPEN30
 10
280.681795196
 20
250.9073357137
 30
-41.75
 41
3.0
 42
3.0
 50
0.0
  0
INSERT
  5
1F2
  8
DIM
  2
_OPEN30
 10
288.681795196
 20
250.9073357137
 30
-41.75
 41
3.0
 42
3.0
 50
180.0
  0
LINE
  5
1F3
  8
DIM
 10
280.681795196
 20
234.7660429836
 30
0.0
 11
280.681795196
 21
251.9073357137
 31
0.0
  0
LINE
  5
1F4
  8
DIM
 10
288.681795196
 20
234.7660429836
 30
0.0
 11
288.681795196
 21
251.9073357137
 31
0.0
  0
LINE
  5
1F5
  8
DIM
 10
280.681795196
 20
250.9073357137
 30
0.0
 11
274.331795196
 21
250.9073357137
 31
0.0
  0
LINE
  5
1F6
  8
DIM
 10
280.681795196
 20
250.9073357137
 30
0.0
 11
288.681795196
 21
250.9073357137
 31
0.0
  0
LINE
  5
1F7
  8
DIM
 10
288.681795196
 20
250.9073357137
 30
0.0
 11
295.031795196
 21
250.9073357137
 31
0.0
  0
TEXT
  5
1F8
  8
DIM
 10
283.6633924472
 20
252.1437456975
 30
-41.75
 40
3.5
  1
8
 50
0.0
 41
0.7
 11
283.6633924472
 21
250.9073354808
 31
-41.75
 73
     1
  0
ENDBLK
  5
1F0
  8
0
  0
BLOCK
  8
0
  2
_D_12
 70
     0
 10
0.0
 20
0.0
 30
0.0
  3
_D_12
  1

  0
ARC
  5
267
  8
DIM
 10
76.1913395974
 20
124.0061037384
 30
0.0
 40
6.37621018554247
 50
153.4349488229
 51
206.5650511771
  0
ARC
  5
268
  8
DIM
 10
73.3398114819
 20
124.0061037384
 30
0.0
 40
6.37621018554247
 50
333.4349488229
 51
26.5650511771
  0
INSERT
  5
269
  8
DIM
  2
_OPEN30
 10
84.238596713
 20
120.9824925896
 30
15.0
 41
3.0
 42
3.0
 50
0.0
  0
INSERT
  5
26A
  8
DIM
  2
_OPEN30
 10
88.238596713
 20
120.9824925896
 30
15.0
 41
3.0
 42
3.0
 50
180.0
  0
LINE
  5
26B
  8
DIM
 10
84.238596713
 20
135.4517306055
 30
0.0
 11
84.238596713
 21
119.9824925896
 31
0.0
  0
LINE
  5
26C
  8
DIM
 10
88.238596713
 20
135.4517306055
 30
0.0
 11
88.238596713
 21
119.9824925896
 31
0.0
  0
LINE
  5
26D
  8
DIM
 10
84.238596713
 20
120.9824925896
 30
0.0
 11
55.7611718679
 21
120.9824925896
 31
0.0
  0
LINE
  5
26E
  8
DIM
 10
84.238596713
 20
120.9824925896
 30
0.0
 11
88.238596713
 21
120.9824925896
 31
0.0
  0
LINE
  5
26F
  8
DIM
 10
88.238596713
 20
120.9824925896
 30
0.0
 11
94.588596713
 21
120.9824925896
 31
0.0
  0
TEXT
  5
270
  8
DIM
 10
55.7611718679
 20
122.2189030391
 30
15.0
 40
3.5
  1
%%c
 41
0.7
 11
55.7611718679
 21
120.9824928224
 31
15.0
 73
     1
  0
TEXT
  5
271
  8
DIM
 10
59.631102383
 20
122.2189030391
 30
15.0
 40
3.5
  1
4
 41
0.7
 11
59.631102383
 21
120.9824928224
 31
15.0
 73
     1
  0
TEXT
  5
272
  8
DIM
 10
61.6679078805
 20
122.2189030391
 30
15.0
 40
3.5
  1
 H8 
 41
0.525
 11
61.6679078805
 21
120.9824928224
 31
15.0
 73
     1
  0
TEXT
  5
273
  8
DIM
 10
70.4882838319
 20
124.8715909774
 30
15.0
 40
2.45
  1
+
 41
0.7
 11
70.4882838319
 21
124.0061038257
 31
15.0
 73
     1
  0
TEXT
  5
274
  8
DIM
 10
70.4882838319
 20
122.0200630946
 30
15.0
 40
2.45
  1
 
 41
0.7
 11
70.4882838319
 21
121.1545759429
 31
15.0
 73
     1
  0
TEXT
  5
275
  8
DIM
 10
71.9140477733
 20
124.8715909774
 30
15.0
 40
2.45
  1
0.018
 41
0.7
 11
71.9140477733
 21
124.0061038257
 31
15.0
 73
     1
  0
TEXT
  5
276
  8
DIM
 10
71.9140477733
 20
122.0200630946
 30
15.0
 40
2.45
  1
0
 41
0.7
 11
71.9140477733
 21
121.1545759429
 31
15.0
 73
     1
  0
ENDBLK
  5
266
  8
0
  0
BLOCK
  8
0
  2
_D_13
 70
     0
 10
0.0
 20
0.0
 30
0.0
  3
_D_13
  1

  0
INSERT
  5
27B
  8
DIM
  2
_OPEN30
 10
122.5721236994
 20
134.9617306055
 30
15.0
 41
3.0
 42
3.0
 50
90.0
  0
INSERT
  5
27C
  8
DIM
  2
_OPEN30
 10
122.5721236994
 20
138.9617306055
 30
15.0
 41
3.0
 42
3.0
 50
270.0
  0
LINE
  5
27D
  8
DIM
 10
126.228596713
 20
138.9617306055
 30
0.0
 11
121.5721236994
 21
138.9617306055
 31
0.0
  0
LINE
  5
27E
  8
DIM
 10
122.5721236994
 20
134.9617306055
 30
0.0
 11
122.5721236994
 21
127.2624820739
 31
0.0
  0
LINE
  5
27F
  8
DIM
 10
122.5721236994
 20
134.9617306055
 30
0.0
 11
122.5721236994
 21
138.9617306055
 31
0.0
  0
LINE
  5
280
  8
DIM
 10
122.5721236994
 20
138.9617306055
 30
0.0
 11
122.5721236994
 21
145.3117306055
 31
0.0
  0
TEXT
  5
281
  8
DIM
 10
121.3357137156
 20
127.2624820739
 30
15.0
 40
3.5
  1
4
 50
90.0
 41
0.7
 11
122.5721239323
 21
127.2624820739
 31
15.0
 73
     1
  0
ENDBLK
  5
27A
  8
0
  0
BLOCK
  8
0
  2
_D_14
 70
     0
 10
0.0
 20
0.0
 30
0.0
  3
_D_14
  1

  0
INSERT
  5
286
  8
DIM
  2
_OPEN30
 10
57.738596713
 20
134.9617306055
 30
15.0
 41
3.0
 42
3.0
 50
90.0
  0
INSERT
  5
287
  8
DIM
  2
_OPEN30
 10
57.738596713
 20
138.9617306055
 30
15.0
 41
3.0
 42
3.0
 50
270.0
  0
LINE
  5
288
  8
DIM
 10
78.728596713
 20
134.9617306055
 30
0.0
 11
56.738596713
 21
134.9617306055
 31
0.0
  0
LINE
  5
289
  8
DIM
 10
84.228596713
 20
138.9617306055
 30
0.0
 11
56.738596713
 21
138.9617306055
 31
0.0
  0
LINE
  5
28A
  8
DIM
 10
57.738596713
 20
134.9617306055
 30
0.0
 11
57.738596713
 21
128.6117306055
 31
0.0
  0
LINE
  5
28B
  8
DIM
 10
57.738596713
 20
134.9617306055
 30
0.0
 11
57.738596713
 21
138.9617306055
 31
0.0
  0
LINE
  5
28C
  8
DIM
 10
57.738596713
 20
138.9617306055
 30
0.0
 11
57.738596713
 21
145.3117306055
 31
0.0
  0
TEXT
  5
28D
  8
DIM
 10
56.5021867291
 20
135.9433278568
 30
15.0
 40
3.5
  1
4
 50
90.0
 41
0.7
 11
57.7385969459
 21
135.9433278568
 31
15.0
 73
     1
  0
ENDBLK
  5
285
  8
0
  0
BLOCK
  8
0
  2
_D_15
 70
     0
 10
0.0
 20
0.0
 30
0.0
  3
_D_15
  1

  0
INSERT
  5
2D0
  8
DIM
  2
_OPEN30
 10
126.238596713
 20
104.5632975962
 30
0.0
 41
3.0
 42
3.0
 50
0.0
  0
INSERT
  5
2D1
  8
DIM
  2
_OPEN30
 10
132.238596713
 20
104.5632975962
 30
0.0
 41
3.0
 42
3.0
 50
180.0
  0
LINE
  5
2D2
  8
DIM
 10
126.238596713
 20
71.6493915544
 30
0.0
 11
126.238596713
 21
105.5632975962
 31
0.0
  0
LINE
  5
2D3
  8
DIM
 10
132.238596713
 20
71.6493915544
 30
0.0
 11
132.238596713
 21
105.5632975962
 31
0.0
  0
LINE
  5
2D4
  8
DIM
 10
126.238596713
 20
104.5632975962
 30
0.0
 11
119.2537898863
 21
104.5632975962
 31
0.0
  0
LINE
  5
2D5
  8
DIM
 10
126.238596713
 20
104.5632975962
 30
0.0
 11
132.238596713
 21
104.5632975962
 31
0.0
  0
LINE
  5
2D6
  8
DIM
 10
132.238596713
 20
104.5632975962
 30
0.0
 11
138.588596713
 21
104.5632975962
 31
0.0
  0
TEXT
  5
2D7
  8
DIM
 10
119.2537898863
 20
105.7997075801
 30
0.0
 40
3.5
  1
6
 41
0.7
 11
119.2537898863
 21
104.5632973634
 31
0.0
 73
     1
  0
ENDBLK
  5
2CF
  8
0
  0
BLOCK
  8
0
  2
_D_16
 70
     0
 10
0.0
 20
0.0
 30
0.0
  3
_D_16
  1

  0
INSERT
  5
2DC
  8
DIM
  2
_OPEN30
 10
86.238596713
 20
113.6144811133
 30
0.0
 41
3.0
 42
3.0
 50
180.0
  0
INSERT
  5
2DD
  8
DIM
  2
_OPEN30
 10
129.238596713
 20
113.6144811133
 30
0.0
 41
3.0
 42
3.0
 50
0.0
  0
LINE
  5
2DE
  8
DIM
 10
86.238596713
 20
78.6493915544
 30
0.0
 11
86.238596713
 21
114.6144811133
 31
0.0
  0
LINE
  5
2DF
  8
DIM
 10
129.238596713
 20
77.717315842
 30
0.0
 11
129.238596713
 21
114.6144811133
 31
0.0
  0
LINE
  5
2E0
  8
DIM
 10
86.238596713
 20
113.6144811133
 30
0.0
 11
129.238596713
 21
113.6144811133
 31
0.0
  0
TEXT
  5
2E1
  8
DIM
 10
105.7017912155
 20
114.8508910972
 30
0.0
 40
3.5
  1
43
 41
0.7
 11
105.7017912155
 21
113.6144808805
 31
0.0
 73
     1
  0
ENDBLK
  5
2DB
  8
0
  0
BLOCK
  8
0
  2
_D_17
 70
     0
 10
0.0
 20
0.0
 30
0.0
  3
_D_17
  1

  0
ARC
  5
2E6
  8
DIM
 10
137.3901943151
 20
123.9811930349
 30
0.0
 40
6.37621018554247
 50
243.4349488229
 51
296.5650511771
  0
ARC
  5
2E7
  8
DIM
 10
137.3901943151
 20
121.1296649193
 30
0.0
 40
6.376210185542482
 50
63.4349488229
 51
116.5650511771
  0
INSERT
  5
2E8
  8
DIM
  2
_OPEN30
 10
140.4138049983
 20
73.6393915544
 30
4.0
 41
3.0
 42
3.0
 50
270.0
  0
INSERT
  5
2E9
  8
DIM
  2
_OPEN30
 10
140.4138049983
 20
69.6393915544
 30
4.0
 41
3.0
 42
3.0
 50
90.0
  0
LINE
  5
2EA
  8
DIM
 10
130.248596713
 20
73.6393915544
 30
0.0
 11
141.4138049983
 21
73.6393915544
 31
0.0
  0
LINE
  5
2EB
  8
DIM
 10
130.248596713
 20
69.6393915544
 30
0.0
 11
141.4138049983
 21
69.6393915544
 31
0.0
  0
LINE
  5
2EC
  8
DIM
 10
140.4138049983
 20
73.6393915544
 30
0.0
 11
140.4138049983
 21
127.5058749956
 31
0.0
  0
LINE
  5
2ED
  8
DIM
 10
140.4138049983
 20
73.6393915544
 30
0.0
 11
140.4138049983
 21
69.6393915544
 31
0.0
  0
LINE
  5
2EE
  8
DIM
 10
140.4138049983
 20
69.6393915544
 30
0.0
 11
140.4138049983
 21
63.2893915544
 31
0.0
  0
TEXT
  5
2EF
  8
DIM
 10
139.1773950144
 20
107.4209555876
 30
4.0
 40
3.5
  1
4
 50
90.0
 41
0.7
 11
140.4138052311
 21
107.4209555876
 31
4.0
 73
     1
  0
TEXT
  5
2F0
  8
DIM
 10
139.1773950144
 20
109.4577610851
 30
4.0
 40
3.5
  1
 H8 
 50
90.0
 41
0.525
 11
140.4138052311
 21
109.4577610851
 31
4.0
 73
     1
  0
TEXT
  5
2F1
  8
DIM
 10
136.5247070761
 20
118.2781372694
 30
4.0
 40
2.45
  1
+
 50
90.0
 41
0.7
 11
137.3901942278
 21
118.2781372694
 31
4.0
 73
     1
  0
TEXT
  5
2F2
  8
DIM
 10
139.3762349588
 20
118.2781372694
 30
4.0
 40
2.45
  1
 
 50
90.0
 41
0.7
 11
140.2417221105
 21
118.2781372694
 31
4.0
 73
     1
  0
TEXT
  5
2F3
  8
DIM
 10
136.5247070761
 20
119.7039012108
 30
4.0
 40
2.45
  1
0.018
 50
90.0
 41
0.7
 11
137.3901942278
 21
119.7039012108
 31
4.0
 73
     1
  0
TEXT
  5
2F4
  8
DIM
 10
139.3762349588
 20
119.7039012108
 30
4.0
 40
2.45
  1
0
 50
90.0
 41
0.7
 11
140.2417221105
 21
119.7039012108
 31
4.0
 73
     1
  0
ENDBLK
  5
2E5
  8
0
  0
BLOCK
  8
0
  2
_D_18
 70
     0
 10
0.0
 20
0.0
 30
0.0
  3
_D_18
  1

  0
INSERT
  5
2F9
  8
DIM
  2
_OPEN30
 10
241.0077446207
 20
91.1393915544
 30
4.0
 41
3.0
 42
3.0
 50
90.0
  0
INSERT
  5
2FA
  8
DIM
  2
_OPEN30
 10
241.0077446207
 20
52.1393915544
 30
4.0
 41
3.0
 42
3.0
 50
270.0
  0
LINE
  5
2FB
  8
DIM
 10
222.998596713
 20
91.1393915544
 30
0.0
 11
242.0077446207
 21
91.1393915544
 31
0.0
  0
LINE
  5
2FC
  8
DIM
 10
222.998596713
 20
52.1393915544
 30
0.0
 11
242.0077446207
 21
52.1393915544
 31
0.0
  0
LINE
  5
2FD
  8
DIM
 10
241.0077446207
 20
91.1393915544
 30
0.0
 11
241.0077446207
 21
52.1393915544
 31
0.0
  0
TEXT
  5
2FE
  8
DIM
 10
239.7713346368
 20
69.602586057
 30
4.0
 40
3.5
  1
39
 50
90.0
 41
0.7
 11
241.0077448536
 21
69.602586057
 31
4.0
 73
     1
  0
ENDBLK
  5
2F8
  8
0
  0
BLOCK
  8
0
  2
_D_19
 70
     0
 10
0.0
 20
0.0
 30
0.0
  3
_D_19
  1

  0
INSERT
  5
303
  8
DIM
  2
_OPEN30
 10
206.738596713
 20
29.1598577325
 30
4.0
 41
3.0
 42
3.0
 50
180.0
  0
INSERT
  5
304
  8
DIM
  2
_OPEN30
 10
221.238596713
 20
29.1598577325
 30
4.0
 41
3.0
 42
3.0
 50
0.0
  0
LINE
  5
305
  8
DIM
 10
206.738596713
 20
45.6293915544
 30
0.0
 11
206.738596713
 21
28.1598577325
 31
0.0
  0
LINE
  5
306
  8
DIM
 10
221.238596713
 20
44.6293915544
 30
0.0
 11
221.238596713
 21
28.1598577325
 31
0.0
  0
LINE
  5
307
  8
DIM
 10
206.738596713
 20
29.1598577325
 30
0.0
 11
221.238596713
 21
29.1598577325
 31
0.0
  0
TEXT
  5
308
  8
DIM
 10
209.9149857181
 20
30.3962677163
 30
4.0
 40
3.5
  1
14.5
 41
0.7
 11
209.9149857181
 21
29.1598574996
 31
4.0
 73
     1
  0
ENDBLK
  5
302
  8
0
  0
BLOCK
  8
0
  2
_D_20
 70
     0
 10
0.0
 20
0.0
 30
0.0
  3
_D_20
  1

  0
INSERT
  5
30D
  8
DIM
  2
_OPEN30
 10
206.738596713
 20
108.141525627
 30
4.0
 41
3.0
 42
3.0
 50
180.0
  0
INSERT
  5
30E
  8
DIM
  2
_OPEN30
 10
215.738596713
 20
108.141525627
 30
4.0
 41
3.0
 42
3.0
 50
0.0
  0
LINE
  5
30F
  8
DIM
 10
206.738596713
 20
97.6493915544
 30
0.0
 11
206.738596713
 21
109.141525627
 31
0.0
  0
LINE
  5
310
  8
DIM
 10
215.738596713
 20
98.3993915544
 30
0.0
 11
215.738596713
 21
109.141525627
 31
0.0
  0
LINE
  5
311
  8
DIM
 10
206.738596713
 20
108.141525627
 30
0.0
 11
215.738596713
 21
108.141525627
 31
0.0
  0
TEXT
  5
312
  8
DIM
 10
210.2201939643
 20
109.3779356108
 30
4.0
 40
3.5
  1
9
 41
0.7
 11
210.2201939643
 21
108.1415253941
 31
4.0
 73
     1
  0
ENDBLK
  5
30C
  8
0
  0
BLOCK
  8
0
  2
_D_21
 70
     0
 10
0.0
 20
0.0
 30
0.0
  3
_D_21
  1

  0
INSERT
  5
317
  8
DIM
  2
_OPEN30
 10
197.738596713
 20
115.9314983508
 30
4.0
 41
3.0
 42
3.0
 50
180.0
  0
INSERT
  5
318
  8
DIM
  2
_OPEN30
 10
215.738596713
 20
115.9314983508
 30
4.0
 41
3.0
 42
3.0
 50
0.0
  0
LINE
  5
319
  8
DIM
 10
197.738596713
 20
98.3993915544
 30
0.0
 11
197.738596713
 21
116.9314983508
 31
0.0
  0
LINE
  5
31A
  8
DIM
 10
215.738596713
 20
98.3993915544
 30
0.0
 11
215.738596713
 21
116.9314983508
 31
0.0
  0
LINE
  5
31B
  8
DIM
 10
197.738596713
 20
115.9314983508
 30
0.0
 11
215.738596713
 21
115.9314983508
 31
0.0
  0
TEXT
  5
31C
  8
DIM
 10
204.7017912155
 20
117.1679083347
 30
4.0
 40
3.5
  1
18
 41
0.7
 11
204.7017912155
 21
115.931498118
 31
4.0
 73
     1
  0
ENDBLK
  5
316
  8
0
  0
BLOCK
  8
0
  2
SW_CENTERMARKSYMBOL_8
 70
     0
 10
0.0
 20
0.0
 30
0.0
  3
SW_CENTERMARKSYMBOL_8
  1

  0
LINE
  5
320
  8
DIM
 62
     0
 10
0.0
 20
0.0
 30
0.0
 11
0.0
 21
5.0
 31
0.0
  0
LINE
  5
321
  8
DIM
 62
     0
 10
0.0
 20
0.0
 30
0.0
 11
-5.0
 21
0.0
 31
0.0
  0
LINE
  5
322
  8
DIM
 62
     0
 10
0.0
 20
0.0
 30
0.0
 11
0.0
 21
-5.0
 31
0.0
  0
LINE
  5
323
  8
DIM
 62
     0
 10
0.0
 20
0.0
 30
0.0
 11
5.0
 21
0.0
 31
0.0
  0
LINE
  5
324
  8
DIM
 62
     0
 10
0.0
 20
10.0
 30
0.0
 11
0.0
 21
37.2069915906
 31
0.0
  0
LINE
  5
325
  8
DIM
 62
     0
 10
-10.0
 20
0.0
 30
0.0
 11
-15.0
 21
0.0
 31
0.0
  0
LINE
  5
326
  8
DIM
 62
     0
 10
0.0
 20
-10.0
 30
0.0
 11
0.0
 21
-31.9420890404
 31
0.0
  0
LINE
  5
327
  8
DIM
 62
     0
 10
10.0
 20
0.0
 30
0.0
 11
40.4900357908
 21
0.0
 31
0.0
  0
ENDBLK
  5
31F
  8
0
  0
BLOCK
  8
0
  2
SW_CENTERMARKSYMBOL_9
 70
     0
 10
0.0
 20
0.0
 30
0.0
  3
SW_CENTERMARKSYMBOL_9
  1

  0
LINE
  5
32C
  8
DIM
 62
     0
 10
0.0
 20
0.0
 30
0.0
 11
0.0
 21
5.0
 31
0.0
  0
LINE
  5
32D
  8
DIM
 62
     0
 10
0.0
 20
0.0
 30
0.0
 11
-5.0
 21
0.0
 31
0.0
  0
LINE
  5
32E
  8
DIM
 62
     0
 10
0.0
 20
0.0
 30
0.0
 11
0.0
 21
-5.0
 31
0.0
  0
LINE
  5
32F
  8
DIM
 62
     0
 10
0.0
 20
0.0
 30
0.0
 11
5.0
 21
0.0
 31
0.0
  0
LINE
  5
330
  8
DIM
 62
     0
 10
0.0
 20
5.0
 30
0.0
 11
0.0
 21
7.25
 31
0.0
  0
LINE
  5
331
  8
DIM
 62
     0
 10
-5.0
 20
0.0
 30
0.0
 11
-7.25
 21
0.0
 31
0.0
  0
LINE
  5
332
  8
DIM
 62
     0
 10
0.0
 20
-5.0
 30
0.0
 11
0.0
 21
-7.25
 31
0.0
  0
LINE
  5
333
  8
DIM
 62
     0
 10
5.0
 20
0.0
 30
0.0
 11
7.25
 21
0.0
 31
0.0
  0
ENDBLK
  5
32B
  8
0
  0
BLOCK
  8
0
  2
SW_CENTERMARKSYMBOL_10
 70
     0
 10
0.0
 20
0.0
 30
0.0
  3
SW_CENTERMARKSYMBOL_10
  1

  0
LINE
  5
338
  8
DIM
 62
     0
 10
0.0
 20
0.0
 30
0.0
 11
0.0
 21
5.0
 31
0.0
  0
LINE
  5
339
  8
DIM
 62
     0
 10
0.0
 20
0.0
 30
0.0
 11
-5.0
 21
0.0
 31
0.0
  0
LINE
  5
33A
  8
DIM
 62
     0
 10
0.0
 20
0.0
 30
0.0
 11
0.0
 21
-5.0
 31
0.0
  0
LINE
  5
33B
  8
DIM
 62
     0
 10
0.0
 20
0.0
 30
0.0
 11
5.0
 21
0.0
 31
0.0
  0
LINE
  5
33C
  8
DIM
 62
     0
 10
0.0
 20
5.0
 30
0.0
 11
0.0
 21
7.25
 31
0.0
  0
LINE
  5
33D
  8
DIM
 62
     0
 10
-5.0
 20
0.0
 30
0.0
 11
-7.25
 21
0.0
 31
0.0
  0
LINE
  5
33E
  8
DIM
 62
     0
 10
0.0
 20
-5.0
 30
0.0
 11
0.0
 21
-7.25
 31
0.0
  0
LINE
  5
33F
  8
DIM
 62
     0
 10
5.0
 20
0.0
 30
0.0
 11
7.25
 21
0.0
 31
0.0
  0
ENDBLK
  5
337
  8
0
  0
BLOCK
  8
0
  2
SW_CENTERMARKSYMBOL_11
 70
     0
 10
0.0
 20
0.0
 30
0.0
  3
SW_CENTERMARKSYMBOL_11
  1

  0
LINE
  5
344
  8
DIM
 62
     0
 10
0.0
 20
0.0
 30
0.0
 11
0.0
 21
5.0
 31
0.0
  0
LINE
  5
345
  8
DIM
 62
     0
 10
0.0
 20
0.0
 30
0.0
 11
-5.0
 21
0.0
 31
0.0
  0
LINE
  5
346
  8
DIM
 62
     0
 10
0.0
 20
0.0
 30
0.0
 11
0.0
 21
-5.0
 31
0.0
  0
LINE
  5
347
  8
DIM
 62
     0
 10
0.0
 20
0.0
 30
0.0
 11
5.0
 21
0.0
 31
0.0
  0
LINE
  5
348
  8
DIM
 62
     0
 10
0.0
 20
5.0
 30
0.0
 11
0.0
 21
7.25
 31
0.0
  0
LINE
  5
349
  8
DIM
 62
     0
 10
-5.0
 20
0.0
 30
0.0
 11
-7.25
 21
0.0
 31
0.0
  0
LINE
  5
34A
  8
DIM
 62
     0
 10
0.0
 20
-5.0
 30
0.0
 11
0.0
 21
-7.25
 31
0.0
  0
LINE
  5
34B
  8
DIM
 62
     0
 10
5.0
 20
0.0
 30
0.0
 11
7.25
 21
0.0
 31
0.0
  0
ENDBLK
  5
343
  8
0
  0
BLOCK
  8
0
  2
SW_CENTERMARKSYMBOL_12
 70
     0
 10
0.0
 20
0.0
 30
0.0
  3
SW_CENTERMARKSYMBOL_12
  1

  0
LINE
  5
350
  8
DIM
 62
     0
 10
0.0
 20
0.0
 30
0.0
 11
0.0
 21
5.0
 31
0.0
  0
LINE
  5
351
  8
DIM
 62
     0
 10
0.0
 20
0.0
 30
0.0
 11
-5.0
 21
0.0
 31
0.0
  0
LINE
  5
352
  8
DIM
 62
     0
 10
0.0
 20
0.0
 30
0.0
 11
0.0
 21
-5.0
 31
0.0
  0
LINE
  5
353
  8
DIM
 62
     0
 10
0.0
 20
0.0
 30
0.0
 11
5.0
 21
0.0
 31
0.0
  0
LINE
  5
354
  8
DIM
 62
     0
 10
0.0
 20
5.0
 30
0.0
 11
0.0
 21
7.25
 31
0.0
  0
LINE
  5
355
  8
DIM
 62
     0
 10
-5.0
 20
0.0
 30
0.0
 11
-7.25
 21
0.0
 31
0.0
  0
LINE
  5
356
  8
DIM
 62
     0
 10
0.0
 20
-5.0
 30
0.0
 11
0.0
 21
-7.25
 31
0.0
  0
LINE
  5
357
  8
DIM
 62
     0
 10
5.0
 20
0.0
 30
0.0
 11
7.25
 21
0.0
 31
0.0
  0
ENDBLK
  5
34F
  8
0
  0
BLOCK
  8
0
  2
SW_CENTERMARKSYMBOL_13
 70
     0
 10
0.0
 20
0.0
 30
0.0
  3
SW_CENTERMARKSYMBOL_13
  1

  0
LINE
  5
35C
  8
DIM
 62
     0
 10
0.0
 20
0.0
 30
0.0
 11
0.0
 21
5.0
 31
0.0
  0
LINE
  5
35D
  8
DIM
 62
     0
 10
0.0
 20
0.0
 30
0.0
 11
-5.0
 21
0.0
 31
0.0
  0
LINE
  5
35E
  8
DIM
 62
     0
 10
0.0
 20
0.0
 30
0.0
 11
0.0
 21
-5.0
 31
0.0
  0
LINE
  5
35F
  8
DIM
 62
     0
 10
0.0
 20
0.0
 30
0.0
 11
5.0
 21
0.0
 31
0.0
  0
LINE
  5
360
  8
DIM
 62
     0
 10
0.0
 20
5.0
 30
0.0
 11
0.0
 21
6.5
 31
0.0
  0
LINE
  5
361
  8
DIM
 62
     0
 10
-5.0
 20
0.0
 30
0.0
 11
-6.5
 21
0.0
 31
0.0
  0
LINE
  5
362
  8
DIM
 62
     0
 10
0.0
 20
-5.0
 30
0.0
 11
0.0
 21
-6.5
 31
0.0
  0
LINE
  5
363
  8
DIM
 62
     0
 10
5.0
 20
0.0
 30
0.0
 11
6.5
 21
0.0
 31
0.0
  0
ENDBLK
  5
35B
  8
0
  0
BLOCK
  8
0
  2
SW_CENTERMARKSYMBOL_14
 70
     0
 10
0.0
 20
0.0
 30
0.0
  3
SW_CENTERMARKSYMBOL_14
  1

  0
LINE
  5
368
  8
DIM
 62
     0
 10
0.0
 20
0.0
 30
0.0
 11
0.0
 21
5.0
 31
0.0
  0
LINE
  5
369
  8
DIM
 62
     0
 10
0.0
 20
0.0
 30
0.0
 11
-5.0
 21
0.0
 31
0.0
  0
LINE
  5
36A
  8
DIM
 62
     0
 10
0.0
 20
0.0
 30
0.0
 11
0.0
 21
-5.0
 31
0.0
  0
LINE
  5
36B
  8
DIM
 62
     0
 10
0.0
 20
0.0
 30
0.0
 11
5.0
 21
0.0
 31
0.0
  0
LINE
  5
36C
  8
DIM
 62
     0
 10
0.0
 20
5.0
 30
0.0
 11
0.0
 21
6.5
 31
0.0
  0
LINE
  5
36D
  8
DIM
 62
     0
 10
-5.0
 20
0.0
 30
0.0
 11
-6.5
 21
0.0
 31
0.0
  0
LINE
  5
36E
  8
DIM
 62
     0
 10
0.0
 20
-5.0
 30
0.0
 11
0.0
 21
-6.5
 31
0.0
  0
LINE
  5
36F
  8
DIM
 62
     0
 10
5.0
 20
0.0
 30
0.0
 11
6.5
 21
0.0
 31
0.0
  0
ENDBLK
  5
367
  8
0
  0
BLOCK
  8
0
  2
SW_CENTERMARKSYMBOL_15
 70
     0
 10
0.0
 20
0.0
 30
0.0
  3
SW_CENTERMARKSYMBOL_15
  1

  0
LINE
  5
374
  8
DIM
 62
     0
 10
0.0
 20
0.0
 30
0.0
 11
0.0
 21
5.0
 31
0.0
  0
LINE
  5
375
  8
DIM
 62
     0
 10
0.0
 20
0.0
 30
0.0
 11
-5.0
 21
0.0
 31
0.0
  0
LINE
  5
376
  8
DIM
 62
     0
 10
0.0
 20
0.0
 30
0.0
 11
0.0
 21
-5.0
 31
0.0
  0
LINE
  5
377
  8
DIM
 62
     0
 10
0.0
 20
0.0
 30
0.0
 11
5.0
 21
0.0
 31
0.0
  0
LINE
  5
378
  8
DIM
 62
     0
 10
0.0
 20
5.0
 30
0.0
 11
0.0
 21
6.65
 31
0.0
  0
LINE
  5
379
  8
DIM
 62
     0
 10
-5.0
 20
0.0
 30
0.0
 11
-6.65
 21
0.0
 31
0.0
  0
LINE
  5
37A
  8
DIM
 62
     0
 10
0.0
 20
-5.0
 30
0.0
 11
0.0
 21
-6.65
 31
0.0
  0
LINE
  5
37B
  8
DIM
 62
     0
 10
5.0
 20
0.0
 30
0.0
 11
25.9207017846
 21
0.0
 31
0.0
  0
ENDBLK
  5
373
  8
0
  0
BLOCK
  8
0
  2
SW_CENTERMARKSYMBOL_16
 70
     0
 10
0.0
 20
0.0
 30
0.0
  3
SW_CENTERMARKSYMBOL_16
  1

  0
LINE
  5
380
  8
DIM
 62
     0
 10
0.0
 20
0.0
 30
0.0
 11
0.0
 21
5.0
 31
0.0
  0
LINE
  5
381
  8
DIM
 62
     0
 10
0.0
 20
0.0
 30
0.0
 11
-5.0
 21
0.0
 31
0.0
  0
LINE
  5
382
  8
DIM
 62
     0
 10
0.0
 20
0.0
 30
0.0
 11
0.0
 21
-5.0
 31
0.0
  0
LINE
  5
383
  8
DIM
 62
     0
 10
0.0
 20
0.0
 30
0.0
 11
5.0
 21
0.0
 31
0.0
  0
LINE
  5
384
  8
DIM
 62
     0
 10
0.0
 20
5.0
 30
0.0
 11
0.0
 21
6.65
 31
0.0
  0
LINE
  5
385
  8
DIM
 62
     0
 10
-5.0
 20
0.0
 30
0.0
 11
-6.65
 21
0.0
 31
0.0
  0
LINE
  5
386
  8
DIM
 62
     0
 10
0.0
 20
-5.0
 30
0.0
 11
0.0
 21
-6.65
 31
0.0
  0
LINE
  5
387
  8
DIM
 62
     0
 10
5.0
 20
0.0
 30
0.0
 11
32.4496042451
 21
0.0
 31
0.0
  0
ENDBLK
  5
37F
  8
0
  0
BLOCK
  8
0
  2
SW_CENTERMARKSYMBOL_17
 70
     0
 10
0.0
 20
0.0
 30
0.0
  3
SW_CENTERMARKSYMBOL_17
  1

  0
LINE
  5
38C
  8
DIM
 62
     0
 10
0.0
 20
0.0
 30
0.0
 11
0.0
 21
5.0
 31
0.0
  0
LINE
  5
38D
  8
DIM
 62
     0
 10
0.0
 20
0.0
 30
0.0
 11
-5.0
 21
0.0
 31
0.0
  0
LINE
  5
38E
  8
DIM
 62
     0
 10
0.0
 20
0.0
 30
0.0
 11
0.0
 21
-5.0
 31
0.0
  0
LINE
  5
38F
  8
DIM
 62
     0
 10
0.0
 20
0.0
 30
0.0
 11
5.0
 21
0.0
 31
0.0
  0
LINE
  5
390
  8
DIM
 62
     0
 10
0.0
 20
5.0
 30
0.0
 11
0.0
 21
7.0
 31
0.0
  0
LINE
  5
391
  8
DIM
 62
     0
 10
-5.0
 20
0.0
 30
0.0
 11
-11.5728159443
 21
0.0
 31
0.0
  0
LINE
  5
392
  8
DIM
 62
     0
 10
0.0
 20
-5.0
 30
0.0
 11
0.0
 21
-7.0
 31
0.0
  0
LINE
  5
393
  8
DIM
 62
     0
 10
5.0
 20
0.0
 30
0.0
 11
7.0
 21
0.0
 31
0.0
  0
ENDBLK
  5
38B
  8
0
  0
BLOCK
  8
0
  2
_D_22
 70
     0
 10
0.0
 20
0.0
 30
0.0
  3
_D_22
  1

  0
INSERT
  5
3D2
  8
DIM
  2
_OPEN30
 10
276.8447976468
 20
107.4722798216
 30
5.25
 41
3.0
 42
3.0
 50
90.0
  0
INSERT
  5
3D3
  8
DIM
  2
_OPEN30
 10
276.8447976468
 20
110.4722798216
 30
5.25
 41
3.0
 42
3.0
 50
270.0
  0
LINE
  5
3D4
  8
DIM
 10
279.0316452923
 20
110.4722798216
 30
0.0
 11
275.8447976468
 21
110.4722798216
 31
0.0
  0
LINE
  5
3D5
  8
DIM
 10
276.8447976468
 20
107.4722798216
 30
0.0
 11
276.8447976468
 21
102.6496520457
 31
0.0
  0
LINE
  5
3D6
  8
DIM
 10
276.8447976468
 20
107.4722798216
 30
0.0
 11
276.8447976468
 21
110.4722798216
 31
0.0
  0
LINE
  5
3D7
  8
DIM
 10
276.8447976468
 20
110.4722798216
 30
0.0
 11
276.8447976468
 21
116.8222798216
 31
0.0
  0
TEXT
  5
3D8
  8
DIM
 10
275.6083876629
 20
102.6496520457
 30
5.25
 40
3.5
  1
3
 50
90.0
 41
0.7
 11
276.8447978796
 21
102.6496520457
 31
5.25
 73
     1
  0
ENDBLK
  5
3D1
  8
0
  0
BLOCK
  8
0
  2
_D_23
 70
     0
 10
0.0
 20
0.0
 30
0.0
  3
_D_23
  1

  0
ARC
  5
3DE
  8
DIM
 10
313.1988875827
 20
97.2107085305
 30
0.0
 40
6.37621018554247
 50
153.4349488229
 51
206.5650511771
  0
ARC
  5
3DF
  8
DIM
 10
310.3473594671
 20
97.2107085305
 30
0.0
 40
6.37621018554247
 50
333.4349488229
 51
26.5650511771
  0
INSERT
  5
3E0
  8
DIM
  2
_OPEN30
 10
279.0416452923
 20
94.1870973817
 30
5.25
 41
3.0
 42
3.0
 50
0.0
  0
INSERT
  5
3E1
  8
DIM
  2
_OPEN30
 10
282.0416452923
 20
94.1870973817
 30
5.25
 41
3.0
 42
3.0
 50
180.0
  0
LINE
  5
3E2
  8
DIM
 10
279.0416452923
 20
107.9622798216
 30
0.0
 11
279.0416452923
 21
93.1870973817
 31
0.0
  0
LINE
  5
3E3
  8
DIM
 10
282.0416452923
 20
107.9622798216
 30
0.0
 11
282.0416452923
 21
93.1870973817
 31
0.0
  0
LINE
  5
3E4
  8
DIM
 10
279.0416452923
 20
94.1870973817
 30
0.0
 11
272.6916452923
 21
94.1870973817
 31
0.0
  0
LINE
  5
3E5
  8
DIM
 10
279.0416452923
 20
94.1870973817
 30
0.0
 11
282.0416452923
 21
94.1870973817
 31
0.0
  0
LINE
  5
3E6
  8
DIM
 10
282.0416452923
 20
94.1870973817
 30
0.0
 11
316.723571406
 21
94.1870973817
 31
0.0
  0
TEXT
  5
3E7
  8
DIM
 10
288.6951093239
 20
95.4235078312
 30
5.25
 40
3.5
  1
2x
 41
0.7
 11
288.6951093239
 21
94.1870976145
 31
5.25
 73
     1
  0
TEXT
  5
3E8
  8
DIM
 10
292.7687203189
 20
95.4235078312
 30
5.25
 40
3.5
  1
%%c
 41
0.7
 11
292.7687203189
 21
94.1870976145
 31
5.25
 73
     1
  0
TEXT
  5
3E9
  8
DIM
 10
296.6386510667
 20
95.4235078312
 30
5.25
 40
3.5
  1
3
 41
0.7
 11
296.6386510667
 21
94.1870976145
 31
5.25
 73
     1
  0
TEXT
  5
3EA
  8
DIM
 10
298.6754563314
 20
95.4235078312
 30
5.25
 40
3.5
  1
 H8 
 41
0.525
 11
298.6754563314
 21
94.1870976145
 31
5.25
 73
     1
  0
TEXT
  5
3EB
  8
DIM
 10
307.4958318172
 20
98.0761957695
 30
5.25
 40
2.45
  1
+
 41
0.7
 11
307.4958318172
 21
97.2107086178
 31
5.25
 73
     1
  0
TEXT
  5
3EC
  8
DIM
 10
307.4958318172
 20
95.2246678868
 30
5.25
 40
2.45
  1
 
 41
0.7
 11
307.4958318172
 21
94.3591807351
 31
5.25
 73
     1
  0
TEXT
  5
3ED
  8
DIM
 10
308.9215957586
 20
98.0761957695
 30
5.25
 40
2.45
  1
0.014
 41
0.7
 11
308.9215957586
 21
97.2107086178
 31
5.25
 73
     1
  0
TEXT
  5
3EE
  8
DIM
 10
308.9215957586
 20
95.2246678868
 30
5.25
 40
2.45
  1
0
 41
0.7
 11
308.9215957586
 21
94.3591807351
 31
5.25
 73
     1
  0
ENDBLK
  5
3DD
  8
0
  0
ENDSEC
  0
SECTION
  2
ENTITIES
  0
LINE
  5
76
  8
0
  6
CONTINUOUS
 62
     7
 10
218.238596713
 20
175.7560429836
 30
0.0
 11
107.738596713
 21
175.7560429836
 31
0.0
  0
LINE
  5
77
  8
0
  6
CONTINUOUS
 62
     7
 10
107.738596713
 20
176.7560429836
 30
0.0
 11
217.8243831506
 21
176.7560429836
 31
0.0
  0
LINE
  5
78
  8
0
  6
CONTINUOUS
 62
     7
 10
218.238596713
 20
175.7560429836
 30
0.0
 11
217.8243831506
 21
176.7560429836
 31
0.0
  0
LINE
  5
79
  8
0
  6
CONTINUOUS
 62
     7
 10
220.238596713
 20
179.1702565459
 30
0.0
 11
220.238596713
 21
232.3418294212
 31
0.0
  0
LINE
  5
7A
  8
0
  6
CONTINUOUS
 62
     7
 10
220.238596713
 20
232.3418294212
 30
0.0
 11
221.238596713
 21
232.7560429836
 31
0.0
  0
LINE
  5
7B
  8
0
  6
CONTINUOUS
 62
     7
 10
221.238596713
 20
232.7560429836
 30
0.0
 11
221.238596713
 21
178.7560429836
 31
0.0
  0
LINE
  5
7C
  8
0
  6
CONTINUOUS
 62
     7
 10
220.238596713
 20
179.1702565459
 30
0.0
 11
221.238596713
 21
178.7560429836
 31
0.0
  0
LINE
  5
7D
  8
0
  6
CONTINUOUS
 62
     7
 10
220.238596713
 20
232.3418294212
 30
0.0
 11
217.8243831506
 21
234.7560429836
 31
0.0
  0
LINE
  5
7E
  8
0
  6
CONTINUOUS
 62
     7
 10
217.8243831506
 20
234.7560429836
 30
0.0
 11
218.238596713
 21
235.7560429836
 31
0.0
  0
LINE
  5
7F
  8
0
  6
CONTINUOUS
 62
     7
 10
218.238596713
 20
235.7560429836
 30
0.0
 11
221.238596713
 21
232.7560429836
 31
0.0
  0
CIRCLE
  5
80
  8
0
  6
CONTINUOUS
 62
     7
 10
215.738596713
 20
186.2560429836
 30
0.0
 40
4.0
  0
CIRCLE
  5
81
  8
0
  6
CONTINUOUS
 62
     7
 10
197.738596713
 20
186.2560429836
 30
0.0
 40
4.0
  0
CIRCLE
  5
82
  8
0
  6
CONTINUOUS
 62
     7
 10
215.738596713
 20
225.2560429836
 30
0.0
 40
4.0
  0
CIRCLE
  5
83
  8
0
  6
CONTINUOUS
 62
     7
 10
197.738596713
 20
225.2560429836
 30
0.0
 40
4.0
  0
CIRCLE
  5
84
  8
0
  6
CONTINUOUS
 62
     7
 10
89.1190505317
 20
216.5060429836
 30
0.0
 40
3.25
  0
CIRCLE
  5
85
  8
0
  6
CONTINUOUS
 62
     7
 10
107.738596713
 20
184.2560429836
 30
0.0
 40
3.25
  0
CIRCLE
  5
86
  8
0
  6
CONTINUOUS
 62
     7
 10
126.3581428944
 20
195.0060429836
 30
0.0
 40
3.249999999999986
  0
CIRCLE
  5
87
  8
0
  6
CONTINUOUS
 62
     7
 10
126.3581428944
 20
216.5060429836
 30
0.0
 40
3.250000000000014
  0
CIRCLE
  5
88
  8
0
  6
CONTINUOUS
 62
     7
 10
107.738596713
 20
227.2560429836
 30
0.0
 40
3.249999999999986
  0
CIRCLE
  5
89
  8
0
  6
CONTINUOUS
 62
     7
 10
196.238596713
 20
205.7560429836
 30
0.0
 40
1.650000000000006
  0
CIRCLE
  5
8A
  8
0
  6
CONTINUOUS
 62
     7
 10
107.738596713
 20
205.7560429836
 30
0.0
 40
13.00000000000001
  0
LINE
  5
8B
  8
0
  6
CONTINUOUS
 62
     7
 10
217.8243831506
 20
176.7560429836
 30
0.0
 11
220.238596713
 21
179.1702565459
 31
0.0
  0
ARC
  5
8C
  8
0
  6
CONTINUOUS
 62
     7
 10
107.738596713
 20
205.7560429836
 30
0.0
 40
28.99999999999997
 50
90.0
 51
270.0
  0
LINE
  5
8D
  8
0
  6
CONTINUOUS
 62
     7
 10
217.8243831506
 20
234.7560429836
 30
0.0
 11
107.738596713
 21
234.7560429836
 31
0.0
  0
LINE
  5
8E
  8
0
  6
CONTINUOUS
 62
     7
 10
146.738596713
 20
203.2560429836
 30
0.0
 11
144.738596713
 21
203.2560429836
 31
0.0
  0
ARC
  5
8F
  8
0
  6
CONTINUOUS
 62
     7
 10
146.738596713
 20
205.7560429836
 30
0.0
 40
2.5
 50
270.0
 51
90.0
  0
LINE
  5
90
  8
0
  6
CONTINUOUS
 62
     7
 10
144.738596713
 20
208.2560429836
 30
0.0
 11
146.738596713
 21
208.2560429836
 31
0.0
  0
ARC
  5
91
  8
0
  6
CONTINUOUS
 62
     7
 10
144.738596713
 20
205.7560429836
 30
0.0
 40
2.5
 50
90.0
 51
270.0
  0
CIRCLE
  5
92
  8
0
  6
CONTINUOUS
 62
     7
 10
89.1190505317
 20
195.0060429836
 30
0.0
 40
3.25
  0
CIRCLE
  5
93
  8
0
  6
CONTINUOUS
 62
     7
 10
156.238596713
 20
205.7560429836
 30
0.0
 40
1.650000000000006
  0
LINE
  5
94
  8
0
  6
CONTINUOUS
 62
     7
 10
146.738596713
 20
207.7560429836
 30
0.0
 11
144.738596713
 21
207.7560429836
 31
0.0
  0
CIRCLE
  5
95
  8
0
  6
CONTINUOUS
 62
     7
 10
107.738596713
 20
205.7560429836
 30
0.0
 40
10.0
  0
LINE
  5
96
  8
0
  6
CONTINUOUS
 62
     7
 10
107.738596713
 20
235.7560429836
 30
0.0
 11
218.238596713
 21
235.7560429836
 31
0.0
  0
ARC
  5
97
  8
0
  6
CONTINUOUS
 62
     7
 10
144.738596713
 20
205.7560429836
 30
0.0
 40
2.0
 50
90.0
 51
270.0
  0
LINE
  5
98
  8
0
  6
CONTINUOUS
 62
     7
 10
221.238596713
 20
178.7560429836
 30
0.0
 11
218.238596713
 21
175.7560429836
 31
0.0
  0
ARC
  5
99
  8
0
  6
CONTINUOUS
 62
     7
 10
146.738596713
 20
205.7560429836
 30
0.0
 40
2.0
 50
270.0
 51
90.0
  0
LINE
  5
9A
  8
0
  6
CONTINUOUS
 62
     7
 10
144.738596713
 20
203.7560429836
 30
0.0
 11
146.738596713
 21
203.7560429836
 31
0.0
  0
ARC
  5
9B
  8
0
  6
CONTINUOUS
 62
     7
 10
107.738596713
 20
205.7560429836
 30
0.0
 40
30.0
 50
90.0
 51
270.0
  0
CIRCLE
  5
9C
  8
0
  6
CONTINUOUS
 62
     7
 10
126.3581428944
 20
216.5060429836
 30
0.0
 40
1.700000000000003
  0
CIRCLE
  5
9D
  8
0
  6
CONTINUOUS
 62
     7
 10
126.3581428944
 20
195.0060429836
 30
0.0
 40
1.699999999999989
  0
CIRCLE
  5
9E
  8
0
  6
CONTINUOUS
 62
     7
 10
107.738596713
 20
227.2560429836
 30
0.0
 40
1.699999999999989
  0
CIRCLE
  5
9F
  8
0
  6
CONTINUOUS
 62
     7
 10
197.738596713
 20
225.2560429836
 30
0.0
 40
2.250000000000028
  0
CIRCLE
  5
A0
  8
0
  6
CONTINUOUS
 62
     7
 10
107.738596713
 20
184.2560429836
 30
0.0
 40
1.699999999999989
  0
CIRCLE
  5
A1
  8
0
  6
CONTINUOUS
 62
     7
 10
215.738596713
 20
186.2560429836
 30
0.0
 40
2.249999999999972
  0
CIRCLE
  5
A2
  8
0
  6
CONTINUOUS
 62
     7
 10
89.1190505317
 20
216.5060429836
 30
0.0
 40
1.700000000000003
  0
CIRCLE
  5
A3
  8
0
  6
CONTINUOUS
 62
     7
 10
197.738596713
 20
186.2560429836
 30
0.0
 40
2.250000000000028
  0
CIRCLE
  5
A4
  8
0
  6
CONTINUOUS
 62
     7
 10
215.738596713
 20
225.2560429836
 30
0.0
 40
2.249999999999972
  0
CIRCLE
  5
A5
  8
0
  6
CONTINUOUS
 62
     7
 10
89.1190505317
 20
195.0060429836
 30
0.0
 40
1.700000000000003
  0
LINE
  5
A6
  8
0
  6
CENTERX2
 62
     7
 10
145.738596713
 20
211.121485671
 30
0.0
 11
145.738596713
 21
199.2265360735
 31
0.0
  0
POINT
  5
A7
  8
0
  6
CONTINUOUS
 62
     7
 10
142.738596713
 20
205.7560429836
 30
0.0
  0
POINT
  5
A8
  8
0
  6
CONTINUOUS
 62
     7
 10
148.738596713
 20
205.7560429836
 30
0.0
  0
POINT
  5
A9
  8
0
  6
CONTINUOUS
 62
     7
 10
77.738596713
 20
205.7560429836
 30
0.0
  0
DIMENSION
  5
AA
  8
DIM
  2
_D
 10
148.738596713
 20
240.5086799715
 30
0.0
 11
153.9320783466
 21
240.5086799715
 31
0.0
 70
   160
  1
<>
  3
SLDDIMSTYLE0
 13
142.738596713
 23
205.7560429836
 33
0.0
 14
148.738596713
 24
205.7560429836
 34
0.0
  0
DIMENSION
  5
BD
  8
DIM
  2
_D_1
 10
221.238596713
 20
271.5389407016
 30
0.0
 11
149.488596713
 21
271.5389407016
 31
0.0
 70
   160
  1
<>
  3
SLDDIMSTYLE1
 13
77.738596713
 23
205.7560429836
 33
0.0
 14
221.238596713
 24
232.7560429836
 34
0.0
  0
DIMENSION
  5
C8
  8
DIM
  2
_D_2
 10
145.738596713
 20
246.960141967
 30
0.0
 11
126.738596713
 21
246.960141967
 31
0.0
 70
   160
  1
<>
  3
SLDDIMSTYLE1
 13
107.738596713
 23
220.7560429836
 33
0.0
 14
145.738596713
 24
211.121485671
 34
0.0
  0
DIMENSION
  5
D2
  8
DIM
  2
_D_3
 10
60.518596713
 20
205.7560429836
 30
0.0
 11
66.3244283279
 21
216.8529359576
 31
0.0
 70
   162
  1
<>
  3
SLDDIMSTYLE2
 13
81.9743409504
 23
220.6310429836
 33
0.0
 14
96.2637601129
 24
212.3810429836
 34
0.0
 15
238.458596713
 25
205.7560429836
 35
0.0
 16
66.3244283279
 26
216.8529359576
 36
0.0
  0
DIMENSION
  5
DC
  8
DIM
  2
_D_4
 10
166.4014932522
 20
203.7560429836
 30
0.0
 11
166.4014932522
 21
248.1706376586
 31
0.0
 70
   160
  1
<>H8
  3
SLDDIMSTYLE3
 13
146.738596713
 23
207.7560429836
 33
0.0
 14
146.738596713
 24
203.7560429836
 34
0.0
 50
90.0
  0
DIMENSION
  5
F0
  8
DIM
  2
_D_5
 10
196.238596713
 20
262.7294055513
 30
0.0
 11
176.238596713
 21
262.7294055513
 31
0.0
 70
   160
  1
<>
  3
SLDDIMSTYLE1
 13
156.238596713
 23
212.4060429836
 33
0.0
 14
196.238596713
 24
212.4060429836
 34
0.0
  0
DIMENSION
  5
FA
  8
DIM
  2
_D_6
 10
102.738596713
 20
214.4162970214
 30
0.0
 11
87.674162393
 21
240.5086899715
 31
0.0
 70
   163
  1
<>
  3
SLDDIMSTYLE4
 15
112.738596713
 25
197.0957889457
 35
0.0
 40
0.0
  0
DIMENSION
  5
105
  8
DIM
  2
_D_7
 10
92.5358009175
 20
220.9588387791
 30
0.0
 11
80.6745176024
 21
232.8201420942
 31
0.0
 70
   163
  1
<>
  3
SLDDIMSTYLE5
 15
122.9413925085
 25
190.5532471881
 35
0.0
 40
0.0
  0
DIMENSION
  5
110
  8
DIM
  2
_D_8
 10
248.3036133514
 20
175.7560429836
 30
0.0
 11
248.3036133514
 21
205.7560429836
 31
0.0
 70
   160
  1
<>
  3
SLDDIMSTYLE1
 13
218.238596713
 23
235.7560429836
 33
0.0
 14
218.238596713
 24
175.7560429836
 34
0.0
 50
90.0
  0
DIMENSION
  5
11A
  8
DIM
  2
_D_9
 10
155.5368859608
 20
207.6289023003
 30
0.0
 11
176.200799371
 21
169.6233709946
 31
0.0
 70
   163
  1
2xM4
  3
SLDDIMSTYLE6
 15
156.9403074653
 25
203.8831836669
 35
0.0
 40
0.0
  0
DIMENSION
  5
128
  8
DIM
  2
_D_10
 10
221.238596713
 20
262.7294055513
 30
0.0
 11
208.738596713
 21
262.7294055513
 31
0.0
 70
   160
  1
<>
  3
SLDDIMSTYLE1
 13
196.238596713
 23
212.4060429836
 33
0.0
 14
221.238596713
 24
232.7560429836
 34
0.0
  0
INSERT
  5
139
  8
TXT
  2
SW_NOTE_0
 10
109.3974439824
 20
181.4612754196
 30
0.0
  0
INSERT
  5
141
  8
TXT
  2
SW_NOTE_0_1
 10
199.66400596
 20
182.7499341388
 30
0.0
  0
INSERT
  5
14D
  8
DIM
  2
SW_CENTERMARKSYMBOL_0
 10
107.738596713
 20
205.7560429836
 30
0.0
  0
INSERT
  5
159
  8
DIM
  2
SW_CENTERMARKSYMBOL_1
 10
215.738596713
 20
186.2560429836
 30
0.0
  0
INSERT
  5
165
  8
DIM
  2
SW_CENTERMARKSYMBOL_2
 10
197.738596713
 20
186.2560429836
 30
0.0
  0
INSERT
  5
171
  8
DIM
  2
SW_CENTERMARKSYMBOL_3
 10
215.738596713
 20
225.2560429836
 30
0.0
  0
INSERT
  5
17D
  8
DIM
  2
SW_CENTERMARKSYMBOL_4
 10
197.738596713
 20
225.2560429836
 30
0.0
  0
INSERT
  5
189
  8
DIM
  2
SW_CENTERMARKSYMBOL_5
 10
196.238596713
 20
205.7560429836
 30
0.0
  0
INSERT
  5
195
  8
DIM
  2
SW_CENTERMARKSYMBOL_6
 10
156.238596713
 20
205.7560429836
 30
0.0
  0
INSERT
  5
1CB
  8
DIM
  2
SW_CENTERMARKSYMBOL_7
 10
89.1190505317
 20
216.5060429836
 30
0.0
  0
LINE
  5
1CC
  8
0
  6
CENTERX2
 62
     7
 10
238.458596713
 20
205.7560429836
 30
0.0
 11
60.518596713
 21
205.7560429836
 31
0.0
  0
LINE
  5
1CD
  8
0
  6
CONTINUOUS
 62
     7
 10
236.458596713
 20
193.0560429836
 30
0.0
 11
236.458596713
 21
205.7560429836
 31
0.0
  0
INSERT
  5
1CE
  8
0
  6
CONTINUOUS
 62
     7
  2
_OPEN30
 10
236.458596713
 20
205.7560429836
 30
0.0
 41
3.0
 42
3.0
 50
90.0
  0
LINE
  5
1CF
  8
0
  6
CONTINUOUS
 62
     7
 10
62.518596713
 20
193.0560429836
 30
0.0
 11
62.518596713
 21
205.7560429836
 31
0.0
  0
INSERT
  5
1D0
  8
0
  6
CONTINUOUS
 62
     7
  2
_OPEN30
 10
62.518596713
 20
205.7560429836
 30
0.0
 41
3.0
 42
3.0
 50
90.0
  0
TEXT
  5
1D1
  8
0
  6
CONTINUOUS
 62
     7
 10
237.2720538053
 20
193.623328445
 30
0.0
 40
3.5
  1
A
 41
0.7
 11
237.2720538053
 21
197.123328445
 31
0.0
 73
     3
  0
TEXT
  5
1D2
  8
0
  6
CONTINUOUS
 62
     7
 10
59.67149689
 20
193.623328445
 30
0.0
 40
3.5
  1
A
 41
0.7
 11
59.67149689
 21
197.123328445
 31
0.0
 73
     3
  0
ARC
  5
1D3
  8
0
  6
CONTINUOUS
 62
     7
 10
196.238596713
 20
205.7560429836
 30
0.0
 40
2.000000000000026
 50
75.0
 51
345.0
  0
ARC
  5
1D4
  8
0
  6
CONTINUOUS
 62
     7
 10
156.238596713
 20
205.7560429836
 30
0.0
 40
2.000000000000026
 50
75.0
 51
345.0
  0
LINE
  5
1D5
  8
0
  6
CONTINUOUS
 62
     7
 10
288.681795196
 20
179.1702565459
 30
0.0
 11
288.681795196
 21
176.7560429836
 31
0.0
  0
LINE
  5
1D6
  8
0
  6
CONTINUOUS
 62
     7
 10
288.681795196
 20
176.7560429836
 30
0.0
 11
287.681795196
 21
175.7560429836
 31
0.0
  0
LINE
  5
1D7
  8
0
  6
CONTINUOUS
 62
     7
 10
287.681795196
 20
175.7560429836
 30
0.0
 11
287.681795196
 21
178.7560429836
 31
0.0
  0
LINE
  5
1D8
  8
0
  6
CONTINUOUS
 62
     7
 10
287.681795196
 20
178.7560429836
 30
0.0
 11
288.681795196
 21
179.1702565459
 31
0.0
  0
LINE
  5
1D9
  8
0
  6
CONTINUOUS
 62
     7
 10
281.681795196
 20
232.7560429836
 30
0.0
 11
281.681795196
 21
178.7560429836
 31
0.0
  0
LINE
  5
1DA
  8
0
  6
CONTINUOUS
 62
     7
 10
287.681795196
 20
232.7560429836
 30
0.0
 11
281.681795196
 21
232.7560429836
 31
0.0
  0
LINE
  5
1DB
  8
0
  6
CONTINUOUS
 62
     7
 10
287.681795196
 20
178.7560429836
 30
0.0
 11
287.681795196
 21
232.7560429836
 31
0.0
  0
LINE
  5
1DC
  8
0
  6
CONTINUOUS
 62
     7
 10
281.681795196
 20
178.7560429836
 30
0.0
 11
287.681795196
 21
178.7560429836
 31
0.0
  0
LINE
  5
1DD
  8
0
  6
CONTINUOUS
 62
     7
 10
281.681795196
 20
235.7560429836
 30
0.0
 11
281.681795196
 21
232.7560429836
 31
0.0
  0
LINE
  5
1DE
  8
0
  6
CONTINUOUS
 62
     7
 10
281.681795196
 20
235.7560429836
 30
0.0
 11
287.681795196
 21
235.7560429836
 31
0.0
  0
LINE
  5
1DF
  8
0
  6
CONTINUOUS
 62
     7
 10
287.681795196
 20
232.7560429836
 30
0.0
 11
287.681795196
 21
235.7560429836
 31
0.0
  0
LINE
  5
1E0
  8
0
  6
CONTINUOUS
 62
     7
 10
287.681795196
 20
232.7560429836
 30
0.0
 11
288.681795196
 21
232.3418294212
 31
0.0
  0
LINE
  5
1E1
  8
0
  6
CONTINUOUS
 62
     7
 10
288.681795196
 20
232.3418294212
 30
0.0
 11
288.681795196
 21
179.1702565459
 31
0.0
  0
LINE
  5
1E2
  8
0
  6
CONTINUOUS
 62
     7
 10
287.681795196
 20
235.7560429836
 30
0.0
 11
288.681795196
 21
234.7560429836
 31
0.0
  0
LINE
  5
1E3
  8
0
  6
CONTINUOUS
 62
     7
 10
288.681795196
 20
234.7560429836
 30
0.0
 11
288.681795196
 21
232.3418294212
 31
0.0
  0
LINE
  5
1E4
  8
0
  6
CONTINUOUS
 62
     7
 10
281.681795196
 20
178.7560429836
 30
0.0
 11
281.681795196
 21
175.7560429836
 31
0.0
  0
LINE
  5
1E5
  8
0
  6
CONTINUOUS
 62
     7
 10
287.681795196
 20
175.7560429836
 30
0.0
 11
281.681795196
 21
175.7560429836
 31
0.0
  0
LINE
  5
1E6
  8
0
  6
CONTINUOUS
 62
     7
 10
281.681795196
 20
175.7560429836
 30
0.0
 11
280.681795196
 21
176.7560429836
 31
0.0
  0
LINE
  5
1E7
  8
0
  6
CONTINUOUS
 62
     7
 10
280.681795196
 20
176.7560429836
 30
0.0
 11
280.681795196
 21
179.1702565459
 31
0.0
  0
LINE
  5
1E8
  8
0
  6
CONTINUOUS
 62
     7
 10
280.681795196
 20
179.1702565459
 30
0.0
 11
281.681795196
 21
178.7560429836
 31
0.0
  0
LINE
  5
1E9
  8
0
  6
CONTINUOUS
 62
     7
 10
280.681795196
 20
232.3418294212
 30
0.0
 11
280.681795196
 21
234.7560429836
 31
0.0
  0
LINE
  5
1EA
  8
0
  6
CONTINUOUS
 62
     7
 10
280.681795196
 20
234.7560429836
 30
0.0
 11
281.681795196
 21
235.7560429836
 31
0.0
  0
LINE
  5
1EB
  8
0
  6
CONTINUOUS
 62
     7
 10
280.681795196
 20
232.3418294212
 30
0.0
 11
281.681795196
 21
232.7560429836
 31
0.0
  0
LINE
  5
1EC
  8
0
  6
CONTINUOUS
 62
     7
 10
280.681795196
 20
179.1702565459
 30
0.0
 11
280.681795196
 21
232.3418294212
 31
0.0
  0
DIMENSION
  5
1ED
  8
DIM
  2
_D_11
 10
288.681795196
 20
250.9073357137
 30
0.0
 11
284.681795196
 21
250.9073357137
 31
0.0
 70
   160
  1
<>
  3
SLDDIMSTYLE0
 13
280.681795196
 23
234.7560429836
 33
0.0
 14
288.681795196
 24
234.7560429836
 34
0.0
  0
LINE
  5
1F9
  8
0
  6
CONTINUOUS
 62
     7
 10
160.6398773184
 20
142.9617306055
 30
0.0
 11
157.888596713
 21
140.2104500002
 31
0.0
  0
LINE
  5
1FA
  8
0
  6
CONTINUOUS
 62
     7
 10
165.1300053789
 20
142.9617306055
 30
0.0
 11
157.888596713
 21
135.7203219397
 31
0.0
  0
LINE
  5
1FB
  8
0
  6
CONTINUOUS
 62
     7
 10
169.6201334394
 20
142.9617306055
 30
0.0
 11
161.6201334394
 21
134.9617306055
 31
0.0
  0
LINE
  5
1FC
  8
0
  6
CONTINUOUS
 62
     7
 10
174.1102615
 20
142.9617306055
 30
0.0
 11
166.1102615
 21
134.9617306055
 31
0.0
  0
LINE
  5
1FD
  8
0
  6
CONTINUOUS
 62
     7
 10
178.6003895605
 20
142.9617306055
 30
0.0
 11
170.6003895605
 21
134.9617306055
 31
0.0
  0
LINE
  5
1FE
  8
0
  6
CONTINUOUS
 62
     7
 10
183.090517621
 20
142.9617306055
 30
0.0
 11
175.090517621
 21
134.9617306055
 31
0.0
  0
LINE
  5
1FF
  8
0
  6
CONTINUOUS
 62
     7
 10
187.5806456816
 20
142.9617306055
 30
0.0
 11
179.5806456816
 21
134.9617306055
 31
0.0
  0
LINE
  5
200
  8
0
  6
CONTINUOUS
 62
     7
 10
192.0707737421
 20
142.9617306055
 30
0.0
 11
184.0707737421
 21
134.9617306055
 31
0.0
  0
LINE
  5
201
  8
0
  6
CONTINUOUS
 62
     7
 10
194.588596713
 20
140.9894255159
 30
0.0
 11
188.5609018026
 21
134.9617306055
 31
0.0
  0
LINE
  5
202
  8
0
  6
CONTINUOUS
 62
     7
 10
194.588596713
 20
136.4992974554
 30
0.0
 11
193.0510298632
 21
134.9617306055
 31
0.0
  0
LINE
  5
203
  8
0
  6
CONTINUOUS
 62
     7
 10
151.6596211973
 20
142.9617306055
 30
0.0
 11
148.738596713
 21
140.0407061213
 31
0.0
  0
LINE
  5
204
  8
0
  6
CONTINUOUS
 62
     7
 10
154.588596713
 20
141.4005780607
 30
0.0
 11
148.738596713
 21
135.5505780607
 31
0.0
  0
LINE
  5
205
  8
0
  6
CONTINUOUS
 62
     7
 10
154.588596713
 20
136.9104500002
 30
0.0
 11
152.6398773184
 21
134.9617306055
 31
0.0
  0
LINE
  5
206
  8
0
  6
CONTINUOUS
 62
     7
 10
124.7188528341
 20
142.9617306055
 30
0.0
 11
117.738596713
 21
135.9814744845
 31
0.0
  0
LINE
  5
207
  8
0
  6
CONTINUOUS
 62
     7
 10
129.2089808946
 20
142.9617306055
 30
0.0
 11
121.2089808946
 21
134.9617306055
 31
0.0
  0
LINE
  5
208
  8
0
  6
CONTINUOUS
 62
     7
 10
126.238596713
 20
135.5012183634
 30
0.0
 11
125.6991089552
 21
134.9617306055
 31
0.0
  0
LINE
  5
209
  8
0
  6
CONTINUOUS
 62
     7
 10
133.6991089552
 20
142.9617306055
 30
0.0
 11
129.6991089552
 21
138.9617306055
 31
0.0
  0
LINE
  5
20A
  8
0
  6
CONTINUOUS
 62
     7
 10
138.1892370157
 20
142.9617306055
 30
0.0
 11
132.238596713
 21
137.0110903029
 31
0.0
  0
LINE
  5
20B
  8
0
  6
CONTINUOUS
 62
     7
 10
142.4589808946
 20
142.7413464239
 30
0.0
 11
134.6793650762
 21
134.9617306055
 31
0.0
  0
LINE
  5
20C
  8
0
  6
CONTINUOUS
 62
     7
 10
142.738596713
 20
138.5308341818
 30
0.0
 11
139.1694931368
 21
134.9617306055
 31
0.0
  0
LINE
  5
20D
  8
0
  6
CONTINUOUS
 62
     7
 10
79.8175722287
 20
142.9617306055
 30
0.0
 11
77.738596713
 21
140.8827550898
 31
0.0
  0
LINE
  5
20E
  8
0
  6
CONTINUOUS
 62
     7
 10
84.3077002893
 20
142.9617306055
 30
0.0
 11
77.738596713
 21
136.3926270293
 31
0.0
  0
LINE
  5
20F
  8
0
  6
CONTINUOUS
 62
     7
 10
84.238596713
 20
138.4024989687
 30
0.0
 11
80.7978283498
 21
134.9617306055
 31
0.0
  0
LINE
  5
210
  8
0
  6
CONTINUOUS
 62
     7
 10
88.7978283498
 20
142.9617306055
 30
0.0
 11
84.7978283498
 21
138.9617306055
 31
0.0
  0
LINE
  5
211
  8
0
  6
CONTINUOUS
 62
     7
 10
93.2879564103
 20
142.9617306055
 30
0.0
 11
88.238596713
 21
137.9123709082
 31
0.0
  0
LINE
  5
212
  8
0
  6
CONTINUOUS
 62
     7
 10
96.258340592
 20
141.4419867266
 30
0.0
 11
89.7780844709
 21
134.9617306055
 31
0.0
  0
LINE
  5
213
  8
0
  6
CONTINUOUS
 62
     7
 10
97.738596713
 20
138.4321147871
 30
0.0
 11
94.2682125314
 21
134.9617306055
 31
0.0
  0
LINE
  5
214
  8
0
  6
CONTINUOUS
 62
     7
 10
201.0510298632
 20
142.9617306055
 30
0.0
 11
197.888596713
 21
139.7992974554
 31
0.0
  0
LINE
  5
215
  8
0
  6
CONTINUOUS
 62
     7
 10
205.5411579237
 20
142.9617306055
 30
0.0
 11
197.888596713
 21
135.3091693948
 31
0.0
  0
LINE
  5
216
  8
0
  6
CONTINUOUS
 62
     7
 10
210.0312859842
 20
142.9617306055
 30
0.0
 11
202.0312859842
 21
134.9617306055
 31
0.0
  0
LINE
  5
217
  8
0
  6
CONTINUOUS
 62
     7
 10
214.5214140448
 20
142.9617306055
 30
0.0
 11
206.5214140448
 21
134.9617306055
 31
0.0
  0
LINE
  5
218
  8
0
  6
CONTINUOUS
 62
     7
 10
219.0115421053
 20
142.9617306055
 30
0.0
 11
211.0115421053
 21
134.9617306055
 31
0.0
  0
LINE
  5
219
  8
0
  6
CONTINUOUS
 62
     7
 10
221.238596713
 20
140.6986571527
 30
0.0
 11
215.5016701659
 21
134.9617306055
 31
0.0
  0
LINE
  5
21A
  8
0
  6
CONTINUOUS
 62
     7
 10
221.238596713
 20
136.2085290922
 30
0.0
 11
219.9917982264
 21
134.9617306055
 31
0.0
  0
LINE
  5
21B
  8
0
  6
CONTINUOUS
 62
     7
 10
157.888596713
 20
142.9617306055
 30
0.0
 11
157.888596713
 21
134.9617306055
 31
0.0
  0
LINE
  5
21C
  8
0
  6
CONTINUOUS
 62
     7
 10
194.588596713
 20
142.9617306055
 30
0.0
 11
157.888596713
 21
142.9617306055
 31
0.0
  0
LINE
  5
21D
  8
0
  6
CONTINUOUS
 62
     7
 10
194.588596713
 20
134.9617306055
 30
0.0
 11
194.588596713
 21
142.9617306055
 31
0.0
  0
LINE
  5
21E
  8
0
  6
CONTINUOUS
 62
     7
 10
194.588596713
 20
134.9617306055
 30
0.0
 11
157.888596713
 21
134.9617306055
 31
0.0
  0
LINE
  5
21F
  8
0
  6
CONTINUOUS
 62
     7
 10
88.738596713
 20
134.9617306055
 30
0.0
 11
88.238596713
 21
135.4617306055
 31
0.0
  0
LINE
  5
220
  8
0
  6
CONTINUOUS
 62
     7
 10
88.738596713
 20
134.9617306055
 30
0.0
 11
83.738596713
 21
134.9617306055
 31
0.0
  0
LINE
  5
221
  8
0
  6
CONTINUOUS
 62
     7
 10
84.238596713
 20
135.4617306055
 30
0.0
 11
83.738596713
 21
134.9617306055
 31
0.0
  0
LINE
  5
222
  8
0
  6
CONTINUOUS
 62
     7
 10
84.238596713
 20
135.4617306055
 30
0.0
 11
88.238596713
 21
135.4617306055
 31
0.0
  0
LINE
  5
223
  8
0
  6
CONTINUOUS
 62
     7
 10
197.888596713
 20
134.9617306055
 30
0.0
 11
194.588596713
 21
134.9617306055
 31
0.0
  0
LINE
  5
224
  8
0
  6
CONTINUOUS
 62
     7
 10
197.888596713
 20
142.9617306055
 30
0.0
 11
194.588596713
 21
142.9617306055
 31
0.0
  0
LINE
  5
225
  8
0
  6
CONTINUOUS
 62
     7
 10
197.888596713
 20
142.9617306055
 30
0.0
 11
197.888596713
 21
134.9617306055
 31
0.0
  0
LINE
  5
226
  8
0
  6
CONTINUOUS
 62
     7
 10
130.238596713
 20
135.4617306055
 30
0.0
 11
132.238596713
 21
135.4617306055
 31
0.0
  0
LINE
  5
227
  8
0
  6
CONTINUOUS
 62
     7
 10
132.738596713
 20
134.9617306055
 30
0.0
 11
132.238596713
 21
135.4617306055
 31
0.0
  0
LINE
  5
228
  8
0
  6
CONTINUOUS
 62
     7
 10
132.738596713
 20
134.9617306055
 30
0.0
 11
130.238596713
 21
134.9617306055
 31
0.0
  0
LINE
  5
229
  8
0
  6
CONTINUOUS
 62
     7
 10
146.738596713
 20
135.4617306055
 30
0.0
 11
148.738596713
 21
135.4617306055
 31
0.0
  0
LINE
  5
22A
  8
0
  6
CONTINUOUS
 62
     7
 10
149.238596713
 20
134.9617306055
 30
0.0
 11
148.738596713
 21
135.4617306055
 31
0.0
  0
LINE
  5
22B
  8
0
  6
CONTINUOUS
 62
     7
 10
149.238596713
 20
134.9617306055
 30
0.0
 11
146.738596713
 21
134.9617306055
 31
0.0
  0
LINE
  5
22C
  8
0
  6
CONTINUOUS
 62
     7
 10
148.738596713
 20
142.4617306055
 30
0.0
 11
148.738596713
 21
135.4617306055
 31
0.0
  0
LINE
  5
22D
  8
0
  6
CONTINUOUS
 62
     7
 10
148.738596713
 20
142.4617306055
 30
0.0
 11
149.238596713
 21
142.9617306055
 31
0.0
  0
LINE
  5
22E
  8
0
  6
CONTINUOUS
 62
     7
 10
154.588596713
 20
142.9617306055
 30
0.0
 11
149.238596713
 21
142.9617306055
 31
0.0
  0
LINE
  5
22F
  8
0
  6
CONTINUOUS
 62
     7
 10
154.588596713
 20
134.9617306055
 30
0.0
 11
154.588596713
 21
142.9617306055
 31
0.0
  0
LINE
  5
230
  8
0
  6
CONTINUOUS
 62
     7
 10
154.588596713
 20
134.9617306055
 30
0.0
 11
149.238596713
 21
134.9617306055
 31
0.0
  0
LINE
  5
231
  8
0
  6
CONTINUOUS
 62
     7
 10
128.238596713
 20
134.9617306055
 30
0.0
 11
125.738596713
 21
134.9617306055
 31
0.0
  0
LINE
  5
232
  8
0
  6
CONTINUOUS
 62
     7
 10
126.238596713
 20
135.4617306055
 30
0.0
 11
125.738596713
 21
134.9617306055
 31
0.0
  0
LINE
  5
233
  8
0
  6
CONTINUOUS
 62
     7
 10
126.238596713
 20
135.4617306055
 30
0.0
 11
128.238596713
 21
135.4617306055
 31
0.0
  0
LINE
  5
234
  8
0
  6
CONTINUOUS
 62
     7
 10
78.738596713
 20
134.9617306055
 30
0.0
 11
77.738596713
 21
135.9617306055
 31
0.0
  0
LINE
  5
235
  8
0
  6
CONTINUOUS
 62
     7
 10
77.738596713
 20
135.9617306055
 30
0.0
 11
77.738596713
 21
141.9617306055
 31
0.0
  0
LINE
  5
236
  8
0
  6
CONTINUOUS
 62
     7
 10
77.738596713
 20
141.9617306055
 30
0.0
 11
78.738596713
 21
142.9617306055
 31
0.0
  0
LINE
  5
237
  8
0
  6
CONTINUOUS
 62
     7
 10
94.738596713
 20
142.9617306055
 30
0.0
 11
78.738596713
 21
142.9617306055
 31
0.0
  0
LINE
  5
238
  8
0
  6
CONTINUOUS
 62
     7
 10
94.738596713
 20
142.9617306055
 30
0.0
 11
97.738596713
 21
139.9617306055
 31
0.0
  0
LINE
  5
239
  8
0
  6
CONTINUOUS
 62
     7
 10
97.738596713
 20
135.4617306055
 30
0.0
 11
97.738596713
 21
139.9617306055
 31
0.0
  0
LINE
  5
23A
  8
0
  6
CONTINUOUS
 62
     7
 10
97.738596713
 20
135.4617306055
 30
0.0
 11
97.238596713
 21
134.9617306055
 31
0.0
  0
LINE
  5
23B
  8
0
  6
CONTINUOUS
 62
     7
 10
97.238596713
 20
134.9617306055
 30
0.0
 11
88.738596713
 21
134.9617306055
 31
0.0
  0
LINE
  5
23C
  8
0
  6
CONTINUOUS
 62
     7
 10
88.238596713
 20
138.9617306055
 30
0.0
 11
88.238596713
 21
135.4617306055
 31
0.0
  0
LINE
  5
23D
  8
0
  6
CONTINUOUS
 62
     7
 10
88.238596713
 20
138.9617306055
 30
0.0
 11
84.238596713
 21
138.9617306055
 31
0.0
  0
LINE
  5
23E
  8
0
  6
CONTINUOUS
 62
     7
 10
84.238596713
 20
135.4617306055
 30
0.0
 11
84.238596713
 21
138.9617306055
 31
0.0
  0
LINE
  5
23F
  8
0
  6
CONTINUOUS
 62
     7
 10
83.738596713
 20
134.9617306055
 30
0.0
 11
78.738596713
 21
134.9617306055
 31
0.0
  0
LINE
  5
240
  8
0
  6
CONTINUOUS
 62
     7
 10
220.238596713
 20
142.9617306055
 30
0.0
 11
197.888596713
 21
142.9617306055
 31
0.0
  0
LINE
  5
241
  8
0
  6
CONTINUOUS
 62
     7
 10
220.238596713
 20
142.9617306055
 30
0.0
 11
221.238596713
 21
141.9617306055
 31
0.0
  0
LINE
  5
242
  8
0
  6
CONTINUOUS
 62
     7
 10
221.238596713
 20
141.9617306055
 30
0.0
 11
221.238596713
 21
135.9617306055
 31
0.0
  0
LINE
  5
243
  8
0
  6
CONTINUOUS
 62
     7
 10
220.238596713
 20
134.9617306055
 30
0.0
 11
197.888596713
 21
134.9617306055
 31
0.0
  0
LINE
  5
244
  8
0
  6
CONTINUOUS
 62
     7
 10
221.238596713
 20
135.9617306055
 30
0.0
 11
220.238596713
 21
134.9617306055
 31
0.0
  0
LINE
  5
245
  8
0
  6
CONTINUOUS
 62
     7
 10
157.888596713
 20
134.9617306055
 30
0.0
 11
154.588596713
 21
134.9617306055
 31
0.0
  0
LINE
  5
246
  8
0
  6
CONTINUOUS
 62
     7
 10
157.888596713
 20
142.9617306055
 30
0.0
 11
154.588596713
 21
142.9617306055
 31
0.0
  0
LINE
  5
247
  8
0
  6
CONTINUOUS
 62
     7
 10
118.238596713
 20
134.9617306055
 30
0.0
 11
117.738596713
 21
135.4617306055
 31
0.0
  0
LINE
  5
248
  8
0
  6
CONTINUOUS
 62
     7
 10
118.238596713
 20
134.9617306055
 30
0.0
 11
97.238596713
 21
134.9617306055
 31
0.0
  0
LINE
  5
249
  8
0
  6
CONTINUOUS
 62
     7
 10
97.738596713
 20
135.4617306055
 30
0.0
 11
117.738596713
 21
135.4617306055
 31
0.0
  0
LINE
  5
24A
  8
0
  6
CONTINUOUS
 62
     7
 10
117.738596713
 20
139.9617306055
 30
0.0
 11
117.738596713
 21
135.4617306055
 31
0.0
  0
LINE
  5
24B
  8
0
  6
CONTINUOUS
 62
     7
 10
117.738596713
 20
139.9617306055
 30
0.0
 11
120.738596713
 21
142.9617306055
 31
0.0
  0
LINE
  5
24C
  8
0
  6
CONTINUOUS
 62
     7
 10
142.238596713
 20
142.9617306055
 30
0.0
 11
120.738596713
 21
142.9617306055
 31
0.0
  0
LINE
  5
24D
  8
0
  6
CONTINUOUS
 62
     7
 10
142.238596713
 20
142.9617306055
 30
0.0
 11
142.738596713
 21
142.4617306055
 31
0.0
  0
LINE
  5
24E
  8
0
  6
CONTINUOUS
 62
     7
 10
142.738596713
 20
135.4617306055
 30
0.0
 11
142.738596713
 21
142.4617306055
 31
0.0
  0
LINE
  5
24F
  8
0
  6
CONTINUOUS
 62
     7
 10
142.738596713
 20
135.4617306055
 30
0.0
 11
142.238596713
 21
134.9617306055
 31
0.0
  0
LINE
  5
250
  8
0
  6
CONTINUOUS
 62
     7
 10
132.238596713
 20
138.9617306055
 30
0.0
 11
132.238596713
 21
135.4617306055
 31
0.0
  0
LINE
  5
251
  8
0
  6
CONTINUOUS
 62
     7
 10
132.238596713
 20
138.9617306055
 30
0.0
 11
126.238596713
 21
138.9617306055
 31
0.0
  0
LINE
  5
252
  8
0
  6
CONTINUOUS
 62
     7
 10
126.238596713
 20
135.4617306055
 30
0.0
 11
126.238596713
 21
138.9617306055
 31
0.0
  0
LINE
  5
253
  8
0
  6
CONTINUOUS
 62
     7
 10
125.738596713
 20
134.9617306055
 30
0.0
 11
118.238596713
 21
134.9617306055
 31
0.0
  0
LINE
  5
254
  8
0
  6
CONTINUOUS
 62
     7
 10
142.238596713
 20
134.9617306055
 30
0.0
 11
132.738596713
 21
134.9617306055
 31
0.0
  0
LINE
  5
255
  8
0
  6
CONTINUOUS
 62
     7
 10
142.738596713
 20
135.4617306055
 30
0.0
 11
144.738596713
 21
135.4617306055
 31
0.0
  0
LINE
  5
256
  8
0
  6
CONTINUOUS
 62
     7
 10
144.738596713
 20
134.9617306055
 30
0.0
 11
142.238596713
 21
134.9617306055
 31
0.0
  0
LINE
  5
257
  8
0
  6
CONTINUOUS
 62
     7
 10
117.738596713
 20
139.9617306055
 30
0.0
 11
97.738596713
 21
139.9617306055
 31
0.0
  0
LINE
  5
258
  8
0
  6
CONTINUOUS
 62
     7
 10
144.738596713
 20
142.4617306055
 30
0.0
 11
142.738596713
 21
142.4617306055
 31
0.0
  0
LINE
  5
259
  8
0
  6
CONTINUOUS
 62
     7
 10
148.738596713
 20
142.4617306055
 30
0.0
 11
146.738596713
 21
142.4617306055
 31
0.0
  0
LINE
  5
25A
  8
0
  6
CONTINUOUS
 62
     7
 10
94.738596713
 20
142.9617306055
 30
0.0
 11
120.738596713
 21
142.9617306055
 31
0.0
  0
LINE
  5
25B
  8
0
  6
CONTINUOUS
 62
     7
 10
146.738596713
 20
142.9617306055
 30
0.0
 11
149.238596713
 21
142.9617306055
 31
0.0
  0
LINE
  5
25C
  8
0
  6
CONTINUOUS
 62
     7
 10
142.238596713
 20
142.9617306055
 30
0.0
 11
144.738596713
 21
142.9617306055
 31
0.0
  0
LINE
  5
25D
  8
0
  6
CONTINUOUS
 62
     7
 10
128.238596713
 20
135.4617306055
 30
0.0
 11
130.238596713
 21
135.4617306055
 31
0.0
  0
LINE
  5
25E
  8
0
  6
CONTINUOUS
 62
     7
 10
130.238596713
 20
134.9617306055
 30
0.0
 11
128.238596713
 21
134.9617306055
 31
0.0
  0
LINE
  5
25F
  8
0
  6
CONTINUOUS
 62
     7
 10
144.738596713
 20
135.4617306055
 30
0.0
 11
146.738596713
 21
135.4617306055
 31
0.0
  0
LINE
  5
260
  8
0
  6
CONTINUOUS
 62
     7
 10
146.738596713
 20
134.9617306055
 30
0.0
 11
144.738596713
 21
134.9617306055
 31
0.0
  0
LINE
  5
261
  8
0
  6
CONTINUOUS
 62
     7
 10
146.738596713
 20
142.4617306055
 30
0.0
 11
144.738596713
 21
142.4617306055
 31
0.0
  0
LINE
  5
262
  8
0
  6
CONTINUOUS
 62
     7
 10
144.738596713
 20
142.9617306055
 30
0.0
 11
146.738596713
 21
142.9617306055
 31
0.0
  0
DIMENSION
  5
263
  8
DIM
  2
_D_12
 10
88.238596713
 20
120.9824925896
 30
0.0
 11
67.738596713
 21
120.9824925896
 31
0.0
 70
   160
  1
%%c<>H8
  3
SLDDIMSTYLE3
 13
84.238596713
 23
135.4617306055
 33
0.0
 14
88.238596713
 24
135.4617306055
 34
0.0
  0
DIMENSION
  5
277
  8
DIM
  2
_D_13
 10
122.5721236994
 20
138.9617306055
 30
0.0
 11
122.5721236994
 21
128.2808848226
 31
0.0
 70
   160
  1
<>
  3
SLDDIMSTYLE0
 13
125.738596713
 23
134.9617306055
 33
0.0
 14
126.238596713
 24
138.9617306055
 34
0.0
 50
90.0
  0
DIMENSION
  5
282
  8
DIM
  2
_D_14
 10
57.738596713
 20
138.9617306055
 30
0.0
 11
57.738596713
 21
136.9617306055
 31
0.0
 70
   160
  1
<>
  3
SLDDIMSTYLE0
 13
78.738596713
 23
134.9617306055
 33
0.0
 14
84.238596713
 24
138.9617306055
 34
0.0
 50
90.0
  0
TEXT
  5
28E
  8
0
  6
CONTINUOUS
 62
     7
 10
146.4333883504
 20
152.2995298273
 30
0.0
 40
3.5
  1
A-A
 41
0.7
 11
146.4333883504
 21
151.0631196106
 31
0.0
 73
     1
  0
LINE
  5
28F
  8
0
  6
CONTINUOUS
 62
     7
 10
198.238596713
 20
142.9617306055
 30
0.0
 11
198.238596713
 21
134.9617306055
 31
0.0
  0
LINE
  5
290
  8
0
  6
CONTINUOUS
 62
     7
 10
194.238596713
 20
142.9617306055
 30
0.0
 11
194.238596713
 21
134.9617306055
 31
0.0
  0
LINE
  5
291
  8
0
  6
CONTINUOUS
 62
     7
 10
158.238596713
 20
142.9617306055
 30
0.0
 11
158.238596713
 21
134.9617306055
 31
0.0
  0
LINE
  5
292
  8
0
  6
CONTINUOUS
 62
     7
 10
154.238596713
 20
142.9617306055
 30
0.0
 11
154.238596713
 21
134.9617306055
 31
0.0
  0
LINE
  5
293
  8
DIM
  6
CENTERX2
 10
86.238596713
 20
143.9617306055
 30
0.0
 11
86.238596713
 21
130.4617306055
 31
0.0
  0
LINE
  5
294
  8
DIM
  6
CENTERX2
 10
129.238596713
 20
143.9617306055
 30
0.0
 11
129.238596713
 21
130.4617306055
 31
0.0
  0
CIRCLE
  5
295
  8
0
  6
CONTINUOUS
 62
     7
 10
107.738596713
 20
93.1393915544
 30
0.0
 40
1.699999999999989
  0
CIRCLE
  5
296
  8
0
  6
CONTINUOUS
 62
     7
 10
89.1190505317
 20
82.3893915544
 30
0.0
 40
1.700000000000003
  0
CIRCLE
  5
297
  8
0
  6
CONTINUOUS
 62
     7
 10
89.1190505317
 20
60.8893915544
 30
0.0
 40
1.700000000000003
  0
CIRCLE
  5
298
  8
0
  6
CONTINUOUS
 62
     7
 10
197.738596713
 20
52.1393915544
 30
0.0
 40
2.250000000000028
  0
CIRCLE
  5
299
  8
0
  6
CONTINUOUS
 62
     7
 10
215.738596713
 20
52.1393915544
 30
0.0
 40
2.249999999999972
  0
CIRCLE
  5
29A
  8
0
  6
CONTINUOUS
 62
     7
 10
197.738596713
 20
91.1393915544
 30
0.0
 40
2.250000000000028
  0
CIRCLE
  5
29B
  8
0
  6
CONTINUOUS
 62
     7
 10
215.738596713
 20
91.1393915544
 30
0.0
 40
2.249999999999972
  0
CIRCLE
  5
29C
  8
0
  6
CONTINUOUS
 62
     7
 10
126.3581428944
 20
82.3893915544
 30
0.0
 40
1.699999999999989
  0
CIRCLE
  5
29D
  8
0
  6
CONTINUOUS
 62
     7
 10
126.3581428944
 20
60.8893915544
 30
0.0
 40
1.700000000000003
  0
CIRCLE
  5
29E
  8
0
  6
CONTINUOUS
 62
     7
 10
107.738596713
 20
50.1393915544
 30
0.0
 40
1.699999999999989
  0
CIRCLE
  5
29F
  8
0
  6
CONTINUOUS
 62
     7
 10
196.238596713
 20
71.6393915544
 30
0.0
 40
1.650000000000006
  0
CIRCLE
  5
2A0
  8
0
  6
CONTINUOUS
 62
     7
 10
156.238596713
 20
71.6393915544
 30
0.0
 40
1.650000000000006
  0
LINE
  5
2A1
  8
0
  6
CONTINUOUS
 62
     7
 10
217.8243831506
 20
100.6393915544
 30
0.0
 11
107.738596713
 21
100.6393915544
 31
0.0
  0
LINE
  5
2A2
  8
0
  6
CONTINUOUS
 62
     7
 10
220.238596713
 20
98.2251779921
 30
0.0
 11
217.8243831506
 21
100.6393915544
 31
0.0
  0
LINE
  5
2A3
  8
0
  6
CONTINUOUS
 62
     7
 10
220.238596713
 20
45.0536051168
 30
0.0
 11
220.238596713
 21
98.2251779921
 31
0.0
  0
LINE
  5
2A4
  8
0
  6
CONTINUOUS
 62
     7
 10
217.8243831506
 20
42.6393915544
 30
0.0
 11
220.238596713
 21
45.0536051168
 31
0.0
  0
LINE
  5
2A5
  8
0
  6
CONTINUOUS
 62
     7
 10
107.738596713
 20
42.6393915544
 30
0.0
 11
217.8243831506
 21
42.6393915544
 31
0.0
  0
ARC
  5
2A6
  8
0
  6
CONTINUOUS
 62
     7
 10
107.738596713
 20
71.6393915544
 30
0.0
 40
28.99999999999999
 50
90.0
 51
270.0
  0
LINE
  5
2A7
  8
0
  6
CONTINUOUS
 62
     7
 10
146.738596713
 20
69.1393915544
 30
0.0
 11
144.738596713
 21
69.1393915544
 31
0.0
  0
ARC
  5
2A8
  8
0
  6
CONTINUOUS
 62
     7
 10
146.738596713
 20
71.6393915544
 30
0.0
 40
2.499999999999986
 50
270.0
 51
90.0
  0
LINE
  5
2A9
  8
0
  6
CONTINUOUS
 62
     7
 10
144.738596713
 20
74.1393915544
 30
0.0
 11
146.738596713
 21
74.1393915544
 31
0.0
  0
ARC
  5
2AA
  8
0
  6
CONTINUOUS
 62
     7
 10
144.738596713
 20
71.6393915544
 30
0.0
 40
2.499999999999986
 50
90.0
 51
270.0
  0
CIRCLE
  5
2AB
  8
0
  6
CONTINUOUS
 62
     7
 10
206.738596713
 20
91.1393915544
 30
0.0
 40
1.999999999999972
  0
CIRCLE
  5
2AC
  8
0
  6
CONTINUOUS
 62
     7
 10
206.738596713
 20
52.1393915544
 30
0.0
 40
1.999999999999972
  0
CIRCLE
  5
2AD
  8
0
  6
CONTINUOUS
 62
     7
 10
107.738596713
 20
71.6393915544
 30
0.0
 40
10.5
  0
LINE
  5
2AE
  8
0
  6
CONTINUOUS
 62
     7
 10
130.238596713
 20
69.1393915544
 30
0.0
 11
128.238596713
 21
69.1393915544
 31
0.0
  0
ARC
  5
2AF
  8
0
  6
CONTINUOUS
 62
     7
 10
130.238596713
 20
71.6393915544
 30
0.0
 40
2.499999999999986
 50
270.0
 51
90.0
  0
LINE
  5
2B0
  8
0
  6
CONTINUOUS
 62
     7
 10
128.238596713
 20
74.1393915544
 30
0.0
 11
130.238596713
 21
74.1393915544
 31
0.0
  0
ARC
  5
2B1
  8
0
  6
CONTINUOUS
 62
     7
 10
128.238596713
 20
71.6393915544
 30
0.0
 40
2.499999999999986
 50
90.0
 51
270.0
  0
CIRCLE
  5
2B2
  8
0
  6
CONTINUOUS
 62
     7
 10
86.238596713
 20
71.6393915544
 30
0.0
 40
2.5
  0
CIRCLE
  5
2B3
  8
0
  6
CONTINUOUS
 62
     7
 10
206.738596713
 20
52.1393915544
 30
0.0
 40
1.5
  0
LINE
  5
2B4
  8
0
  6
CONTINUOUS
 62
     7
 10
217.8243831506
 20
100.6393915544
 30
0.0
 11
218.238596713
 21
101.6393915544
 31
0.0
  0
LINE
  5
2B5
  8
0
  6
CONTINUOUS
 62
     7
 10
218.238596713
 20
101.6393915544
 30
0.0
 11
221.238596713
 21
98.6393915544
 31
0.0
  0
LINE
  5
2B6
  8
0
  6
CONTINUOUS
 62
     7
 10
221.238596713
 20
98.6393915544
 30
0.0
 11
220.238596713
 21
98.2251779921
 31
0.0
  0
CIRCLE
  5
2B7
  8
0
  6
CONTINUOUS
 62
     7
 10
86.238596713
 20
71.6393915544
 30
0.0
 40
2.0
  0
ARC
  5
2B8
  8
0
  6
CONTINUOUS
 62
     7
 10
130.238596713
 20
71.6393915544
 30
0.0
 40
2.0
 50
270.0
 51
90.0
  0
ARC
  5
2B9
  8
0
  6
CONTINUOUS
 62
     7
 10
128.238596713
 20
71.6393915544
 30
0.0
 40
2.0
 50
90.0
 51
270.0
  0
CIRCLE
  5
2BA
  8
0
  6
CONTINUOUS
 62
     7
 10
107.738596713
 20
71.6393915544
 30
0.0
 40
10.0
  0
LINE
  5
2BB
  8
0
  6
CONTINUOUS
 62
     7
 10
130.238596713
 20
73.6393915544
 30
0.0
 11
128.238596713
 21
73.6393915544
 31
0.0
  0
ARC
  5
2BC
  8
0
  6
CONTINUOUS
 62
     7
 10
107.738596713
 20
71.6393915544
 30
0.0
 40
30.0
 50
90.0
 51
270.0
  0
LINE
  5
2BD
  8
0
  6
CONTINUOUS
 62
     7
 10
144.738596713
 20
69.6393915544
 30
0.0
 11
146.738596713
 21
69.6393915544
 31
0.0
  0
CIRCLE
  5
2BE
  8
0
  6
CONTINUOUS
 62
     7
 10
206.738596713
 20
91.1393915544
 30
0.0
 40
1.5
  0
LINE
  5
2BF
  8
0
  6
CONTINUOUS
 62
     7
 10
221.238596713
 20
98.6393915544
 30
0.0
 11
221.238596713
 21
44.6393915544
 31
0.0
  0
LINE
  5
2C0
  8
0
  6
CONTINUOUS
 62
     7
 10
221.238596713
 20
44.6393915544
 30
0.0
 11
220.238596713
 21
45.0536051168
 31
0.0
  0
LINE
  5
2C1
  8
0
  6
CONTINUOUS
 62
     7
 10
218.238596713
 20
41.6393915544
 30
0.0
 11
217.8243831506
 21
42.6393915544
 31
0.0
  0
LINE
  5
2C2
  8
0
  6
CONTINUOUS
 62
     7
 10
218.238596713
 20
41.6393915544
 30
0.0
 11
107.738596713
 21
41.6393915544
 31
0.0
  0
ARC
  5
2C3
  8
0
  6
CONTINUOUS
 62
     7
 10
144.738596713
 20
71.6393915544
 30
0.0
 40
2.0
 50
90.0
 51
270.0
  0
LINE
  5
2C4
  8
0
  6
CONTINUOUS
 62
     7
 10
146.738596713
 20
73.6393915544
 30
0.0
 11
144.738596713
 21
73.6393915544
 31
0.0
  0
LINE
  5
2C5
  8
0
  6
CONTINUOUS
 62
     7
 10
221.238596713
 20
44.6393915544
 30
0.0
 11
218.238596713
 21
41.6393915544
 31
0.0
  0
ARC
  5
2C6
  8
0
  6
CONTINUOUS
 62
     7
 10
146.738596713
 20
71.6393915544
 30
0.0
 40
2.0
 50
270.0
 51
90.0
  0
LINE
  5
2C7
  8
0
  6
CONTINUOUS
 62
     7
 10
128.238596713
 20
69.6393915544
 30
0.0
 11
130.238596713
 21
69.6393915544
 31
0.0
  0
LINE
  5
2C8
  8
0
  6
CONTINUOUS
 62
     7
 10
107.738596713
 20
101.6393915544
 30
0.0
 11
218.238596713
 21
101.6393915544
 31
0.0
  0
LINE
  5
2C9
  8
0
  6
CENTERX2
 62
     7
 10
129.238596713
 20
77.707315842
 30
0.0
 11
129.238596713
 21
65.5340468712
 31
0.0
  0
POINT
  5
2CA
  8
0
  6
CONTINUOUS
 62
     7
 10
126.238596713
 20
71.6393915544
 30
0.0
  0
POINT
  5
2CB
  8
0
  6
CONTINUOUS
 62
     7
 10
132.238596713
 20
71.6393915544
 30
0.0
  0
DIMENSION
  5
2CC
  8
DIM
  2
_D_15
 10
132.238596713
 20
104.5632975962
 30
0.0
 11
120.2721926351
 21
104.5632975962
 31
0.0
 70
   160
  1
<>
  3
SLDDIMSTYLE0
 13
126.238596713
 23
71.6393915544
 33
0.0
 14
132.238596713
 24
71.6393915544
 34
0.0
  0
DIMENSION
  5
2D8
  8
DIM
  2
_D_16
 10
129.238596713
 20
113.6144811133
 30
0.0
 11
107.738596713
 21
113.6144811133
 31
0.0
 70
   160
  1
<>
  3
SLDDIMSTYLE1
 13
86.238596713
 23
78.6393915544
 33
0.0
 14
129.238596713
 24
77.707315842
 34
0.0
  0
DIMENSION
  5
2E2
  8
DIM
  2
_D_17
 10
140.4138049983
 20
69.6393915544
 30
0.0
 11
140.4138049983
 21
117.4634152916
 31
0.0
 70
   160
  1
<>H8
  3
SLDDIMSTYLE3
 13
130.238596713
 23
73.6393915544
 33
0.0
 14
130.238596713
 24
69.6393915544
 34
0.0
 50
90.0
  0
DIMENSION
  5
2F5
  8
DIM
  2
_D_18
 10
241.0077446207
 20
52.1393915544
 30
0.0
 11
241.0077446207
 21
71.6393915544
 31
0.0
 70
   160
  1
<>
  3
SLDDIMSTYLE1
 13
222.988596713
 23
91.1393915544
 33
0.0
 14
222.988596713
 24
52.1393915544
 34
0.0
 50
90.0
  0
DIMENSION
  5
2FF
  8
DIM
  2
_D_19
 10
221.238596713
 20
29.1598577325
 30
0.0
 11
213.988596713
 21
29.1598577325
 31
0.0
 70
   160
  1
<>
  3
SLDDIMSTYLE1
 13
206.738596713
 23
45.6393915544
 33
0.0
 14
221.238596713
 24
44.6393915544
 34
0.0
  0
DIMENSION
  5
309
  8
DIM
  2
_D_20
 10
215.738596713
 20
108.141525627
 30
0.0
 11
211.238596713
 21
108.141525627
 31
0.0
 70
   160
  1
<>
  3
SLDDIMSTYLE1
 13
206.738596713
 23
97.6393915544
 33
0.0
 14
215.738596713
 24
98.3893915544
 34
0.0
  0
DIMENSION
  5
313
  8
DIM
  2
_D_21
 10
215.738596713
 20
115.9314983508
 30
0.0
 11
206.738596713
 21
115.9314983508
 31
0.0
 70
   160
  1
<>
  3
SLDDIMSTYLE1
 13
197.738596713
 23
98.3893915544
 33
0.0
 14
215.738596713
 24
98.3893915544
 34
0.0
  0
INSERT
  5
328
  8
DIM
  2
SW_CENTERMARKSYMBOL_8
 10
107.738596713
 20
71.6393915544
 30
0.0
  0
INSERT
  5
334
  8
DIM
  2
SW_CENTERMARKSYMBOL_9
 10
215.738596713
 20
91.1393915544
 30
0.0
  0
INSERT
  5
340
  8
DIM
  2
SW_CENTERMARKSYMBOL_10
 10
197.738596713
 20
91.1393915544
 30
0.0
  0
INSERT
  5
34C
  8
DIM
  2
SW_CENTERMARKSYMBOL_11
 10
215.738596713
 20
52.1393915544
 30
0.0
  0
INSERT
  5
358
  8
DIM
  2
SW_CENTERMARKSYMBOL_12
 10
197.738596713
 20
52.1393915544
 30
0.0
  0
INSERT
  5
364
  8
DIM
  2
SW_CENTERMARKSYMBOL_13
 10
206.738596713
 20
52.1393915544
 30
0.0
  0
INSERT
  5
370
  8
DIM
  2
SW_CENTERMARKSYMBOL_14
 10
206.738596713
 20
91.1393915544
 30
0.0
  0
INSERT
  5
37C
  8
DIM
  2
SW_CENTERMARKSYMBOL_15
 10
196.238596713
 20
71.6393915544
 30
0.0
  0
INSERT
  5
388
  8
DIM
  2
SW_CENTERMARKSYMBOL_16
 10
156.238596713
 20
71.6393915544
 30
0.0
  0
INSERT
  5
394
  8
DIM
  2
SW_CENTERMARKSYMBOL_17
 10
86.238596713
 20
71.6393915544
 30
0.0
  0
LINE
  5
395
  8
0
  6
CENTERX2
 62
     7
 10
227.2905277565
 20
91.1393915544
 30
0.0
 11
184.8449014219
 21
91.1393915544
 31
0.0
  0
LINE
  5
396
  8
0
  6
CONTINUOUS
 62
     7
 10
225.2905277565
 20
103.8393915544
 30
0.0
 11
225.2905277565
 21
91.1393915544
 31
0.0
  0
INSERT
  5
397
  8
0
  6
CONTINUOUS
 62
     7
  2
_OPEN30
 10
225.2905277565
 20
91.1393915544
 30
0.0
 41
3.0
 42
3.0
 50
270.0
  0
LINE
  5
398
  8
0
  6
CONTINUOUS
 62
     7
 10
186.8449014219
 20
103.8393915544
 30
0.0
 11
186.8449014219
 21
91.1393915544
 31
0.0
  0
INSERT
  5
399
  8
0
  6
CONTINUOUS
 62
     7
  2
_OPEN30
 10
186.8449014219
 20
91.1393915544
 30
0.0
 41
3.0
 42
3.0
 50
270.0
  0
TEXT
  5
39A
  8
0
  6
CONTINUOUS
 62
     7
 10
226.7921012439
 20
102.7969501087
 30
0.0
 40
3.5
  1
B
 41
0.7
 11
226.7921012439
 21
106.2969501087
 31
0.0
 73
     3
  0
TEXT
  5
39B
  8
0
  6
CONTINUOUS
 62
     7
 10
183.3048323382
 20
103.4577532274
 30
0.0
 40
3.5
  1
B
 41
0.7
 11
183.3048323382
 21
106.9577532274
 31
0.0
 73
     3
  0
ARC
  5
39C
  8
0
  6
CONTINUOUS
 62
     7
 10
196.238596713
 20
71.6393915544
 30
0.0
 40
2.000000000000022
 50
75.0
 51
345.0
  0
ARC
  5
39D
  8
0
  6
CONTINUOUS
 62
     7
 10
156.238596713
 20
71.6393915544
 30
0.0
 40
2.000000000000022
 50
75.0
 51
345.0
  0
LINE
  5
39E
  8
0
  6
CONTINUOUS
 62
     7
 10
274.044206503
 20
110.1722798216
 30
0.0
 11
273.7916452923
 21
109.9197186109
 31
0.0
  0
LINE
  5
39F
  8
0
  6
CONTINUOUS
 62
     7
 10
279.344206503
 20
115.4722798216
 30
0.0
 11
275.5416452923
 21
111.6697186109
 31
0.0
  0
LINE
  5
3A0
  8
0
  6
CONTINUOUS
 62
     7
 10
283.8343345635
 20
115.4722798216
 30
0.0
 11
275.8343345635
 21
107.4722798216
 31
0.0
  0
LINE
  5
3A1
  8
0
  6
CONTINUOUS
 62
     7
 10
285.5416452923
 20
112.6894624898
 30
0.0
 11
282.0416452923
 21
109.1894624898
 31
0.0
  0
LINE
  5
3A2
  8
0
  6
CONTINUOUS
 62
     7
 10
287.2916452923
 20
109.9493344293
 30
0.0
 11
284.8145906846
 21
107.4722798216
 31
0.0
  0
LINE
  5
3A3
  8
0
  6
CONTINUOUS
 62
     7
 10
261.3836942609
 20
115.4722798216
 30
0.0
 11
258.6479500012
 21
112.7365355619
 31
0.0
  0
LINE
  5
3A4
  8
0
  6
CONTINUOUS
 62
     7
 10
265.8738223214
 20
115.4722798216
 30
0.0
 11
258.6479500012
 21
108.2464075014
 31
0.0
  0
LINE
  5
3A5
  8
0
  6
CONTINUOUS
 62
     7
 10
267.5416452923
 20
112.649974732
 30
0.0
 11
262.3639503819
 21
107.4722798216
 31
0.0
  0
LINE
  5
3A6
  8
0
  6
CONTINUOUS
 62
     7
 10
269.2916452923
 20
109.9098466714
 30
0.0
 11
266.8540784425
 21
107.4722798216
 31
0.0
  0
LINE
  5
3A7
  8
0
  6
CONTINUOUS
 62
     7
 10
292.0047187452
 20
110.1722798216
 30
0.0
 11
291.7916452923
 21
109.9592063688
 31
0.0
  0
LINE
  5
3A8
  8
0
  6
CONTINUOUS
 62
     7
 10
295.0416452923
 20
113.2092063688
 30
0.0
 11
293.5416452923
 21
111.7092063688
 31
0.0
  0
LINE
  5
3A9
  8
0
  6
CONTINUOUS
 62
     7
 10
295.0416452923
 20
108.7190783082
 30
0.0
 11
293.7948468057
 21
107.4722798216
 31
0.0
  0
LINE
  5
3AA
  8
0
  6
CONTINUOUS
 62
     7
 10
291.7916452923
 20
110.1722798216
 30
0.0
 11
291.7916452923
 21
107.4722798216
 31
0.0
  0
LINE
  5
3AB
  8
0
  6
CONTINUOUS
 62
     7
 10
293.5416452923
 20
110.1722798216
 30
0.0
 11
291.7916452923
 21
110.1722798216
 31
0.0
  0
LINE
  5
3AC
  8
0
  6
CONTINUOUS
 62
     7
 10
293.5416452923
 20
115.4722798216
 30
0.0
 11
293.5416452923
 21
110.1722798216
 31
0.0
  0
LINE
  5
3AD
  8
0
  6
CONTINUOUS
 62
     7
 10
294.0416452923
 20
115.4722798216
 30
0.0
 11
293.5416452923
 21
115.4722798216
 31
0.0
  0
LINE
  5
3AE
  8
0
  6
CONTINUOUS
 62
     7
 10
294.0416452923
 20
115.4722798216
 30
0.0
 11
295.0416452923
 21
114.4722798216
 31
0.0
  0
LINE
  5
3AF
  8
0
  6
CONTINUOUS
 62
     7
 10
295.0416452923
 20
114.4722798216
 30
0.0
 11
295.0416452923
 21
108.4722798216
 31
0.0
  0
LINE
  5
3B0
  8
0
  6
CONTINUOUS
 62
     7
 10
295.0416452923
 20
108.4722798216
 30
0.0
 11
294.0416452923
 21
107.4722798216
 31
0.0
  0
LINE
  5
3B1
  8
0
  6
CONTINUOUS
 62
     7
 10
294.0416452923
 20
107.4722798216
 30
0.0
 11
291.7916452923
 21
107.4722798216
 31
0.0
  0
LINE
  5
3B2
  8
0
  6
CONTINUOUS
 62
     7
 10
267.5416452923
 20
110.1722798216
 30
0.0
 11
267.5416452923
 21
115.4722798216
 31
0.0
  0
LINE
  5
3B3
  8
0
  6
CONTINUOUS
 62
     7
 10
275.5416452923
 20
115.4722798216
 30
0.0
 11
267.5416452923
 21
115.4722798216
 31
0.0
  0
LINE
  5
3B4
  8
0
  6
CONTINUOUS
 62
     7
 10
275.5416452923
 20
115.4722798216
 30
0.0
 11
275.5416452923
 21
110.1722798216
 31
0.0
  0
LINE
  5
3B5
  8
0
  6
CONTINUOUS
 62
     7
 10
285.5416452923
 20
110.1722798216
 30
0.0
 11
285.5416452923
 21
115.4722798216
 31
0.0
  0
LINE
  5
3B6
  8
0
  6
CONTINUOUS
 62
     7
 10
293.5416452923
 20
115.4722798216
 30
0.0
 11
285.5416452923
 21
115.4722798216
 31
0.0
  0
LINE
  5
3B7
  8
0
  6
CONTINUOUS
 62
     7
 10
287.2916452923
 20
110.1722798216
 30
0.0
 11
285.5416452923
 21
110.1722798216
 31
0.0
  0
LINE
  5
3B8
  8
0
  6
CONTINUOUS
 62
     7
 10
287.2916452923
 20
107.4722798216
 30
0.0
 11
287.2916452923
 21
110.1722798216
 31
0.0
  0
LINE
  5
3B9
  8
0
  6
CONTINUOUS
 62
     7
 10
287.2916452923
 20
107.4722798216
 30
0.0
 11
282.5416452923
 21
107.4722798216
 31
0.0
  0
LINE
  5
3BA
  8
0
  6
CONTINUOUS
 62
     7
 10
282.5416452923
 20
107.4722798216
 30
0.0
 11
282.0416452923
 21
107.9722798216
 31
0.0
  0
LINE
  5
3BB
  8
0
  6
CONTINUOUS
 62
     7
 10
282.0416452923
 20
110.4722798216
 30
0.0
 11
282.0416452923
 21
107.9722798216
 31
0.0
  0
LINE
  5
3BC
  8
0
  6
CONTINUOUS
 62
     7
 10
282.0416452923
 20
110.4722798216
 30
0.0
 11
279.0416452923
 21
110.4722798216
 31
0.0
  0
LINE
  5
3BD
  8
0
  6
CONTINUOUS
 62
     7
 10
279.0416452923
 20
107.9722798216
 30
0.0
 11
279.0416452923
 21
110.4722798216
 31
0.0
  0
LINE
  5
3BE
  8
0
  6
CONTINUOUS
 62
     7
 10
279.0416452923
 20
107.9722798216
 30
0.0
 11
278.5416452923
 21
107.4722798216
 31
0.0
  0
LINE
  5
3BF
  8
0
  6
CONTINUOUS
 62
     7
 10
278.5416452923
 20
107.4722798216
 30
0.0
 11
273.7916452923
 21
107.4722798216
 31
0.0
  0
LINE
  5
3C0
  8
0
  6
CONTINUOUS
 62
     7
 10
273.7916452923
 20
110.1722798216
 30
0.0
 11
273.7916452923
 21
107.4722798216
 31
0.0
  0
LINE
  5
3C1
  8
0
  6
CONTINUOUS
 62
     7
 10
275.5416452923
 20
110.1722798216
 30
0.0
 11
273.7916452923
 21
110.1722798216
 31
0.0
  0
LINE
  5
3C2
  8
0
  6
CONTINUOUS
 62
     7
 10
285.5416452923
 20
115.4722798216
 30
0.0
 11
275.5416452923
 21
115.4722798216
 31
0.0
  0
LINE
  5
3C3
  8
0
  6
CONTINUOUS
 62
     7
 10
258.6479500012
 20
107.4722798216
 30
0.0
 11
258.6479500012
 21
115.4722798216
 31
0.0
  0
LINE
  5
3C4
  8
0
  6
CONTINUOUS
 62
     7
 10
269.2916452923
 20
110.1722798216
 30
0.0
 11
267.5416452923
 21
110.1722798216
 31
0.0
  0
LINE
  5
3C5
  8
0
  6
CONTINUOUS
 62
     7
 10
269.2916452923
 20
107.4722798216
 30
0.0
 11
269.2916452923
 21
110.1722798216
 31
0.0
  0
LINE
  5
3C6
  8
0
  6
CONTINUOUS
 62
     7
 10
269.2916452923
 20
107.4722798216
 30
0.0
 11
258.6479500012
 21
107.4722798216
 31
0.0
  0
LINE
  5
3C7
  8
0
  6
CONTINUOUS
 62
     7
 10
267.5416452923
 20
115.4722798216
 30
0.0
 11
258.6479500012
 21
115.4722798216
 31
0.0
  0
LINE
  5
3C8
  8
0
  6
CONTINUOUS
 62
     7
 10
291.7916452923
 20
107.4722798216
 30
0.0
 11
287.2916452923
 21
107.4722798216
 31
0.0
  0
LINE
  5
3C9
  8
0
  6
CONTINUOUS
 62
     7
 10
291.7916452923
 20
110.1722798216
 30
0.0
 11
287.2916452923
 21
110.1722798216
 31
0.0
  0
LINE
  5
3CA
  8
0
  6
CONTINUOUS
 62
     7
 10
279.0416452923
 20
107.9722798216
 30
0.0
 11
282.0416452923
 21
107.9722798216
 31
0.0
  0
LINE
  5
3CB
  8
0
  6
CONTINUOUS
 62
     7
 10
273.7916452923
 20
107.4722798216
 30
0.0
 11
269.2916452923
 21
107.4722798216
 31
0.0
  0
LINE
  5
3CC
  8
0
  6
CONTINUOUS
 62
     7
 10
273.7916452923
 20
110.1722798216
 30
0.0
 11
269.2916452923
 21
110.1722798216
 31
0.0
  0
LINE
  5
3CD
  8
0
  6
CONTINUOUS
 62
     7
 10
282.5416452923
 20
107.4722798216
 30
0.0
 11
278.5416452923
 21
107.4722798216
 31
0.0
  0
DIMENSION
  5
3CE
  8
DIM
  2
_D_22
 10
276.8447976468
 20
110.4722798216
 30
0.0
 11
276.8447976468
 21
103.6680547944
 31
0.0
 70
   160
  1
<>
  3
SLDDIMSTYLE0
 13
278.5416452923
 23
107.4722798216
 33
0.0
 14
279.0416452923
 24
110.4722798216
 34
0.0
 50
90.0
  0
DIMENSION
  5
3D9
  8
DIM
  2
_D_23
 10
282.0416452923
 20
94.1870973817
 30
0.0
 11
302.709340365
 21
94.1870973817
 31
0.0
 70
   160
  1
2x%%c<>H8
  3
SLDDIMSTYLE7
 13
279.0416452923
 23
107.9722798216
 33
0.0
 14
282.0416452923
 24
107.9722798216
 34
0.0
  0
TEXT
  5
3EF
  8
0
  6
CONTINUOUS
 62
     7
 10
273.7895892841
 20
124.8100790433
 30
0.0
 40
3.5
  1
B-B
 41
0.7
 11
273.7895892841
 21
123.5736688266
 31
0.0
 73
     1
  0
LINE
  5
3F0
  8
DIM
  6
CENTERX2
 10
280.5416452923
 20
115.4722798216
 30
0.0
 11
280.5416452923
 21
102.9722798216
 31
0.0
  0
ENDSEC
  0
EOF
