  0
SECTION
  2
HEADER
  9
$ACADVER
  1
AC1009
  9
$DWGCODEPAGE
  3
dos932
  9
$INSBASE
 10
0.0
 20
0.0
 30
0.0
  9
$EXTMIN
 10
0.0
 20
0.0
 30
0.0
  9
$EXTMAX
 10
420.0
 20
297.0
 30
0.0
  9
$LIMMIN
 10
0.0
 20
0.0
  9
$LIMMAX
 10
420.0
 20
297.0
  9
$ORTHOMODE
 70
     0
  9
$REGENMODE
 70
     1
  9
$FILLMODE
 70
     1
  9
$QTEXTMODE
 70
     0
  9
$MIRRTEXT
 70
     1
  9
$DRAGMODE
 70
     2
  9
$LTSCALE
 40
1.0
  9
$OSMODE
 70
    37
  9
$ATTMODE
 70
     1
  9
$TEXTSIZE
 40
3.5
  9
$TRACEWID
 40
1.0
  9
$TEXTSTYLE
  7
STANDARD
  9
$CLAYER
  8
0
  9
$CELTYPE
  6
BYLAYER
  9
$CECOLOR
 62
   256
  9
$DIMSCALE
 40
1.0
  9
$DIMASZ
 40
3.0
  9
$DIMEXO
 40
0.01
  9
$DIMDLI
 40
3.75
  9
$DIMRND
 40
0.0
  9
$DIMDLE
 40
0.0
  9
$DIMEXE
 40
1.0
  9
$DIMTP
 40
0.0
  9
$DIMTM
 40
0.0
  9
$DIMTXT
 40
3.5
  9
$DIMCEN
 40
2.5
  9
$DIMTSZ
 40
0.0
  9
$DIMTOL
 70
     0
  9
$DIMLIM
 70
     0
  9
$DIMTIH
 70
     1
  9
$DIMTOH
 70
     1
  9
$DIMSE1
 70
     0
  9
$DIMSE2
 70
     0
  9
$DIMTAD
 70
     1
  9
$DIMZIN
 70
     0
  9
$DIMBLK
  1

  9
$DIMASO
 70
     1
  9
$DIMSHO
 70
     1
  9
$DIMPOST
  1

  9
$DIMAPOST
  1

  9
$DIMALT
 70
     0
  9
$DIMALTD
 70
     3
  9
$DIMALTF
 40
0.0393700787
  9
$DIMLFAC
 40
1.0
  9
$DIMTOFL
 70
     1
  9
$DIMTVP
 40
0.0
  9
$DIMTIX
 70
     0
  9
$DIMSOXD
 70
     0
  9
$DIMSAH
 70
     0
  9
$DIMBLK1
  1

  9
$DIMBLK2
  1

  9
$DIMSTYLE
  2
ISO-25
  9
$DIMCLRD
 70
     0
  9
$DIMCLRE
 70
     0
  9
$DIMCLRT
 70
     0
  9
$DIMTFAC
 40
1.0
  9
$DIMGAP
 40
1.524
  9
$LUNITS
 70
     2
  9
$LUPREC
 70
     4
  9
$SKETCHINC
 40
1.0
  9
$FILLETRAD
 40
10.0
  9
$AUNITS
 70
     0
  9
$AUPREC
 70
     2
  9
$MENU
  1
.
  9
$ELEVATION
 40
0.0
  9
$PELEVATION
 40
0.0
  9
$THICKNESS
 40
0.0
  9
$LIMCHECK
 70
     0
  9
$CHAMFERA
 40
0.0
  9
$CHAMFERB
 40
0.0
  9
$SKPOLY
 70
     0
  9
$TDCREATE
 40
2460356.609328252
  9
$TDUPDATE
 40
2460356.609331123
  9
$TDINDWG
 40
0.0000000116
  9
$TDUSRTIMER
 40
0.0000000116
  9
$USRTIMER
 70
     1
  9
$ANGBASE
 50
0.0
  9
$ANGDIR
 70
     0
  9
$PDMODE
 70
     0
  9
$PDSIZE
 40
-1.0
  9
$PLINEWID
 40
0.0
  9
$COORDS
 70
     1
  9
$SPLFRAME
 70
     0
  9
$SPLINETYPE
 70
     6
  9
$SPLINESEGS
 70
     8
  9
$ATTDIA
 70
     0
  9
$ATTREQ
 70
     1
  9
$HANDLING
 70
     1
  9
$HANDSEED
  5
3DC
  9
$SURFTAB1
 70
     6
  9
$SURFTAB2
 70
     6
  9
$SURFTYPE
 70
     6
  9
$SURFU
 70
     6
  9
$SURFV
 70
     6
  9
$UCSNAME
  2

  9
$UCSORG
 10
0.0
 20
0.0
 30
0.0
  9
$UCSXDIR
 10
1.0
 20
0.0
 30
0.0
  9
$UCSYDIR
 10
0.0
 20
1.0
 30
0.0
  9
$PUCSNAME
  2

  9
$PUCSORG
 10
0.0
 20
0.0
 30
0.0
  9
$PUCSXDIR
 10
1.0
 20
0.0
 30
0.0
  9
$PUCSYDIR
 10
0.0
 20
1.0
 30
0.0
  9
$USERI1
 70
     0
  9
$USERI2
 70
     0
  9
$USERI3
 70
     0
  9
$USERI4
 70
     0
  9
$USERI5
 70
     0
  9
$USERR1
 40
0.0
  9
$USERR2
 40
0.0
  9
$USERR3
 40
0.0
  9
$USERR4
 40
0.0
  9
$USERR5
 40
0.0
  9
$WORLDVIEW
 70
     1
  9
$SHADEDGE
 70
     3
  9
$SHADEDIF
 70
    70
  9
$TILEMODE
 70
     1
  9
$MAXACTVP
 70
    64
  9
$PLIMCHECK
 70
     0
  9
$PEXTMIN
 10
1.0000000000E+20
 20
1.0000000000E+20
 30
1.0000000000E+20
  9
$PEXTMAX
 10
-1.0000000000E+20
 20
-1.0000000000E+20
 30
-1.0000000000E+20
  9
$PLIMMIN
 10
0.0
 20
0.0
  9
$PLIMMAX
 10
420.0
 20
297.0
  9
$UNITMODE
 70
     0
  9
$VISRETAIN
 70
     1
  9
$PLINEGEN
 70
     0
  9
$PSLTSCALE
 70
     1
  0
ENDSEC
  0
SECTION
  2
TABLES
  0
TABLE
  2
VPORT
 70
     1
  0
VPORT
  2
*ACTIVE
 70
     0
 10
0.0
 20
0.0
 11
1.0
 21
1.0
 12
210.0
 22
148.5
 13
0.0
 23
0.0
 14
10.0
 24
10.0
 15
10.0
 25
10.0
 16
0.0
 26
0.0
 36
1.0
 17
0.0
 27
0.0
 37
0.0
 40
297.0
 41
1.4141414141
 42
50.0
 43
0.0
 44
0.0
 50
0.0
 51
0.0
 71
     0
 72
  2000
 73
     1
 74
     3
 75
     0
 76
     0
 77
     0
 78
     0
  0
ENDTAB
  0
TABLE
  2
LTYPE
 70
     6
  0
LTYPE
  2
CONTINUOUS
 70
     0
  3
Solid line
 72
    65
 73
     0
 40
0.0
  0
LTYPE
  2
HIDDEN
 70
     0
  3
Hidden __ __ __ __ __ __ __ __ __ __ __ __ __ __
 72
    65
 73
     2
 40
1.905
 49
1.27
 49
-0.635
  0
LTYPE
  2
PHANTOM
 70
     0
  3
Phantom ______  __  __  ______  __  __  ______
 72
    65
 73
     6
 40
12.7
 49
6.35
 49
-1.27
 49
1.27
 49
-1.27
 49
1.27
 49
-1.27
  0
LTYPE
  2
CENTER
 70
     0
  3
Center ____ _ ____ _ ____ _ ____ _ ____ _ ____
 72
    65
 73
     4
 40
10.16
 49
6.35
 49
-1.27
 49
1.27
 49
-1.27
  0
LTYPE
  2
CENTERX2
 70
     0
  3
Center (2x) ________  __  ________  __  _____
 72
    65
 73
     4
 40
20.32
 49
12.7
 49
-2.54
 49
2.54
 49
-2.54
  0
LTYPE
  2
DOT2
 70
     0
  3
Dot (.5x) ........................................
 72
    65
 73
     2
 40
0.635
 49
0.0
 49
-0.635
  0
ENDTAB
  0
TABLE
  2
LAYER
 70
     4
  0
LAYER
  2
0
 70
     0
 62
     7
  6
CONTINUOUS
  0
LAYER
  2
DIM
 70
     0
 62
     7
  6
CONTINUOUS
  0
LAYER
  2
TXT
 70
     0
 62
     7
  6
CONTINUOUS
  0
LAYER
  2
FRAME
 70
     0
 62
     7
  6
CONTINUOUS
  0
ENDTAB
  0
TABLE
  2
STYLE
 70
     1
  0
STYLE
  2
STANDARD
 70
     0
 40
0.0
 41
1.0
 50
0.0
 71
     0
 42
3.5
  3
txt
  4
bigfont
  0
ENDTAB
  0
TABLE
  2
VIEW
 70
     0
  0
ENDTAB
  0
TABLE
  2
UCS
 70
     0
  0
ENDTAB
  0
TABLE
  2
APPID
 70
     1
  0
APPID
  2
ACAD
 70
     0
  0
ENDTAB
  0
TABLE
  2
DIMSTYLE
 70
     9
  0
DIMSTYLE
  2
ISO-25
 70
     0
  3

  4

  5

  6

  7

 40
1.0
 41
2.5
 42
0.625
 43
3.75
 44
1.25
 45
0.0
 46
0.0
 47
0.0
 48
0.0
140
2.5
141
2.5
142
0.0
143
0.0393700787
144
1.0
145
0.0
146
1.0
147
0.625
 71
     0
 72
     0
 73
     0
 74
     0
 75
     0
 76
     0
 77
     1
 78
     8
170
     0
171
     3
172
     1
173
     0
174
     0
175
     0
176
     0
177
     0
178
     0
  0
DIMSTYLE
  2
SLDDIMSTYLE0
 70
     0
  3

  4

  5

  6
OPEN30
  7
OPEN30
 40
1.0
 41
3.0
 42
0.0625
 43
0.38
 44
0.0
 45
0.000000001
 46
0.0
 47
0.0
 48
0.0
140
3.5
141
0.09
142
0.0
143
25.4
144
1.0
145
0.0
146
1.0
147
0.875
 71
     0
 72
     0
 73
     0
 74
     0
 75
     0
 76
     0
 77
     3
 78
    12
170
     0
171
     2
172
     0
173
     1
174
     0
175
     0
176
     0
177
     0
178
     0
  0
DIMSTYLE
  2
SLDDIMSTYLE1
 70
     0
  3

  4

  5

  6
OPEN30
  7
OPEN30
 40
1.0
 41
3.0
 42
0.0625
 43
0.38
 44
0.0
 45
0.000000001
 46
0.0
 47
0.0
 48
0.0
140
3.5
141
0.09
142
0.0
143
25.4
144
1.0
145
0.0
146
1.0
147
0.875
 71
     0
 72
     0
 73
     0
 74
     0
 75
     0
 76
     0
 77
     3
 78
    12
170
     0
171
     2
172
     1
173
     1
174
     0
175
     0
176
     0
177
     0
178
     0
  0
DIMSTYLE
  2
SLDDIMSTYLE2
 70
     0
  3

  4

  5

  6
OPEN30
  7
OPEN30
 40
1.0
 41
3.0
 42
0.0625
 43
0.38
 44
0.0
 45
0.0
 46
0.0
 47
0.0
 48
0.0
140
3.5
141
0.09
142
0.0
143
25.4
144
1.0
145
0.0
146
1.0
147
0.875
 71
     0
 72
     0
 73
     0
 74
     0
 75
     0
 76
     0
 77
     3
 78
    12
170
     0
171
     2
172
     0
173
     1
174
     0
175
     0
176
     0
177
     0
178
     0
  0
DIMSTYLE
  2
SLDDIMSTYLE3
 70
     0
  3

  4

  5

  6
OPEN30
  7
OPEN30
 40
1.0
 41
3.0
 42
0.0625
 43
0.38
 44
0.0
 45
0.000000001
 46
0.0
 47
0.0
 48
0.0
140
3.5
141
0.0
142
0.0
143
25.4
144
1.0
145
0.0
146
1.0
147
0.875
 71
     0
 72
     0
 73
     0
 74
     0
 75
     0
 76
     0
 77
     3
 78
    12
170
     0
171
     2
172
     1
173
     1
174
     0
175
     0
176
     0
177
     0
178
     0
  0
DIMSTYLE
  2
SLDDIMSTYLE4
 70
     0
  3

  4

  5

  6
OPEN30
  7
OPEN30
 40
1.0
 41
3.0
 42
0.0625
 43
0.38
 44
0.0
 45
0.000000001
 46
0.0
 47
0.0
 48
0.0
140
3.5
141
0.0
142
0.0
143
25.4
144
1.0
145
0.0
146
1.0
147
0.875
 71
     0
 72
     0
 73
     0
 74
     0
 75
     0
 76
     0
 77
     3
 78
    12
170
     0
171
     2
172
     1
173
     1
174
     0
175
     0
176
     0
177
     0
178
     0
  0
DIMSTYLE
  2
SLDDIMSTYLE5
 70
     0
  3

  4

  5

  6
OPEN30
  7
OPEN30
 40
1.0
 41
3.0
 42
0.0625
 43
0.38
 44
0.0
 45
0.000000001
 46
0.0
 47
0.018
 48
0.0
140
3.5
141
0.09
142
0.0
143
25.4
144
1.0
145
0.0
146
1.0
147
0.875
 71
     1
 72
     0
 73
     0
 74
     0
 75
     0
 76
     0
 77
     3
 78
    12
170
     0
171
     2
172
     1
173
     1
174
     0
175
     0
176
     0
177
     0
178
     0
  0
DIMSTYLE
  2
SLDDIMSTYLE6
 70
     0
  3
<>
  4

  5

  6
NONE
  7
OPEN30
 40
1.0
 41
3.0
 42
0.0625
 43
0.38
 44
0.0
 45
0.000000001
 46
0.0
 47
0.0
 48
0.0
140
3.5
141
0.0
142
0.0
143
25.4
144
1.0
145
0.0
146
1.0
147
0.875
 71
     0
 72
     0
 73
     1
 74
     1
 75
     0
 76
     0
 77
     0
 78
    12
170
     0
171
     2
172
     1
173
     1
174
     0
175
     0
176
     0
177
     0
178
     0
  0
DIMSTYLE
  2
SLDDIMSTYLE7
 70
     0
  3

  4

  5

  6
OPEN30
  7
OPEN30
 40
1.0
 41
3.0
 42
0.0625
 43
0.38
 44
0.0
 45
0.000000001
 46
0.0
 47
0.014
 48
0.0
140
3.5
141
0.09
142
0.0
143
25.4
144
1.0
145
0.0
146
1.0
147
0.875
 71
     1
 72
     0
 73
     0
 74
     0
 75
     0
 76
     0
 77
     3
 78
    12
170
     0
171
     2
172
     1
173
     1
174
     0
175
     0
176
     0
177
     0
178
     0
  0
ENDTAB
  0
ENDSEC
  0
SECTION
  2
BLOCKS
  0
BLOCK
  8
0
  2
$MODEL_SPACE
 70
     0
 10
0.0
 20
0.0
 30
0.0
  3
$MODEL_SPACE
  1

  0
ENDBLK
  5
21
  8
0
  0
BLOCK
 67
     1
  8
0
  2
$PAPER_SPACE
 70
     0
 10
0.0
 20
0.0
 30
0.0
  3
$PAPER_SPACE
  1

  0
ENDBLK
  5
1D
 67
     1
  8
0
  0
BLOCK
  8
0
  2
_OPEN30
 70
     0
 10
0.0
 20
0.0
 30
0.0
  3
_OPEN30
  1

  0
LINE
  5
AF
  8
0
  6
BYBLOCK
 62
     0
 10
-1.0
 20
0.267949
 30
0.0
 11
0.0
 21
0.0
 31
0.0
  0
LINE
  5
B0
  8
0
  6
BYBLOCK
 62
     0
 10
0.0
 20
0.0
 30
0.0
 11
-1.0
 21
-0.267949
 31
0.0
  0
LINE
  5
B1
  8
0
  6
BYBLOCK
 62
     0
 10
0.0
 20
0.0
 30
0.0
 11
-1.0
 21
0.0
 31
0.0
  0
ENDBLK
  5
AE
  8
0
  0
BLOCK
  8
0
  2
_D
 70
     0
 10
0.0
 20
0.0
 30
0.0
  3
_D
  1

  0
INSERT
  5
B5
  8
DIM
  2
_OPEN30
 10
87.2873490083
 20
267.7962546382
 30
0.0
 41
3.0
 42
3.0
 50
180.0
  0
INSERT
  5
B6
  8
DIM
  2
_OPEN30
 10
241.7873490083
 20
267.7962546382
 30
0.0
 41
3.0
 42
3.0
 50
0.0
  0
LINE
  5
B7
  8
DIM
 10
87.2873490083
 20
195.7446205732
 30
0.0
 11
87.2873490083
 21
268.7962546382
 31
0.0
  0
LINE
  5
B8
  8
DIM
 10
241.7873490083
 20
222.7446205732
 30
0.0
 11
241.7873490083
 21
268.7962546382
 31
0.0
  0
LINE
  5
B9
  8
DIM
 10
87.2873490083
 20
267.7962546382
 30
0.0
 11
241.7873490083
 21
267.7962546382
 31
0.0
  0
TEXT
  5
BA
  8
DIM
 10
159.445335381
 20
269.0326646221
 30
0.0
 40
3.5
  1
154.5
 41
0.7
 11
159.445335381
 21
267.7962544053
 31
0.0
 73
     1
  0
ENDBLK
  5
B4
  8
0
  0
BLOCK
  8
0
  2
_D_1
 70
     0
 10
0.0
 20
0.0
 30
0.0
  3
_D_1
  1

  0
INSERT
  5
C0
  8
DIM
  2
_OPEN30
 10
152.2873490083
 20
232.5383798515
 30
0.0
 41
3.0
 42
3.0
 50
0.0
  0
INSERT
  5
C1
  8
DIM
  2
_OPEN30
 10
158.2873490083
 20
232.5383798515
 30
0.0
 41
3.0
 42
3.0
 50
180.0
  0
LINE
  5
C2
  8
DIM
 10
152.2873490083
 20
195.7446205732
 30
0.0
 11
152.2873490083
 21
233.5383798515
 31
0.0
  0
LINE
  5
C3
  8
DIM
 10
158.2873490083
 20
195.7446205732
 30
0.0
 11
158.2873490083
 21
233.5383798515
 31
0.0
  0
LINE
  5
C4
  8
DIM
 10
152.2873490083
 20
232.5383798515
 30
0.0
 11
145.9373490083
 21
232.5383798515
 31
0.0
  0
LINE
  5
C5
  8
DIM
 10
152.2873490083
 20
232.5383798515
 30
0.0
 11
158.2873490083
 21
232.5383798515
 31
0.0
  0
LINE
  5
C6
  8
DIM
 10
158.2873490083
 20
232.5383798515
 30
0.0
 11
165.555751757
 21
232.5383798515
 31
0.0
  0
TEXT
  5
C7
  8
DIM
 10
163.5189462595
 20
233.7747898354
 30
0.0
 40
3.5
  1
6
 41
0.7
 11
163.5189462595
 21
232.5383796187
 31
0.0
 73
     1
  0
ENDBLK
  5
BF
  8
0
  0
BLOCK
  8
0
  2
_D_2
 70
     0
 10
0.0
 20
0.0
 30
0.0
  3
_D_2
  1

  0
INSERT
  5
CC
  8
DIM
  2
_OPEN30
 10
117.2873490083
 20
242.7495879206
 30
0.0
 41
3.0
 42
3.0
 50
180.0
  0
INSERT
  5
CD
  8
DIM
  2
_OPEN30
 10
155.2873490083
 20
242.7495879206
 30
0.0
 41
3.0
 42
3.0
 50
0.0
  0
LINE
  5
CE
  8
DIM
 10
117.2873490083
 20
225.4946205732
 30
0.0
 11
117.2873490083
 21
243.7495879206
 31
0.0
  0
LINE
  5
CF
  8
DIM
 10
155.2873490083
 20
202.5804829752
 30
0.0
 11
155.2873490083
 21
243.7495879206
 31
0.0
  0
LINE
  5
D0
  8
DIM
 10
117.2873490083
 20
242.7495879206
 30
0.0
 11
155.2873490083
 21
242.7495879206
 31
0.0
  0
TEXT
  5
D1
  8
DIM
 10
134.2505435108
 20
243.9859979045
 30
0.0
 40
3.5
  1
38
 41
0.7
 11
134.2505435108
 21
242.7495876878
 31
0.0
 73
     1
  0
ENDBLK
  5
CB
  8
0
  0
BLOCK
  8
0
  2
_D_3
 70
     0
 10
0.0
 20
0.0
 30
0.0
  3
_D_3
  1

  0
ARC
  5
D7
  8
DIM
 10
117.2873490083
 20
195.7346205732
 30
0.0
 40
44.37434117092199
 50
150.0
 51
180.0
  0
INSERT
  5
D8
  8
DIM
  2
_OPEN30
 10
78.858042278
 20
217.9217911587
 30
0.0
 41
3.0
 42
3.0
 50
61.9338447678
  0
INSERT
  5
D9
  8
DIM
  2
_OPEN30
 10
72.9130078373
 20
195.7346205732
 30
0.0
 41
3.0
 42
3.0
 50
268.0661552322
  0
LINE
  5
DA
  8
DIM
 10
91.5144329916
 20
210.6146205732
 30
0.0
 11
77.9920168743
 21
218.4217911587
 31
0.0
  0
TEXT
  5
DB
  8
DIM
 10
72.1764184035
 20
203.6047455672
 30
0.0
 40
3.5
  1
30°
 50
75.0
 41
0.7
 11
73.3706989638
 21
203.2847390556
 31
0.0
 73
     1
  0
ENDBLK
  5
D6
  8
0
  0
BLOCK
  8
0
  2
_D_4
 70
     0
 10
0.0
 20
0.0
 30
0.0
  3
_D_4
  1

  0
ARC
  5
E1
  8
DIM
 10
117.2873490083
 20
195.7346205732
 30
0.0
 40
22.94013949390895
 50
125.2777393435
 51
133.7859224001
  0
INSERT
  5
E2
  8
DIM
  2
_OPEN30
 10
131.4273972462
 20
179.5386631817
 30
-4.0
 41
3.0
 42
3.0
 50
311.122921634
  0
INSERT
  5
E3
  8
DIM
  2
_OPEN30
 10
103.1473007703
 20
211.9305779647
 30
-4.0
 41
3.0
 42
3.0
 50
131.122921634
  0
LINE
  5
E4
  8
DIM
 10
103.1473007703
 20
211.9305779647
 30
0.0
 11
88.9941197668
 21
228.1415775758
 31
0.0
  0
LINE
  5
E5
  8
DIM
 10
103.1473007703
 20
211.9305779647
 30
0.0
 11
131.4273972462
 21
179.5386631817
 31
0.0
  0
TEXT
  5
E6
  8
DIM
 10
89.9224281931
 20
228.9520468559
 30
-4.0
 40
3.5
  1
%%c
 50
-48.877078366
 41
0.7
 11
88.9910399518
 21
228.1388887114
 31
-4.0
 73
     1
  0
TEXT
  5
E7
  8
DIM
 10
92.4675911773
 20
226.0368268685
 30
-4.0
 40
3.5
  1
43
 50
-48.877078366
 41
0.7
 11
91.536202936
 21
225.223668724
 31
-4.0
 73
     1
  0
ENDBLK
  5
E0
  8
0
  0
BLOCK
  8
0
  2
_D_5
 70
     0
 10
0.0
 20
0.0
 30
0.0
  3
_D_5
  1

  0
INSERT
  5
ED
  8
DIM
  2
_OPEN30
 10
122.2873490083
 20
187.0743665354
 30
-4.0
 41
3.0
 42
3.0
 50
300.0
  0
INSERT
  5
EE
  8
DIM
  2
_OPEN30
 10
112.2873490083
 20
204.3948746111
 30
-4.0
 41
3.0
 42
3.0
 50
120.0
  0
LINE
  5
EF
  8
DIM
 10
112.2873490083
 20
204.3948746111
 30
0.0
 11
95.7770762467
 21
232.9915058808
 31
0.0
  0
LINE
  5
F0
  8
DIM
 10
112.2873490083
 20
204.3948746111
 30
0.0
 11
122.2873490083
 21
187.0743665354
 31
0.0
  0
TEXT
  5
F1
  8
DIM
 10
96.8442983245
 20
233.6076668347
 30
-4.0
 40
3.5
  1
%%c
 50
-60.0
 41
0.7
 11
95.7735356673
 21
232.9894617264
 31
-4.0
 73
     1
  0
TEXT
  5
F2
  8
DIM
 10
98.7792635821
 20
230.2562086978
 30
-4.0
 40
3.5
  1
20
 50
-60.0
 41
0.7
 11
97.7085009249
 21
229.6380035895
 31
-4.0
 73
     1
  0
ENDBLK
  5
EC
  8
0
  0
BLOCK
  8
0
  2
_D_6
 70
     0
 10
0.0
 20
0.0
 30
0.0
  3
_D_6
  1

  0
ARC
  5
F8
  8
DIM
 10
169.6569363925
 20
244.7983631711
 30
0.0
 40
6.376210185542482
 50
243.4349488229
 51
296.5650511771
  0
ARC
  5
F9
  8
DIM
 10
169.6569363925
 20
241.9468350556
 30
0.0
 40
6.37621018554247
 50
63.4349488229
 51
116.5650511771
  0
INSERT
  5
FA
  8
DIM
  2
_OPEN30
 10
172.6805470757
 20
197.7346205732
 30
-4.0
 41
3.0
 42
3.0
 50
270.0
  0
INSERT
  5
FB
  8
DIM
  2
_OPEN30
 10
172.6805470757
 20
193.7346205732
 30
-4.0
 41
3.0
 42
3.0
 50
90.0
  0
LINE
  5
FC
  8
DIM
 10
156.2973490083
 20
197.7346205732
 30
0.0
 11
173.6805470757
 21
197.7346205732
 31
0.0
  0
LINE
  5
FD
  8
DIM
 10
156.2973490083
 20
193.7346205732
 30
0.0
 11
173.6805470757
 21
193.7346205732
 31
0.0
  0
LINE
  5
FE
  8
DIM
 10
172.6805470757
 20
197.7346205732
 30
0.0
 11
172.6805470757
 21
248.3230451318
 31
0.0
  0
LINE
  5
FF
  8
DIM
 10
172.6805470757
 20
197.7346205732
 30
0.0
 11
172.6805470757
 21
193.7346205732
 31
0.0
  0
LINE
  5
100
  8
DIM
 10
172.6805470757
 20
193.7346205732
 30
0.0
 11
172.6805470757
 21
187.3846205732
 31
0.0
  0
TEXT
  5
101
  8
DIM
 10
171.4441370918
 20
228.2381257239
 30
-4.0
 40
3.5
  1
4
 50
90.0
 41
0.7
 11
172.6805473085
 21
228.2381257239
 31
-4.0
 73
     1
  0
TEXT
  5
102
  8
DIM
 10
171.4441370918
 20
230.2749312214
 30
-4.0
 40
3.5
  1
 H8 
 50
90.0
 41
0.525
 11
172.6805473085
 21
230.2749312214
 31
-4.0
 73
     1
  0
TEXT
  5
103
  8
DIM
 10
168.7914491535
 20
239.0953074057
 30
-4.0
 40
2.45
  1
+
 50
90.0
 41
0.7
 11
169.6569363052
 21
239.0953074057
 31
-4.0
 73
     1
  0
TEXT
  5
104
  8
DIM
 10
171.6429770362
 20
239.0953074057
 30
-4.0
 40
2.45
  1
 
 50
90.0
 41
0.7
 11
172.508464188
 21
239.0953074057
 31
-4.0
 73
     1
  0
TEXT
  5
105
  8
DIM
 10
168.7914491535
 20
240.521071347
 30
-4.0
 40
2.45
  1
0.018
 50
90.0
 41
0.7
 11
169.6569363052
 21
240.521071347
 31
-4.0
 73
     1
  0
TEXT
  5
106
  8
DIM
 10
171.6429770362
 20
240.521071347
 30
-4.0
 40
2.45
  1
0
 50
90.0
 41
0.7
 11
172.508464188
 21
240.521071347
 31
-4.0
 73
     1
  0
ENDBLK
  5
F7
  8
0
  0
BLOCK
  8
0
  2
_D_7
 70
     0
 10
0.0
 20
0.0
 30
0.0
  3
_D_7
  1

  0
INSERT
  5
10B
  8
DIM
  2
_OPEN30
 10
146.7873490083
 20
255.4614486584
 30
-4.0
 41
3.0
 42
3.0
 50
180.0
  0
INSERT
  5
10C
  8
DIM
  2
_OPEN30
 10
186.7873490083
 20
255.4614486584
 30
-4.0
 41
3.0
 42
3.0
 50
0.0
  0
LINE
  5
10D
  8
DIM
 10
146.7873490083
 20
195.7446205732
 30
0.0
 11
146.7873490083
 21
256.4614486584
 31
0.0
  0
LINE
  5
10E
  8
DIM
 10
186.7873490083
 20
202.3946205732
 30
0.0
 11
186.7873490083
 21
256.4614486584
 31
0.0
  0
LINE
  5
10F
  8
DIM
 10
146.7873490083
 20
255.4614486584
 30
0.0
 11
186.7873490083
 21
255.4614486584
 31
0.0
  0
TEXT
  5
110
  8
DIM
 10
164.7505435108
 20
256.6978586423
 30
-4.0
 40
3.5
  1
40
 41
0.7
 11
164.7505435108
 21
255.4614484256
 31
-4.0
 73
     1
  0
ENDBLK
  5
10A
  8
0
  0
BLOCK
  8
0
  2
_NONE
 70
     0
 10
0.0
 20
0.0
 30
0.0
  3
_NONE
  1

  0
ENDBLK
  5
115
  8
0
  0
BLOCK
  8
0
  2
_D_8
 70
     0
 10
0.0
 20
0.0
 30
0.0
  3
_D_8
  1

  0
INSERT
  5
119
  8
DIM
  2
_OPEN30
 10
187.4906018951
 20
193.8623397777
 30
0.0
 41
3.0
 42
3.0
 50
110.5868279686
  0
LINE
  5
11A
  8
DIM
 10
187.4906018951
 20
193.8623397777
 30
0.0
 11
200.9991991089
 21
157.8981971314
 31
0.0
  0
LINE
  5
11B
  8
DIM
 10
186.0840961214
 20
197.6069013687
 30
0.0
 11
187.4906018951
 21
193.8623397777
 31
0.0
  0
LINE
  5
11C
  8
DIM
 10
200.9991991089
 20
157.8981971314
 30
0.0
 11
210.7339210989
 21
157.8981971314
 31
0.0
  0
TEXT
  5
11D
  8
DIM
 10
202.5866991089
 20
159.1346071153
 30
0.0
 40
3.5
  1
2xM
 41
0.7
 11
202.5866991089
 21
157.8981968986
 31
0.0
 73
     1
  0
TEXT
  5
11E
  8
DIM
 10
208.6971158342
 20
159.1346071153
 30
0.0
 40
3.5
  1
4
 41
0.7
 11
208.6971158342
 21
157.8981968986
 31
0.0
 73
     1
  0
ENDBLK
  5
118
  8
0
  0
BLOCK
  8
0
  2
_D_9
 70
     0
 10
0.0
 20
0.0
 30
0.0
  3
_D_9
  1

  0
INSERT
  5
123
  8
DIM
  2
_OPEN30
 10
277.2873490083
 20
165.7346205732
 30
-4.0
 41
3.0
 42
3.0
 50
270.0
  0
INSERT
  5
124
  8
DIM
  2
_OPEN30
 10
277.2873490083
 20
225.7346205732
 30
-4.0
 41
3.0
 42
3.0
 50
90.0
  0
LINE
  5
125
  8
DIM
 10
238.7973490083
 20
165.7346205732
 30
0.0
 11
278.2873490083
 21
165.7346205732
 31
0.0
  0
LINE
  5
126
  8
DIM
 10
238.7973490083
 20
225.7346205732
 30
0.0
 11
278.2873490083
 21
225.7346205732
 31
0.0
  0
LINE
  5
127
  8
DIM
 10
277.2873490083
 20
165.7346205732
 30
0.0
 11
277.2873490083
 21
225.7346205732
 31
0.0
  0
TEXT
  5
128
  8
DIM
 10
276.0509390244
 20
193.6978150757
 30
-4.0
 40
3.5
  1
60
 50
90.0
 41
0.7
 11
277.2873492411
 21
193.6978150757
 31
-4.0
 73
     1
  0
ENDBLK
  5
122
  8
0
  0
BLOCK
  8
0
  2
_D_10
 70
     0
 10
0.0
 20
0.0
 30
0.0
  3
_D_10
  1

  0
INSERT
  5
12D
  8
DIM
  2
_OPEN30
 10
186.7873490083
 20
255.4614486584
 30
-4.0
 41
3.0
 42
3.0
 50
180.0
  0
INSERT
  5
12E
  8
DIM
  2
_OPEN30
 10
241.7873490083
 20
255.4614486584
 30
-4.0
 41
3.0
 42
3.0
 50
0.0
  0
LINE
  5
12F
  8
DIM
 10
186.7873490083
 20
202.3946205732
 30
0.0
 11
186.7873490083
 21
256.4614486584
 31
0.0
  0
LINE
  5
130
  8
DIM
 10
241.7873490083
 20
222.7446205732
 30
0.0
 11
241.7873490083
 21
256.4614486584
 31
0.0
  0
LINE
  5
131
  8
DIM
 10
186.7873490083
 20
255.4614486584
 30
0.0
 11
241.7873490083
 21
255.4614486584
 31
0.0
  0
TEXT
  5
132
  8
DIM
 10
212.2505435108
 20
256.6978586423
 30
-4.0
 40
3.5
  1
55
 41
0.7
 11
212.2505435108
 21
255.4614484256
 31
-4.0
 73
     1
  0
ENDBLK
  5
12C
  8
0
  0
BLOCK
  8
0
  2
SW_NOTE_0
 70
     0
 10
0.0
 20
0.0
 30
0.0
  3
SW_NOTE_0
  1

  0
LINE
  5
136
  8
TXT
 62
     0
 10
57.1200332667
 20
-25.2269491817
 30
0.0
 11
4.2895055976
 21
-25.2269491817
 31
0.0
  0
TEXT
  5
137
  8
TXT
 62
     0
 10
4.7612000874
 20
-23.900179353
 30
0.0
 40
3.5
  1
4xφ3.4,6.5深座ぐり深さ4.3
 41
0.7
 11
4.7612000874
 21
-25.1365895697
 31
0.0
 73
     1
  0
LINE
  5
138
  8
TXT
 62
     0
 10
4.2895055976
 20
-25.2269491817
 30
0.0
 11
0.0
 21
0.0
 31
0.0
  0
INSERT
  5
139
  8
TXT
 62
     0
  2
_OPEN30
 10
0.0
 20
0.0
 30
4.0
 41
3.0
 42
3.0
 50
99.6500854812
  0
ENDBLK
  5
135
  8
0
  0
BLOCK
  8
0
  2
SW_NOTE_0_1
 70
     0
 10
0.0
 20
0.0
 30
0.0
  3
SW_NOTE_0_1
  1

  0
LINE
  5
13E
  8
TXT
 62
     0
 10
81.0615561038
 20
-20.7514901725
 30
0.0
 11
7.8629702002
 21
-20.7514901725
 31
0.0
  0
TEXT
  5
13F
  8
TXT
 62
     0
 10
8.2820288733
 20
-19.4314351248
 30
0.0
 40
3.5
  1
6xφ3.4,6.5深座ぐり深さ5.3(60°等配)
 41
0.7
 11
8.2820288733
 21
-20.6678453415
 31
0.0
 73
     1
  0
LINE
  5
140
  8
TXT
 62
     0
 10
7.8629702002
 20
-20.7514901725
 30
0.0
 11
0.0
 21
0.0
 31
0.0
  0
INSERT
  5
141
  8
TXT
 62
     0
  2
_OPEN30
 10
0.0
 20
0.0
 30
4.0
 41
3.0
 42
3.0
 50
110.7522547666
  0
ENDBLK
  5
13D
  8
0
  0
BLOCK
  8
0
  2
SW_CENTERMARKSYMBOL_0
 70
     0
 10
0.0
 20
0.0
 30
0.0
  3
SW_CENTERMARKSYMBOL_0
  1

  0
LINE
  5
146
  8
DIM
 62
     0
 10
0.0
 20
0.0
 30
0.0
 11
0.0
 21
5.0
 31
0.0
  0
LINE
  5
147
  8
DIM
 62
     0
 10
0.0
 20
0.0
 30
0.0
 11
-5.0
 21
0.0
 31
0.0
  0
LINE
  5
148
  8
DIM
 62
     0
 10
0.0
 20
0.0
 30
0.0
 11
0.0
 21
-5.0
 31
0.0
  0
LINE
  5
149
  8
DIM
 62
     0
 10
0.0
 20
0.0
 30
0.0
 11
5.0
 21
0.0
 31
0.0
  0
LINE
  5
14A
  8
DIM
 62
     0
 10
0.0
 20
5.0
 30
0.0
 11
0.0
 21
8.25
 31
0.0
  0
LINE
  5
14B
  8
DIM
 62
     0
 10
-5.0
 20
0.0
 30
0.0
 11
-8.25
 21
0.0
 31
0.0
  0
LINE
  5
14C
  8
DIM
 62
     0
 10
0.0
 20
-5.0
 30
0.0
 11
0.0
 21
-8.25
 31
0.0
  0
LINE
  5
14D
  8
DIM
 62
     0
 10
5.0
 20
0.0
 30
0.0
 11
8.25
 21
0.0
 31
0.0
  0
ENDBLK
  5
145
  8
0
  0
BLOCK
  8
0
  2
SW_CENTERMARKSYMBOL_1
 70
     0
 10
0.0
 20
0.0
 30
0.0
  3
SW_CENTERMARKSYMBOL_1
  1

  0
LINE
  5
152
  8
DIM
 62
     0
 10
0.0
 20
0.0
 30
0.0
 11
0.0
 21
5.0
 31
0.0
  0
LINE
  5
153
  8
DIM
 62
     0
 10
0.0
 20
0.0
 30
0.0
 11
-5.0
 21
0.0
 31
0.0
  0
LINE
  5
154
  8
DIM
 62
     0
 10
0.0
 20
0.0
 30
0.0
 11
0.0
 21
-5.0
 31
0.0
  0
LINE
  5
155
  8
DIM
 62
     0
 10
0.0
 20
0.0
 30
0.0
 11
5.0
 21
0.0
 31
0.0
  0
LINE
  5
156
  8
DIM
 62
     0
 10
0.0
 20
5.0
 30
0.0
 11
0.0
 21
8.25
 31
0.0
  0
LINE
  5
157
  8
DIM
 62
     0
 10
-5.0
 20
0.0
 30
0.0
 11
-8.25
 21
0.0
 31
0.0
  0
LINE
  5
158
  8
DIM
 62
     0
 10
0.0
 20
-5.0
 30
0.0
 11
0.0
 21
-8.25
 31
0.0
  0
LINE
  5
159
  8
DIM
 62
     0
 10
5.0
 20
0.0
 30
0.0
 11
8.25
 21
0.0
 31
0.0
  0
ENDBLK
  5
151
  8
0
  0
BLOCK
  8
0
  2
SW_CENTERMARKSYMBOL_2
 70
     0
 10
0.0
 20
0.0
 30
0.0
  3
SW_CENTERMARKSYMBOL_2
  1

  0
LINE
  5
15E
  8
DIM
 62
     0
 10
0.0
 20
0.0
 30
0.0
 11
0.0
 21
5.0
 31
0.0
  0
LINE
  5
15F
  8
DIM
 62
     0
 10
0.0
 20
0.0
 30
0.0
 11
-5.0
 21
0.0
 31
0.0
  0
LINE
  5
160
  8
DIM
 62
     0
 10
0.0
 20
0.0
 30
0.0
 11
0.0
 21
-5.0
 31
0.0
  0
LINE
  5
161
  8
DIM
 62
     0
 10
0.0
 20
0.0
 30
0.0
 11
5.0
 21
0.0
 31
0.0
  0
LINE
  5
162
  8
DIM
 62
     0
 10
0.0
 20
5.0
 30
0.0
 11
0.0
 21
8.25
 31
0.0
  0
LINE
  5
163
  8
DIM
 62
     0
 10
-5.0
 20
0.0
 30
0.0
 11
-8.25
 21
0.0
 31
0.0
  0
LINE
  5
164
  8
DIM
 62
     0
 10
0.0
 20
-5.0
 30
0.0
 11
0.0
 21
-8.25
 31
0.0
  0
LINE
  5
165
  8
DIM
 62
     0
 10
5.0
 20
0.0
 30
0.0
 11
8.25
 21
0.0
 31
0.0
  0
ENDBLK
  5
15D
  8
0
  0
BLOCK
  8
0
  2
SW_CENTERMARKSYMBOL_3
 70
     0
 10
0.0
 20
0.0
 30
0.0
  3
SW_CENTERMARKSYMBOL_3
  1

  0
LINE
  5
16A
  8
DIM
 62
     0
 10
0.0
 20
0.0
 30
0.0
 11
0.0
 21
5.0
 31
0.0
  0
LINE
  5
16B
  8
DIM
 62
     0
 10
0.0
 20
0.0
 30
0.0
 11
-5.0
 21
0.0
 31
0.0
  0
LINE
  5
16C
  8
DIM
 62
     0
 10
0.0
 20
0.0
 30
0.0
 11
0.0
 21
-5.0
 31
0.0
  0
LINE
  5
16D
  8
DIM
 62
     0
 10
0.0
 20
0.0
 30
0.0
 11
5.0
 21
0.0
 31
0.0
  0
LINE
  5
16E
  8
DIM
 62
     0
 10
0.0
 20
5.0
 30
0.0
 11
0.0
 21
8.25
 31
0.0
  0
LINE
  5
16F
  8
DIM
 62
     0
 10
-5.0
 20
0.0
 30
0.0
 11
-8.25
 21
0.0
 31
0.0
  0
LINE
  5
170
  8
DIM
 62
     0
 10
0.0
 20
-5.0
 30
0.0
 11
0.0
 21
-8.25
 31
0.0
  0
LINE
  5
171
  8
DIM
 62
     0
 10
5.0
 20
0.0
 30
0.0
 11
8.25
 21
0.0
 31
0.0
  0
ENDBLK
  5
169
  8
0
  0
BLOCK
  8
0
  2
SW_CENTERMARKSYMBOL_4
 70
     0
 10
0.0
 20
0.0
 30
0.0
  3
SW_CENTERMARKSYMBOL_4
  1

  0
LINE
  5
176
  8
DIM
 62
     0
 10
0.0
 20
0.0
 30
0.0
 11
0.0
 21
5.0
 31
0.0
  0
LINE
  5
177
  8
DIM
 62
     0
 10
0.0
 20
0.0
 30
0.0
 11
-5.0
 21
0.0
 31
0.0
  0
LINE
  5
178
  8
DIM
 62
     0
 10
0.0
 20
0.0
 30
0.0
 11
0.0
 21
-5.0
 31
0.0
  0
LINE
  5
179
  8
DIM
 62
     0
 10
0.0
 20
0.0
 30
0.0
 11
5.0
 21
0.0
 31
0.0
  0
LINE
  5
17A
  8
DIM
 62
     0
 10
0.0
 20
5.0
 30
0.0
 11
0.0
 21
6.65
 31
0.0
  0
LINE
  5
17B
  8
DIM
 62
     0
 10
-5.0
 20
0.0
 30
0.0
 11
-6.65
 21
0.0
 31
0.0
  0
LINE
  5
17C
  8
DIM
 62
     0
 10
0.0
 20
-5.0
 30
0.0
 11
0.0
 21
-6.65
 31
0.0
  0
LINE
  5
17D
  8
DIM
 62
     0
 10
5.0
 20
0.0
 30
0.0
 11
58.2425771167
 21
0.0
 31
0.0
  0
ENDBLK
  5
175
  8
0
  0
BLOCK
  8
0
  2
SW_CENTERMARKSYMBOL_5
 70
     0
 10
0.0
 20
0.0
 30
0.0
  3
SW_CENTERMARKSYMBOL_5
  1

  0
ARC
  5
182
  8
DIM
 62
     0
 10
-18.6195461814
 20
-10.75
 30
0.0
 40
21.49999999999999
 50
30.0
 51
43.3245998868
  0
ARC
  5
183
  8
DIM
 62
     0
 10
-18.6195461814
 20
-10.75
 30
0.0
 40
21.49999999999999
 50
16.6754001132
 51
30.0
  0
ARC
  5
184
  8
DIM
 62
     0
 10
-18.6195461814
 20
-10.75
 30
0.0
 40
21.5
 50
90.0
 51
103.3245998868
  0
ARC
  5
185
  8
DIM
 62
     0
 10
-18.6195461814
 20
-10.75
 30
0.0
 40
21.49999999999999
 50
76.6754001132
 51
90.0
  0
ARC
  5
186
  8
DIM
 62
     0
 10
-18.6195461814
 20
-10.75
 30
0.0
 40
21.50000000000001
 50
150.0
 51
163.3245998868
  0
ARC
  5
187
  8
DIM
 62
     0
 10
-18.6195461814
 20
-10.75
 30
0.0
 40
21.50000000000001
 50
136.6754001132
 51
150.0
  0
ARC
  5
188
  8
DIM
 62
     0
 10
-18.6195461814
 20
-10.75
 30
0.0
 40
21.50000000000001
 50
210.0
 51
223.3245998868
  0
ARC
  5
189
  8
DIM
 62
     0
 10
-18.6195461814
 20
-10.75
 30
0.0
 40
21.50000000000001
 50
196.6754001132
 51
210.0
  0
ARC
  5
18A
  8
DIM
 62
     0
 10
-18.6195461814
 20
-10.75
 30
0.0
 40
21.49999999999999
 50
270.0
 51
283.3245998868
  0
ARC
  5
18B
  8
DIM
 62
     0
 10
-18.6195461814
 20
-10.75
 30
0.0
 40
21.5
 50
256.6754001132
 51
270.0
  0
ARC
  5
18C
  8
DIM
 62
     0
 10
-18.6195461814
 20
-10.75
 30
0.0
 40
21.49999999999999
 50
330.0
 51
343.3245998868
  0
ARC
  5
18D
  8
DIM
 62
     0
 10
-18.6195461814
 20
-10.75
 30
0.0
 40
21.49999999999999
 50
316.6754001132
 51
330.0
  0
ARC
  5
18E
  8
DIM
 62
     0
 10
-18.6195461814
 20
-10.75
 30
0.0
 40
21.50000000000001
 50
56.6491997735
 51
63.3508002265
  0
ARC
  5
18F
  8
DIM
 62
     0
 10
-18.6195461814
 20
-10.75
 30
0.0
 40
21.50000000000001
 50
116.6491997735
 51
123.3508002265
  0
ARC
  5
190
  8
DIM
 62
     0
 10
-18.6195461814
 20
-10.75
 30
0.0
 40
21.50000000000002
 50
176.6491997735
 51
183.3508002265
  0
ARC
  5
191
  8
DIM
 62
     0
 10
-18.6195461814
 20
-10.75
 30
0.0
 40
21.50000000000002
 50
236.6491997735
 51
243.3508002265
  0
ARC
  5
192
  8
DIM
 62
     0
 10
-18.6195461814
 20
-10.75
 30
0.0
 40
21.50000000000001
 50
296.6491997735
 51
303.3508002265
  0
ARC
  5
193
  8
DIM
 62
     0
 10
-18.6195461814
 20
-10.75
 30
0.0
 40
21.49999999999999
 50
356.6491997735
 51
3.3508002265
  0
LINE
  5
194
  8
DIM
 62
     0
 10
0.0
 20
0.0
 30
0.0
 11
4.3301270189
 21
2.5
 31
0.0
  0
LINE
  5
195
  8
DIM
 62
     0
 10
0.0
 20
0.0
 30
0.0
 11
-4.3301270189
 21
-2.5
 31
0.0
  0
LINE
  5
196
  8
DIM
 62
     0
 10
4.3301270189
 20
2.5
 30
0.0
 11
7.1447095812
 21
4.125
 31
0.0
  0
LINE
  5
197
  8
DIM
 62
     0
 10
-4.3301270189
 20
-2.5
 30
0.0
 11
-7.1447095812
 21
-4.125
 31
0.0
  0
LINE
  5
198
  8
DIM
 62
     0
 10
-18.6195461814
 20
10.75
 30
0.0
 11
-18.6195461814
 21
15.75
 31
0.0
  0
LINE
  5
199
  8
DIM
 62
     0
 10
-18.6195461814
 20
10.75
 30
0.0
 11
-18.6195461814
 21
5.75
 31
0.0
  0
LINE
  5
19A
  8
DIM
 62
     0
 10
-18.6195461814
 20
15.75
 30
0.0
 11
-18.6195461814
 21
19.0
 31
0.0
  0
LINE
  5
19B
  8
DIM
 62
     0
 10
-18.6195461814
 20
5.75
 30
0.0
 11
-18.6195461814
 21
2.5
 31
0.0
  0
LINE
  5
19C
  8
DIM
 62
     0
 10
-37.2390923627
 20
0.0
 30
0.0
 11
-41.5692193817
 21
2.5
 31
0.0
  0
LINE
  5
19D
  8
DIM
 62
     0
 10
-37.2390923627
 20
0.0
 30
0.0
 11
-32.9089653438
 21
-2.5
 31
0.0
  0
LINE
  5
19E
  8
DIM
 62
     0
 10
-41.5692193817
 20
2.5
 30
0.0
 11
-44.383801944
 21
4.125
 31
0.0
  0
LINE
  5
19F
  8
DIM
 62
     0
 10
-32.9089653438
 20
-2.5
 30
0.0
 11
-30.0943827815
 21
-4.125
 31
0.0
  0
LINE
  5
1A0
  8
DIM
 62
     0
 10
-18.6195461814
 20
-10.75
 30
0.0
 11
-18.6195461814
 21
-5.75
 31
0.0
  0
LINE
  5
1A1
  8
DIM
 62
     0
 10
-18.6195461814
 20
-10.75
 30
0.0
 11
-23.6195461814
 21
-10.75
 31
0.0
  0
LINE
  5
1A2
  8
DIM
 62
     0
 10
-18.6195461814
 20
-10.75
 30
0.0
 11
-18.6195461814
 21
-15.75
 31
0.0
  0
LINE
  5
1A3
  8
DIM
 62
     0
 10
-18.6195461814
 20
-10.75
 30
0.0
 11
-13.6195461814
 21
-10.75
 31
0.0
  0
LINE
  5
1A4
  8
DIM
 62
     0
 10
-18.6195461814
 20
-0.75
 30
0.0
 11
-18.6195461814
 21
12.8695461814
 31
0.0
  0
LINE
  5
1A5
  8
DIM
 62
     0
 10
-28.6195461814
 20
-10.75
 30
0.0
 11
-42.2390923627
 21
-10.75
 31
0.0
  0
LINE
  5
1A6
  8
DIM
 62
     0
 10
-18.6195461814
 20
-20.75
 30
0.0
 11
-18.6195461814
 21
-34.3695461814
 31
0.0
  0
LINE
  5
1A7
  8
DIM
 62
     0
 10
-8.6195461814
 20
-10.75
 30
0.0
 11
5.0
 21
-10.75
 31
0.0
  0
LINE
  5
1A8
  8
DIM
 62
     0
 10
-37.2390923627
 20
-21.5
 30
0.0
 11
-41.5692193817
 21
-24.0
 31
0.0
  0
LINE
  5
1A9
  8
DIM
 62
     0
 10
-37.2390923627
 20
-21.5
 30
0.0
 11
-32.9089653438
 21
-19.0
 31
0.0
  0
LINE
  5
1AA
  8
DIM
 62
     0
 10
-41.5692193817
 20
-24.0
 30
0.0
 11
-44.383801944
 21
-25.625
 31
0.0
  0
LINE
  5
1AB
  8
DIM
 62
     0
 10
-32.9089653438
 20
-19.0
 30
0.0
 11
-30.0943827815
 21
-17.375
 31
0.0
  0
LINE
  5
1AC
  8
DIM
 62
     0
 10
-18.6195461814
 20
-32.25
 30
0.0
 11
-18.6195461814
 21
-37.25
 31
0.0
  0
LINE
  5
1AD
  8
DIM
 62
     0
 10
-18.6195461814
 20
-32.25
 30
0.0
 11
-18.6195461814
 21
-27.25
 31
0.0
  0
LINE
  5
1AE
  8
DIM
 62
     0
 10
-18.6195461814
 20
-37.25
 30
0.0
 11
-18.6195461814
 21
-40.5
 31
0.0
  0
LINE
  5
1AF
  8
DIM
 62
     0
 10
-18.6195461814
 20
-27.25
 30
0.0
 11
-18.6195461814
 21
-24.0
 31
0.0
  0
LINE
  5
1B0
  8
DIM
 62
     0
 10
0.0
 20
-21.5
 30
0.0
 11
4.3301270189
 21
-24.0
 31
0.0
  0
LINE
  5
1B1
  8
DIM
 62
     0
 10
0.0
 20
-21.5
 30
0.0
 11
-4.3301270189
 21
-19.0
 31
0.0
  0
LINE
  5
1B2
  8
DIM
 62
     0
 10
4.3301270189
 20
-24.0
 30
0.0
 11
7.1447095812
 21
-25.625
 31
0.0
  0
LINE
  5
1B3
  8
DIM
 62
     0
 10
-4.3301270189
 20
-19.0
 30
0.0
 11
-7.1447095812
 21
-17.375
 31
0.0
  0
ENDBLK
  5
181
  8
0
  0
BLOCK
  8
0
  2
SW_CENTERMARKSYMBOL_6
 70
     0
 10
0.0
 20
0.0
 30
0.0
  3
SW_CENTERMARKSYMBOL_6
  1

  0
LINE
  5
1B8
  8
DIM
 62
     0
 10
0.0
 20
0.0
 30
0.0
 11
0.0
 21
5.0
 31
0.0
  0
LINE
  5
1B9
  8
DIM
 62
     0
 10
0.0
 20
0.0
 30
0.0
 11
-5.0
 21
0.0
 31
0.0
  0
LINE
  5
1BA
  8
DIM
 62
     0
 10
0.0
 20
0.0
 30
0.0
 11
0.0
 21
-5.0
 31
0.0
  0
LINE
  5
1BB
  8
DIM
 62
     0
 10
0.0
 20
0.0
 30
0.0
 11
5.0
 21
0.0
 31
0.0
  0
LINE
  5
1BC
  8
DIM
 62
     0
 10
0.0
 20
5.0
 30
0.0
 11
0.0
 21
6.65
 31
0.0
  0
LINE
  5
1BD
  8
DIM
 62
     0
 10
-5.0
 20
0.0
 30
0.0
 11
-6.65
 21
0.0
 31
0.0
  0
LINE
  5
1BE
  8
DIM
 62
     0
 10
0.0
 20
-5.0
 30
0.0
 11
0.0
 21
-6.65
 31
0.0
  0
LINE
  5
1BF
  8
DIM
 62
     0
 10
5.0
 20
0.0
 30
0.0
 11
6.65
 21
0.0
 31
0.0
  0
ENDBLK
  5
1B7
  8
0
  0
BLOCK
  8
0
  2
SW_CENTERMARKSYMBOL_7
 70
     0
 10
0.0
 20
0.0
 30
0.0
  3
SW_CENTERMARKSYMBOL_7
  1

  0
LINE
  5
1C4
  8
DIM
 62
     0
 10
0.0
 20
0.0
 30
0.0
 11
0.0
 21
5.0
 31
0.0
  0
LINE
  5
1C5
  8
DIM
 62
     0
 10
0.0
 20
0.0
 30
0.0
 11
-5.0
 21
0.0
 31
0.0
  0
LINE
  5
1C6
  8
DIM
 62
     0
 10
0.0
 20
0.0
 30
0.0
 11
0.0
 21
-5.0
 31
0.0
  0
LINE
  5
1C7
  8
DIM
 62
     0
 10
0.0
 20
0.0
 30
0.0
 11
5.0
 21
0.0
 31
0.0
  0
LINE
  5
1C8
  8
DIM
 62
     0
 10
0.0
 20
5.0
 30
0.0
 11
0.0
 21
6.65
 31
0.0
  0
LINE
  5
1C9
  8
DIM
 62
     0
 10
-5.0
 20
0.0
 30
0.0
 11
-6.65
 21
0.0
 31
0.0
  0
LINE
  5
1CA
  8
DIM
 62
     0
 10
0.0
 20
-5.0
 30
0.0
 11
0.0
 21
-6.65
 31
0.0
  0
LINE
  5
1CB
  8
DIM
 62
     0
 10
5.0
 20
0.0
 30
0.0
 11
33.7717077563
 21
0.0
 31
0.0
  0
ENDBLK
  5
1C3
  8
0
  0
BLOCK
  8
0
  2
_D_11
 70
     0
 10
0.0
 20
0.0
 30
0.0
  3
_D_11
  1

  0
INSERT
  5
1F2
  8
DIM
  2
_OPEN30
 10
302.1714285714
 20
233.8800197832
 30
-47.25
 41
3.0
 42
3.0
 50
0.0
  0
INSERT
  5
1F3
  8
DIM
  2
_OPEN30
 10
310.1714285714
 20
233.8800197832
 30
-47.25
 41
3.0
 42
3.0
 50
180.0
  0
LINE
  5
1F4
  8
DIM
 10
302.1714285714
 20
224.7446205732
 30
0.0
 11
302.1714285714
 21
234.8800197832
 31
0.0
  0
LINE
  5
1F5
  8
DIM
 10
310.1714285714
 20
224.7446205732
 30
0.0
 11
310.1714285714
 21
234.8800197832
 31
0.0
  0
LINE
  5
1F6
  8
DIM
 10
302.1714285714
 20
233.8800197832
 30
0.0
 11
295.8214285714
 21
233.8800197832
 31
0.0
  0
LINE
  5
1F7
  8
DIM
 10
302.1714285714
 20
233.8800197832
 30
0.0
 11
310.1714285714
 21
233.8800197832
 31
0.0
  0
LINE
  5
1F8
  8
DIM
 10
310.1714285714
 20
233.8800197832
 30
0.0
 11
316.5214285714
 21
233.8800197832
 31
0.0
  0
TEXT
  5
1F9
  8
DIM
 10
305.1530258227
 20
235.1164297671
 30
-47.25
 40
3.5
  1
8
 50
0.0
 41
0.7
 11
305.1530258227
 21
233.8800195503
 31
-47.25
 73
     1
  0
ENDBLK
  5
1F1
  8
0
  0
BLOCK
  8
0
  2
_D_12
 70
     0
 10
0.0
 20
0.0
 30
0.0
  3
_D_12
  1

  0
ARC
  5
26B
  8
DIM
 10
86.7039634006
 20
115.4274157488
 30
0.0
 40
6.37621018554247
 50
153.4349488229
 51
206.5650511771
  0
ARC
  5
26C
  8
DIM
 10
83.8524352851
 20
115.4274157488
 30
0.0
 40
6.37621018554247
 50
333.4349488229
 51
26.5650511771
  0
INSERT
  5
26D
  8
DIM
  2
_OPEN30
 10
93.7873490083
 20
112.4038046
 30
15.0
 41
3.0
 42
3.0
 50
0.0
  0
INSERT
  5
26E
  8
DIM
  2
_OPEN30
 10
97.7873490083
 20
112.4038046
 30
15.0
 41
3.0
 42
3.0
 50
180.0
  0
LINE
  5
26F
  8
DIM
 10
93.7873490083
 20
126.5063456403
 30
0.0
 11
93.7873490083
 21
111.4038046
 31
0.0
  0
LINE
  5
270
  8
DIM
 10
97.7873490083
 20
126.5063456403
 30
0.0
 11
97.7873490083
 21
111.4038046
 31
0.0
  0
LINE
  5
271
  8
DIM
 10
93.7873490083
 20
112.4038046
 30
0.0
 11
66.2737956711
 21
112.4038046
 31
0.0
  0
LINE
  5
272
  8
DIM
 10
93.7873490083
 20
112.4038046
 30
0.0
 11
97.7873490083
 21
112.4038046
 31
0.0
  0
LINE
  5
273
  8
DIM
 10
97.7873490083
 20
112.4038046
 30
0.0
 11
104.1373490083
 21
112.4038046
 31
0.0
  0
TEXT
  5
274
  8
DIM
 10
66.2737956711
 20
113.6402150495
 30
15.0
 40
3.5
  1
%%c
 41
0.7
 11
66.2737956711
 21
112.4038048328
 31
15.0
 73
     1
  0
TEXT
  5
275
  8
DIM
 10
70.1437261862
 20
113.6402150495
 30
15.0
 40
3.5
  1
4
 41
0.7
 11
70.1437261862
 21
112.4038048328
 31
15.0
 73
     1
  0
TEXT
  5
276
  8
DIM
 10
72.1805316837
 20
113.6402150495
 30
15.0
 40
3.5
  1
 H8 
 41
0.525
 11
72.1805316837
 21
112.4038048328
 31
15.0
 73
     1
  0
TEXT
  5
277
  8
DIM
 10
81.0009076352
 20
116.2929029878
 30
15.0
 40
2.45
  1
+
 41
0.7
 11
81.0009076352
 21
115.4274158361
 31
15.0
 73
     1
  0
TEXT
  5
278
  8
DIM
 10
81.0009076352
 20
113.4413751051
 30
15.0
 40
2.45
  1
 
 41
0.7
 11
81.0009076352
 21
112.5758879534
 31
15.0
 73
     1
  0
TEXT
  5
279
  8
DIM
 10
82.4266715765
 20
116.2929029878
 30
15.0
 40
2.45
  1
0.018
 41
0.7
 11
82.4266715765
 21
115.4274158361
 31
15.0
 73
     1
  0
TEXT
  5
27A
  8
DIM
 10
82.4266715765
 20
113.4413751051
 30
15.0
 40
2.45
  1
0
 41
0.7
 11
82.4266715765
 21
112.5758879534
 31
15.0
 73
     1
  0
ENDBLK
  5
26A
  8
0
  0
BLOCK
  8
0
  2
_D_13
 70
     0
 10
0.0
 20
0.0
 30
0.0
  3
_D_13
  1

  0
INSERT
  5
27F
  8
DIM
  2
_OPEN30
 10
79.4251004515
 20
126.0163456403
 30
15.0
 41
3.0
 42
3.0
 50
90.0
  0
INSERT
  5
280
  8
DIM
  2
_OPEN30
 10
79.4251004515
 20
130.0163456403
 30
15.0
 41
3.0
 42
3.0
 50
270.0
  0
LINE
  5
281
  8
DIM
 10
98.2773490083
 20
126.0163456403
 30
0.0
 11
78.4251004515
 21
126.0163456403
 31
0.0
  0
LINE
  5
282
  8
DIM
 10
93.7773490083
 20
130.0163456403
 30
0.0
 11
78.4251004515
 21
130.0163456403
 31
0.0
  0
LINE
  5
283
  8
DIM
 10
79.4251004515
 20
126.0163456403
 30
0.0
 11
79.4251004515
 21
119.6663456403
 31
0.0
  0
LINE
  5
284
  8
DIM
 10
79.4251004515
 20
126.0163456403
 30
0.0
 11
79.4251004515
 21
130.0163456403
 31
0.0
  0
LINE
  5
285
  8
DIM
 10
79.4251004515
 20
130.0163456403
 30
0.0
 11
79.4251004515
 21
136.3663456403
 31
0.0
  0
TEXT
  5
286
  8
DIM
 10
78.1886904676
 20
126.9979428915
 30
15.0
 40
3.5
  1
4
 50
90.0
 41
0.7
 11
79.4251006843
 21
126.9979428915
 31
15.0
 73
     1
  0
ENDBLK
  5
27E
  8
0
  0
BLOCK
  8
0
  2
_D_14
 70
     0
 10
0.0
 20
0.0
 30
0.0
  3
_D_14
  1

  0
INSERT
  5
28B
  8
DIM
  2
_OPEN30
 10
131.2228798513
 20
126.0163456403
 30
15.0
 41
3.0
 42
3.0
 50
90.0
  0
INSERT
  5
28C
  8
DIM
  2
_OPEN30
 10
131.2228798513
 20
130.0163456403
 30
15.0
 41
3.0
 42
3.0
 50
270.0
  0
LINE
  5
28D
  8
DIM
 10
135.7773490083
 20
130.0163456403
 30
0.0
 11
130.2228798513
 21
130.0163456403
 31
0.0
  0
LINE
  5
28E
  8
DIM
 10
131.2228798513
 20
126.0163456403
 30
0.0
 11
131.2228798513
 21
119.1653704629
 31
0.0
  0
LINE
  5
28F
  8
DIM
 10
131.2228798513
 20
126.0163456403
 30
0.0
 11
131.2228798513
 21
130.0163456403
 31
0.0
  0
LINE
  5
290
  8
DIM
 10
131.2228798513
 20
130.0163456403
 30
0.0
 11
131.2228798513
 21
136.3663456403
 31
0.0
  0
TEXT
  5
291
  8
DIM
 10
129.9864698674
 20
119.1653704629
 30
15.0
 40
3.5
  1
4
 50
90.0
 41
0.7
 11
131.2228800841
 21
119.1653704629
 31
15.0
 73
     1
  0
ENDBLK
  5
28A
  8
0
  0
BLOCK
  8
0
  2
_D_15
 70
     0
 10
0.0
 20
0.0
 30
0.0
  3
_D_15
  1

  0
INSERT
  5
2D4
  8
DIM
  2
_OPEN30
 10
135.7873490083
 20
98.2627181104
 30
0.0
 41
3.0
 42
3.0
 50
0.0
  0
INSERT
  5
2D5
  8
DIM
  2
_OPEN30
 10
141.7873490083
 20
98.2627181104
 30
0.0
 41
3.0
 42
3.0
 50
180.0
  0
LINE
  5
2D6
  8
DIM
 10
135.7873490083
 20
64.2333696011
 30
0.0
 11
135.7873490083
 21
99.2627181104
 31
0.0
  0
LINE
  5
2D7
  8
DIM
 10
141.7873490083
 20
64.2333696011
 30
0.0
 11
141.7873490083
 21
99.2627181104
 31
0.0
  0
LINE
  5
2D8
  8
DIM
 10
135.7873490083
 20
98.2627181104
 30
0.0
 11
128.4765940825
 21
98.2627181104
 31
0.0
  0
LINE
  5
2D9
  8
DIM
 10
135.7873490083
 20
98.2627181104
 30
0.0
 11
141.7873490083
 21
98.2627181104
 31
0.0
  0
LINE
  5
2DA
  8
DIM
 10
141.7873490083
 20
98.2627181104
 30
0.0
 11
148.1373490083
 21
98.2627181104
 31
0.0
  0
TEXT
  5
2DB
  8
DIM
 10
128.4765940825
 20
99.4991280943
 30
0.0
 40
3.5
  1
6
 41
0.7
 11
128.4765940825
 21
98.2627178776
 31
0.0
 73
     1
  0
ENDBLK
  5
2D3
  8
0
  0
BLOCK
  8
0
  2
_D_16
 70
     0
 10
0.0
 20
0.0
 30
0.0
  3
_D_16
  1

  0
INSERT
  5
2E0
  8
DIM
  2
_OPEN30
 10
95.7873490083
 20
105.0282991428
 30
0.0
 41
3.0
 42
3.0
 50
180.0
  0
INSERT
  5
2E1
  8
DIM
  2
_OPEN30
 10
138.7873490083
 20
105.0282991428
 30
0.0
 41
3.0
 42
3.0
 50
0.0
  0
LINE
  5
2E2
  8
DIM
 10
95.7873490083
 20
71.7333696011
 30
0.0
 11
95.7873490083
 21
106.0282991428
 31
0.0
  0
LINE
  5
2E3
  8
DIM
 10
138.7873490083
 20
68.3186954988
 30
0.0
 11
138.7873490083
 21
106.0282991428
 31
0.0
  0
LINE
  5
2E4
  8
DIM
 10
95.7873490083
 20
105.0282991428
 30
0.0
 11
138.7873490083
 21
105.0282991428
 31
0.0
  0
TEXT
  5
2E5
  8
DIM
 10
115.2505435108
 20
106.2647091267
 30
0.0
 40
3.5
  1
43
 41
0.7
 11
115.2505435108
 21
105.02829891
 31
0.0
 73
     1
  0
ENDBLK
  5
2DF
  8
0
  0
BLOCK
  8
0
  2
_D_17
 70
     0
 10
0.0
 20
0.0
 30
0.0
  3
_D_17
  1

  0
INSERT
  5
2EA
  8
DIM
  2
_OPEN30
 10
255.0636770475
 20
78.7233696011
 30
4.0
 41
3.0
 42
3.0
 50
90.0
  0
INSERT
  5
2EB
  8
DIM
  2
_OPEN30
 10
255.0636770475
 20
49.7233696011
 30
4.0
 41
3.0
 42
3.0
 50
270.0
  0
LINE
  5
2EC
  8
DIM
 10
233.7973490083
 20
78.7233696011
 30
0.0
 11
256.0636770475
 21
78.7233696011
 31
0.0
  0
LINE
  5
2ED
  8
DIM
 10
233.7973490083
 20
49.7233696011
 30
0.0
 11
256.0636770475
 21
49.7233696011
 31
0.0
  0
LINE
  5
2EE
  8
DIM
 10
255.0636770475
 20
78.7233696011
 30
0.0
 11
255.0636770475
 21
49.7233696011
 31
0.0
  0
TEXT
  5
2EF
  8
DIM
 10
253.8272670636
 20
62.1865641036
 30
4.0
 40
3.5
  1
29
 50
90.0
 41
0.7
 11
255.0636772803
 21
62.1865641036
 31
4.0
 73
     1
  0
ENDBLK
  5
2E9
  8
0
  0
BLOCK
  8
0
  2
_D_18
 70
     0
 10
0.0
 20
0.0
 30
0.0
  3
_D_18
  1

  0
INSERT
  5
2F4
  8
DIM
  2
_OPEN30
 10
241.7873490083
 20
24.941609554
 30
4.0
 41
3.0
 42
3.0
 50
0.0
  0
INSERT
  5
2F5
  8
DIM
  2
_OPEN30
 10
227.2873490083
 20
24.941609554
 30
4.0
 41
3.0
 42
3.0
 50
180.0
  0
LINE
  5
2F6
  8
DIM
 10
241.7873490083
 20
37.2133696011
 30
0.0
 11
241.7873490083
 21
23.941609554
 31
0.0
  0
LINE
  5
2F7
  8
DIM
 10
227.2873490083
 20
72.2133696011
 30
0.0
 11
227.2873490083
 21
23.941609554
 31
0.0
  0
LINE
  5
2F8
  8
DIM
 10
241.7873490083
 20
24.941609554
 30
0.0
 11
227.2873490083
 21
24.941609554
 31
0.0
  0
TEXT
  5
2F9
  8
DIM
 10
230.4637380133
 20
26.1780195379
 30
4.0
 40
3.5
  1
14.5
 50
0.0
 41
0.7
 11
230.4637380133
 21
24.9416093212
 31
4.0
 73
     1
  0
ENDBLK
  5
2F3
  8
0
  0
BLOCK
  8
0
  2
_D_19
 70
     0
 10
0.0
 20
0.0
 30
0.0
  3
_D_19
  1

  0
INSERT
  5
2FE
  8
DIM
  2
_OPEN30
 10
219.2873490083
 20
108.8527876381
 30
4.0
 41
3.0
 42
3.0
 50
180.0
  0
INSERT
  5
2FF
  8
DIM
  2
_OPEN30
 10
235.2873490083
 20
108.8527876381
 30
4.0
 41
3.0
 42
3.0
 50
0.0
  0
LINE
  5
300
  8
DIM
 10
219.2873490083
 20
85.4333696011
 30
0.0
 11
219.2873490083
 21
109.8527876381
 31
0.0
  0
LINE
  5
301
  8
DIM
 10
235.2873490083
 20
85.4333696011
 30
0.0
 11
235.2873490083
 21
109.8527876381
 31
0.0
  0
LINE
  5
302
  8
DIM
 10
219.2873490083
 20
108.8527876381
 30
0.0
 11
235.2873490083
 21
108.8527876381
 31
0.0
  0
TEXT
  5
303
  8
DIM
 10
225.2505435108
 20
110.089197622
 30
4.0
 40
3.5
  1
16
 41
0.7
 11
225.2505435108
 21
108.8527874053
 31
4.0
 73
     1
  0
ENDBLK
  5
2FD
  8
0
  0
BLOCK
  8
0
  2
_D_20
 70
     0
 10
0.0
 20
0.0
 30
0.0
  3
_D_20
  1

  0
INSERT
  5
308
  8
DIM
  2
_OPEN30
 10
227.2873490083
 20
100.2122467654
 30
4.0
 41
3.0
 42
3.0
 50
180.0
  0
INSERT
  5
309
  8
DIM
  2
_OPEN30
 10
235.2873490083
 20
100.2122467654
 30
4.0
 41
3.0
 42
3.0
 50
0.0
  0
LINE
  5
30A
  8
DIM
 10
227.2873490083
 20
85.2333696011
 30
0.0
 11
227.2873490083
 21
101.2122467654
 31
0.0
  0
LINE
  5
30B
  8
DIM
 10
235.2873490083
 20
85.4333696011
 30
0.0
 11
235.2873490083
 21
101.2122467654
 31
0.0
  0
LINE
  5
30C
  8
DIM
 10
227.2873490083
 20
100.2122467654
 30
0.0
 11
235.2873490083
 21
100.2122467654
 31
0.0
  0
TEXT
  5
30D
  8
DIM
 10
230.2689462595
 20
101.4486567493
 30
4.0
 40
3.5
  1
8
 41
0.7
 11
230.2689462595
 21
100.2122465326
 31
4.0
 73
     1
  0
ENDBLK
  5
307
  8
0
  0
BLOCK
  8
0
  2
_D_21
 70
     0
 10
0.0
 20
0.0
 30
0.0
  3
_D_21
  1

  0
ARC
  5
312
  8
DIM
 10
148.1643707065
 20
116.539800989
 30
0.0
 40
6.37621018554247
 50
243.4349488229
 51
296.5650511771
  0
ARC
  5
313
  8
DIM
 10
148.1643707065
 20
113.6882728735
 30
0.0
 40
6.376210185542482
 50
63.4349488229
 51
116.5650511771
  0
INSERT
  5
314
  8
DIM
  2
_OPEN30
 10
151.1879813896
 20
66.2233696011
 30
4.0
 41
3.0
 42
3.0
 50
270.0
  0
INSERT
  5
315
  8
DIM
  2
_OPEN30
 10
151.1879813896
 20
62.2233696011
 30
4.0
 41
3.0
 42
3.0
 50
90.0
  0
LINE
  5
316
  8
DIM
 10
139.7973490083
 20
66.2233696011
 30
0.0
 11
152.1879813896
 21
66.2233696011
 31
0.0
  0
LINE
  5
317
  8
DIM
 10
139.7973490083
 20
62.2233696011
 30
0.0
 11
152.1879813896
 21
62.2233696011
 31
0.0
  0
LINE
  5
318
  8
DIM
 10
151.1879813896
 20
66.2233696011
 30
0.0
 11
151.1879813896
 21
120.0644829497
 31
0.0
  0
LINE
  5
319
  8
DIM
 10
151.1879813896
 20
66.2233696011
 30
0.0
 11
151.1879813896
 21
62.2233696011
 31
0.0
  0
LINE
  5
31A
  8
DIM
 10
151.1879813896
 20
62.2233696011
 30
0.0
 11
151.1879813896
 21
55.8733696011
 31
0.0
  0
TEXT
  5
31B
  8
DIM
 10
149.9515714058
 20
99.9795635418
 30
4.0
 40
3.5
  1
4
 50
90.0
 41
0.7
 11
151.1879816225
 21
99.9795635418
 31
4.0
 73
     1
  0
TEXT
  5
31C
  8
DIM
 10
149.9515714058
 20
102.0163690393
 30
4.0
 40
3.5
  1
 H8 
 50
90.0
 41
0.525
 11
151.1879816225
 21
102.0163690393
 31
4.0
 73
     1
  0
TEXT
  5
31D
  8
DIM
 10
147.2988834675
 20
110.8367452236
 30
4.0
 40
2.45
  1
+
 50
90.0
 41
0.7
 11
148.1643706192
 21
110.8367452236
 31
4.0
 73
     1
  0
TEXT
  5
31E
  8
DIM
 10
150.1504113502
 20
110.8367452236
 30
4.0
 40
2.45
  1
 
 50
90.0
 41
0.7
 11
151.0158985019
 21
110.8367452236
 31
4.0
 73
     1
  0
TEXT
  5
31F
  8
DIM
 10
147.2988834675
 20
112.2625091649
 30
4.0
 40
2.45
  1
0.018
 50
90.0
 41
0.7
 11
148.1643706192
 21
112.2625091649
 31
4.0
 73
     1
  0
TEXT
  5
320
  8
DIM
 10
150.1504113502
 20
112.2625091649
 30
4.0
 40
2.45
  1
0
 50
90.0
 41
0.7
 11
151.0158985019
 21
112.2625091649
 31
4.0
 73
     1
  0
ENDBLK
  5
311
  8
0
  0
BLOCK
  8
0
  2
SW_CENTERMARKSYMBOL_8
 70
     0
 10
0.0
 20
0.0
 30
0.0
  3
SW_CENTERMARKSYMBOL_8
  1

  0
LINE
  5
324
  8
DIM
 62
     0
 10
0.0
 20
0.0
 30
0.0
 11
0.0
 21
5.0
 31
0.0
  0
LINE
  5
325
  8
DIM
 62
     0
 10
0.0
 20
0.0
 30
0.0
 11
-5.0
 21
0.0
 31
0.0
  0
LINE
  5
326
  8
DIM
 62
     0
 10
0.0
 20
0.0
 30
0.0
 11
0.0
 21
-5.0
 31
0.0
  0
LINE
  5
327
  8
DIM
 62
     0
 10
0.0
 20
0.0
 30
0.0
 11
5.0
 21
0.0
 31
0.0
  0
LINE
  5
328
  8
DIM
 62
     0
 10
0.0
 20
5.0
 30
0.0
 11
0.0
 21
6.5
 31
0.0
  0
LINE
  5
329
  8
DIM
 62
     0
 10
-5.0
 20
0.0
 30
0.0
 11
-6.5
 21
0.0
 31
0.0
  0
LINE
  5
32A
  8
DIM
 62
     0
 10
0.0
 20
-5.0
 30
0.0
 11
0.0
 21
-6.5
 31
0.0
  0
LINE
  5
32B
  8
DIM
 62
     0
 10
5.0
 20
0.0
 30
0.0
 11
6.5
 21
0.0
 31
0.0
  0
ENDBLK
  5
323
  8
0
  0
BLOCK
  8
0
  2
SW_CENTERMARKSYMBOL_9
 70
     0
 10
0.0
 20
0.0
 30
0.0
  3
SW_CENTERMARKSYMBOL_9
  1

  0
LINE
  5
330
  8
DIM
 62
     0
 10
0.0
 20
0.0
 30
0.0
 11
0.0
 21
5.0
 31
0.0
  0
LINE
  5
331
  8
DIM
 62
     0
 10
0.0
 20
0.0
 30
0.0
 11
-5.0
 21
0.0
 31
0.0
  0
LINE
  5
332
  8
DIM
 62
     0
 10
0.0
 20
0.0
 30
0.0
 11
0.0
 21
-5.0
 31
0.0
  0
LINE
  5
333
  8
DIM
 62
     0
 10
0.0
 20
0.0
 30
0.0
 11
5.0
 21
0.0
 31
0.0
  0
LINE
  5
334
  8
DIM
 62
     0
 10
0.0
 20
5.0
 30
0.0
 11
0.0
 21
6.5
 31
0.0
  0
LINE
  5
335
  8
DIM
 62
     0
 10
-5.0
 20
0.0
 30
0.0
 11
-6.5
 21
0.0
 31
0.0
  0
LINE
  5
336
  8
DIM
 62
     0
 10
0.0
 20
-5.0
 30
0.0
 11
0.0
 21
-6.5
 31
0.0
  0
LINE
  5
337
  8
DIM
 62
     0
 10
5.0
 20
0.0
 30
0.0
 11
6.5
 21
0.0
 31
0.0
  0
ENDBLK
  5
32F
  8
0
  0
BLOCK
  8
0
  2
SW_CENTERMARKSYMBOL_10
 70
     0
 10
0.0
 20
0.0
 30
0.0
  3
SW_CENTERMARKSYMBOL_10
  1

  0
LINE
  5
33C
  8
DIM
 62
     0
 10
0.0
 20
0.0
 30
0.0
 11
0.0
 21
5.0
 31
0.0
  0
LINE
  5
33D
  8
DIM
 62
     0
 10
0.0
 20
0.0
 30
0.0
 11
-5.0
 21
0.0
 31
0.0
  0
LINE
  5
33E
  8
DIM
 62
     0
 10
0.0
 20
0.0
 30
0.0
 11
0.0
 21
-5.0
 31
0.0
  0
LINE
  5
33F
  8
DIM
 62
     0
 10
0.0
 20
0.0
 30
0.0
 11
5.0
 21
0.0
 31
0.0
  0
LINE
  5
340
  8
DIM
 62
     0
 10
0.0
 20
5.0
 30
0.0
 11
0.0
 21
6.7
 31
0.0
  0
LINE
  5
341
  8
DIM
 62
     0
 10
-5.0
 20
0.0
 30
0.0
 11
-6.7
 21
0.0
 31
0.0
  0
LINE
  5
342
  8
DIM
 62
     0
 10
0.0
 20
-5.0
 30
0.0
 11
0.0
 21
-6.7
 31
0.0
  0
LINE
  5
343
  8
DIM
 62
     0
 10
5.0
 20
0.0
 30
0.0
 11
6.7
 21
0.0
 31
0.0
  0
ENDBLK
  5
33B
  8
0
  0
BLOCK
  8
0
  2
SW_CENTERMARKSYMBOL_11
 70
     0
 10
0.0
 20
0.0
 30
0.0
  3
SW_CENTERMARKSYMBOL_11
  1

  0
LINE
  5
348
  8
DIM
 62
     0
 10
0.0
 20
0.0
 30
0.0
 11
0.0
 21
5.0
 31
0.0
  0
LINE
  5
349
  8
DIM
 62
     0
 10
0.0
 20
0.0
 30
0.0
 11
-5.0
 21
0.0
 31
0.0
  0
LINE
  5
34A
  8
DIM
 62
     0
 10
0.0
 20
0.0
 30
0.0
 11
0.0
 21
-5.0
 31
0.0
  0
LINE
  5
34B
  8
DIM
 62
     0
 10
0.0
 20
0.0
 30
0.0
 11
5.0
 21
0.0
 31
0.0
  0
LINE
  5
34C
  8
DIM
 62
     0
 10
0.0
 20
5.0
 30
0.0
 11
0.0
 21
6.7
 31
0.0
  0
LINE
  5
34D
  8
DIM
 62
     0
 10
-5.0
 20
0.0
 30
0.0
 11
-6.7
 21
0.0
 31
0.0
  0
LINE
  5
34E
  8
DIM
 62
     0
 10
0.0
 20
-5.0
 30
0.0
 11
0.0
 21
-6.7
 31
0.0
  0
LINE
  5
34F
  8
DIM
 62
     0
 10
5.0
 20
0.0
 30
0.0
 11
6.7
 21
0.0
 31
0.0
  0
ENDBLK
  5
347
  8
0
  0
BLOCK
  8
0
  2
SW_CENTERMARKSYMBOL_12
 70
     0
 10
0.0
 20
0.0
 30
0.0
  3
SW_CENTERMARKSYMBOL_12
  1

  0
LINE
  5
354
  8
DIM
 62
     0
 10
0.0
 20
0.0
 30
0.0
 11
0.0
 21
5.0
 31
0.0
  0
LINE
  5
355
  8
DIM
 62
     0
 10
0.0
 20
0.0
 30
0.0
 11
-5.0
 21
0.0
 31
0.0
  0
LINE
  5
356
  8
DIM
 62
     0
 10
0.0
 20
0.0
 30
0.0
 11
0.0
 21
-5.0
 31
0.0
  0
LINE
  5
357
  8
DIM
 62
     0
 10
0.0
 20
0.0
 30
0.0
 11
5.0
 21
0.0
 31
0.0
  0
LINE
  5
358
  8
DIM
 62
     0
 10
0.0
 20
5.0
 30
0.0
 11
0.0
 21
6.7
 31
0.0
  0
LINE
  5
359
  8
DIM
 62
     0
 10
-5.0
 20
0.0
 30
0.0
 11
-6.7
 21
0.0
 31
0.0
  0
LINE
  5
35A
  8
DIM
 62
     0
 10
0.0
 20
-5.0
 30
0.0
 11
0.0
 21
-6.7
 31
0.0
  0
LINE
  5
35B
  8
DIM
 62
     0
 10
5.0
 20
0.0
 30
0.0
 11
6.7
 21
0.0
 31
0.0
  0
ENDBLK
  5
353
  8
0
  0
BLOCK
  8
0
  2
SW_CENTERMARKSYMBOL_13
 70
     0
 10
0.0
 20
0.0
 30
0.0
  3
SW_CENTERMARKSYMBOL_13
  1

  0
LINE
  5
360
  8
DIM
 62
     0
 10
0.0
 20
0.0
 30
0.0
 11
0.0
 21
5.0
 31
0.0
  0
LINE
  5
361
  8
DIM
 62
     0
 10
0.0
 20
0.0
 30
0.0
 11
-5.0
 21
0.0
 31
0.0
  0
LINE
  5
362
  8
DIM
 62
     0
 10
0.0
 20
0.0
 30
0.0
 11
0.0
 21
-5.0
 31
0.0
  0
LINE
  5
363
  8
DIM
 62
     0
 10
0.0
 20
0.0
 30
0.0
 11
5.0
 21
0.0
 31
0.0
  0
LINE
  5
364
  8
DIM
 62
     0
 10
0.0
 20
5.0
 30
0.0
 11
0.0
 21
6.7
 31
0.0
  0
LINE
  5
365
  8
DIM
 62
     0
 10
-5.0
 20
0.0
 30
0.0
 11
-6.7
 21
0.0
 31
0.0
  0
LINE
  5
366
  8
DIM
 62
     0
 10
0.0
 20
-5.0
 30
0.0
 11
0.0
 21
-6.7
 31
0.0
  0
LINE
  5
367
  8
DIM
 62
     0
 10
5.0
 20
0.0
 30
0.0
 11
6.7
 21
0.0
 31
0.0
  0
ENDBLK
  5
35F
  8
0
  0
BLOCK
  8
0
  2
SW_CENTERMARKSYMBOL_14
 70
     0
 10
0.0
 20
0.0
 30
0.0
  3
SW_CENTERMARKSYMBOL_14
  1

  0
LINE
  5
36C
  8
DIM
 62
     0
 10
0.0
 20
0.0
 30
0.0
 11
0.0
 21
5.0
 31
0.0
  0
LINE
  5
36D
  8
DIM
 62
     0
 10
0.0
 20
0.0
 30
0.0
 11
-5.0
 21
0.0
 31
0.0
  0
LINE
  5
36E
  8
DIM
 62
     0
 10
0.0
 20
0.0
 30
0.0
 11
0.0
 21
-5.0
 31
0.0
  0
LINE
  5
36F
  8
DIM
 62
     0
 10
0.0
 20
0.0
 30
0.0
 11
5.0
 21
0.0
 31
0.0
  0
LINE
  5
370
  8
DIM
 62
     0
 10
0.0
 20
10.0
 30
0.0
 11
0.0
 21
34.4847463288
 31
0.0
  0
LINE
  5
371
  8
DIM
 62
     0
 10
-10.0
 20
0.0
 30
0.0
 11
-34.9354807031
 21
0.0
 31
0.0
  0
LINE
  5
372
  8
DIM
 62
     0
 10
0.0
 20
-10.0
 30
0.0
 11
0.0
 21
-34.7173773917
 31
0.0
  0
LINE
  5
373
  8
DIM
 62
     0
 10
10.0
 20
0.0
 30
0.0
 11
130.8884761364
 21
0.0
 31
0.0
  0
ENDBLK
  5
36B
  8
0
  0
BLOCK
  8
0
  2
SW_CENTERMARKSYMBOL_15
 70
     0
 10
0.0
 20
0.0
 30
0.0
  3
SW_CENTERMARKSYMBOL_15
  1

  0
LINE
  5
378
  8
DIM
 62
     0
 10
0.0
 20
0.0
 30
0.0
 11
0.0
 21
5.0
 31
0.0
  0
LINE
  5
379
  8
DIM
 62
     0
 10
0.0
 20
0.0
 30
0.0
 11
-5.0
 21
0.0
 31
0.0
  0
LINE
  5
37A
  8
DIM
 62
     0
 10
0.0
 20
0.0
 30
0.0
 11
0.0
 21
-5.0
 31
0.0
  0
LINE
  5
37B
  8
DIM
 62
     0
 10
0.0
 20
0.0
 30
0.0
 11
5.0
 21
0.0
 31
0.0
  0
LINE
  5
37C
  8
DIM
 62
     0
 10
0.0
 20
5.0
 30
0.0
 11
0.0
 21
7.5
 31
0.0
  0
LINE
  5
37D
  8
DIM
 62
     0
 10
-5.0
 20
0.0
 30
0.0
 11
-7.5
 21
0.0
 31
0.0
  0
LINE
  5
37E
  8
DIM
 62
     0
 10
0.0
 20
-5.0
 30
0.0
 11
0.0
 21
-7.5
 31
0.0
  0
LINE
  5
37F
  8
DIM
 62
     0
 10
5.0
 20
0.0
 30
0.0
 11
7.5
 21
0.0
 31
0.0
  0
ENDBLK
  5
377
  8
0
  0
BLOCK
  8
0
  2
_D_22
 70
     0
 10
0.0
 20
0.0
 30
0.0
  3
_D_22
  1

  0
ARC
  5
3BE
  8
DIM
 10
316.1372122414
 20
91.086266447
 30
0.0
 40
6.37621018554247
 50
153.4349488229
 51
206.5650511771
  0
ARC
  5
3BF
  8
DIM
 10
313.2856841258
 20
91.086266447
 30
0.0
 40
6.37621018554247
 50
333.4349488229
 51
26.5650511771
  0
INSERT
  5
3C0
  8
DIM
  2
_OPEN30
 10
286.7750533506
 20
88.0626552981
 30
7.75
 41
3.0
 42
3.0
 50
0.0
  0
INSERT
  5
3C1
  8
DIM
  2
_OPEN30
 10
289.7750533506
 20
88.0626552981
 30
7.75
 41
3.0
 42
3.0
 50
180.0
  0
LINE
  5
3C2
  8
DIM
 10
286.7750533506
 20
100.1028293673
 30
0.0
 11
286.7750533506
 21
87.0626552981
 31
0.0
  0
LINE
  5
3C3
  8
DIM
 10
289.7750533506
 20
100.1028293673
 30
0.0
 11
289.7750533506
 21
87.0626552981
 31
0.0
  0
LINE
  5
3C4
  8
DIM
 10
286.7750533506
 20
88.0626552981
 30
0.0
 11
280.4250533506
 21
88.0626552981
 31
0.0
  0
LINE
  5
3C5
  8
DIM
 10
286.7750533506
 20
88.0626552981
 30
0.0
 11
289.7750533506
 21
88.0626552981
 31
0.0
  0
LINE
  5
3C6
  8
DIM
 10
289.7750533506
 20
88.0626552981
 30
0.0
 11
319.6618960647
 21
88.0626552981
 31
0.0
  0
TEXT
  5
3C7
  8
DIM
 10
291.6334339826
 20
89.2990657477
 30
7.75
 40
3.5
  1
2x
 41
0.7
 11
291.6334339826
 21
88.062655531
 31
7.75
 73
     1
  0
TEXT
  5
3C8
  8
DIM
 10
295.7070449775
 20
89.2990657477
 30
7.75
 40
3.5
  1
%%c
 41
0.7
 11
295.7070449775
 21
88.062655531
 31
7.75
 73
     1
  0
TEXT
  5
3C9
  8
DIM
 10
299.5769757254
 20
89.2990657477
 30
7.75
 40
3.5
  1
3
 41
0.7
 11
299.5769757254
 21
88.062655531
 31
7.75
 73
     1
  0
TEXT
  5
3CA
  8
DIM
 10
301.6137809901
 20
89.2990657477
 30
7.75
 40
3.5
  1
 H8 
 41
0.525
 11
301.6137809901
 21
88.062655531
 31
7.75
 73
     1
  0
TEXT
  5
3CB
  8
DIM
 10
310.4341564759
 20
91.951753686
 30
7.75
 40
2.45
  1
+
 41
0.7
 11
310.4341564759
 21
91.0862665343
 31
7.75
 73
     1
  0
TEXT
  5
3CC
  8
DIM
 10
310.4341564759
 20
89.1002258032
 30
7.75
 40
2.45
  1
 
 41
0.7
 11
310.4341564759
 21
88.2347386515
 31
7.75
 73
     1
  0
TEXT
  5
3CD
  8
DIM
 10
311.8599204173
 20
91.951753686
 30
7.75
 40
2.45
  1
0.014
 41
0.7
 11
311.8599204173
 21
91.0862665343
 31
7.75
 73
     1
  0
TEXT
  5
3CE
  8
DIM
 10
311.8599204173
 20
89.1002258032
 30
7.75
 40
2.45
  1
0
 41
0.7
 11
311.8599204173
 21
88.2347386515
 31
7.75
 73
     1
  0
ENDBLK
  5
3BD
  8
0
  0
BLOCK
  8
0
  2
_D_23
 70
     0
 10
0.0
 20
0.0
 30
0.0
  3
_D_23
  1

  0
INSERT
  5
3D3
  8
DIM
  2
_OPEN30
 10
284.7902642916
 20
99.6128293673
 30
7.75
 41
3.0
 42
3.0
 50
90.0
  0
INSERT
  5
3D4
  8
DIM
  2
_OPEN30
 10
284.7902642916
 20
102.6128293673
 30
7.75
 41
3.0
 42
3.0
 50
270.0
  0
LINE
  5
3D5
  8
DIM
 10
286.7650533506
 20
102.6128293673
 30
0.0
 11
283.7902642916
 21
102.6128293673
 31
0.0
  0
LINE
  5
3D6
  8
DIM
 10
284.7902642916
 20
99.6128293673
 30
0.0
 11
284.7902642916
 21
93.681122132
 31
0.0
  0
LINE
  5
3D7
  8
DIM
 10
284.7902642916
 20
99.6128293673
 30
0.0
 11
284.7902642916
 21
102.6128293673
 31
0.0
  0
LINE
  5
3D8
  8
DIM
 10
284.7902642916
 20
102.6128293673
 30
0.0
 11
284.7902642916
 21
108.9628293673
 31
0.0
  0
TEXT
  5
3D9
  8
DIM
 10
283.5538543078
 20
93.681122132
 30
7.75
 40
3.5
  1
3
 50
90.0
 41
0.7
 11
284.7902645245
 21
93.681122132
 31
7.75
 73
     1
  0
ENDBLK
  5
3D2
  8
0
  0
ENDSEC
  0
SECTION
  2
ENTITIES
  0
LINE
  5
76
  8
0
  6
CONTINUOUS
 62
     7
 10
238.7873490083
 20
165.7346205732
 30
0.0
 11
117.2873490083
 21
165.7346205732
 31
0.0
  0
LINE
  5
77
  8
0
  6
CONTINUOUS
 62
     7
 10
117.2873490083
 20
166.7346205732
 30
0.0
 11
238.3731354459
 21
166.7346205732
 31
0.0
  0
LINE
  5
78
  8
0
  6
CONTINUOUS
 62
     7
 10
238.7873490083
 20
165.7346205732
 30
0.0
 11
238.3731354459
 21
166.7346205732
 31
0.0
  0
LINE
  5
79
  8
0
  6
CONTINUOUS
 62
     7
 10
240.7873490083
 20
169.1488341356
 30
0.0
 11
240.7873490083
 21
222.3204070108
 31
0.0
  0
LINE
  5
7A
  8
0
  6
CONTINUOUS
 62
     7
 10
240.7873490083
 20
222.3204070108
 30
0.0
 11
241.7873490083
 21
222.7346205732
 31
0.0
  0
LINE
  5
7B
  8
0
  6
CONTINUOUS
 62
     7
 10
241.7873490083
 20
222.7346205732
 30
0.0
 11
241.7873490083
 21
168.7346205732
 31
0.0
  0
LINE
  5
7C
  8
0
  6
CONTINUOUS
 62
     7
 10
240.7873490083
 20
169.1488341356
 30
0.0
 11
241.7873490083
 21
168.7346205732
 31
0.0
  0
CIRCLE
  5
7D
  8
0
  6
CONTINUOUS
 62
     7
 10
235.2873490083
 20
181.2346205732
 30
0.0
 40
3.250000000000028
  0
CIRCLE
  5
7E
  8
0
  6
CONTINUOUS
 62
     7
 10
219.2873490083
 20
181.2346205732
 30
0.0
 40
3.250000000000028
  0
CIRCLE
  5
7F
  8
0
  6
CONTINUOUS
 62
     7
 10
235.2873490083
 20
210.2346205732
 30
0.0
 40
3.250000000000028
  0
CIRCLE
  5
80
  8
0
  6
CONTINUOUS
 62
     7
 10
219.2873490083
 20
210.2346205732
 30
0.0
 40
3.250000000000028
  0
CIRCLE
  5
81
  8
0
  6
CONTINUOUS
 62
     7
 10
98.6678028269
 20
206.4846205732
 30
0.0
 40
3.250000000000014
  0
CIRCLE
  5
82
  8
0
  6
CONTINUOUS
 62
     7
 10
117.2873490083
 20
174.2346205732
 30
0.0
 40
3.25
  0
CIRCLE
  5
83
  8
0
  6
CONTINUOUS
 62
     7
 10
135.9068951896
 20
184.9846205732
 30
0.0
 40
3.249999999999972
  0
CIRCLE
  5
84
  8
0
  6
CONTINUOUS
 62
     7
 10
135.9068951896
 20
206.4846205732
 30
0.0
 40
3.249999999999972
  0
CIRCLE
  5
85
  8
0
  6
CONTINUOUS
 62
     7
 10
117.2873490083
 20
217.2346205732
 30
0.0
 40
3.249999999999986
  0
CIRCLE
  5
86
  8
0
  6
CONTINUOUS
 62
     7
 10
186.7873490083
 20
195.7346205732
 30
0.0
 40
1.650000000000006
  0
CIRCLE
  5
87
  8
0
  6
CONTINUOUS
 62
     7
 10
117.2873490083
 20
195.7346205732
 30
0.0
 40
12.99999999999996
  0
LINE
  5
88
  8
0
  6
CONTINUOUS
 62
     7
 10
238.3731354459
 20
166.7346205732
 30
0.0
 11
240.7873490083
 21
169.1488341356
 31
0.0
  0
ARC
  5
89
  8
0
  6
CONTINUOUS
 62
     7
 10
117.2873490083
 20
195.7346205732
 30
0.0
 40
29.0
 50
90.0
 51
270.0
  0
LINE
  5
8A
  8
0
  6
CONTINUOUS
 62
     7
 10
238.3731354459
 20
224.7346205732
 30
0.0
 11
117.2873490083
 21
224.7346205732
 31
0.0
  0
LINE
  5
8B
  8
0
  6
CONTINUOUS
 62
     7
 10
240.7873490083
 20
222.3204070108
 30
0.0
 11
238.3731354459
 21
224.7346205732
 31
0.0
  0
LINE
  5
8C
  8
0
  6
CONTINUOUS
 62
     7
 10
156.2873490083
 20
193.2346205732
 30
0.0
 11
154.2873490083
 21
193.2346205732
 31
0.0
  0
ARC
  5
8D
  8
0
  6
CONTINUOUS
 62
     7
 10
156.2873490083
 20
195.7346205732
 30
0.0
 40
2.500000000000028
 50
270.0
 51
90.0
  0
LINE
  5
8E
  8
0
  6
CONTINUOUS
 62
     7
 10
154.2873490083
 20
198.2346205732
 30
0.0
 11
156.2873490083
 21
198.2346205732
 31
0.0
  0
ARC
  5
8F
  8
0
  6
CONTINUOUS
 62
     7
 10
154.2873490083
 20
195.7346205732
 30
0.0
 40
2.500000000000028
 50
90.0
 51
270.0
  0
CIRCLE
  5
90
  8
0
  6
CONTINUOUS
 62
     7
 10
98.6678028269
 20
184.9846205732
 30
0.0
 40
3.250000000000014
  0
CIRCLE
  5
91
  8
0
  6
CONTINUOUS
 62
     7
 10
146.7873490083
 20
195.7346205732
 30
0.0
 40
1.650000000000006
  0
LINE
  5
92
  8
0
  6
CONTINUOUS
 62
     7
 10
117.2873490083
 20
225.7346205732
 30
0.0
 11
238.7873490083
 21
225.7346205732
 31
0.0
  0
LINE
  5
93
  8
0
  6
CONTINUOUS
 62
     7
 10
238.3731354459
 20
224.7346205732
 30
0.0
 11
238.7873490083
 21
225.7346205732
 31
0.0
  0
LINE
  5
94
  8
0
  6
CONTINUOUS
 62
     7
 10
156.2873490083
 20
197.7346205732
 30
0.0
 11
154.2873490083
 21
197.7346205732
 31
0.0
  0
CIRCLE
  5
95
  8
0
  6
CONTINUOUS
 62
     7
 10
117.2873490083
 20
195.7346205732
 30
0.0
 40
9.999999999999986
  0
ARC
  5
96
  8
0
  6
CONTINUOUS
 62
     7
 10
154.2873490083
 20
195.7346205732
 30
0.0
 40
2.000000000000028
 50
90.0
 51
270.0
  0
LINE
  5
97
  8
0
  6
CONTINUOUS
 62
     7
 10
241.7873490083
 20
168.7346205732
 30
0.0
 11
238.7873490083
 21
165.7346205732
 31
0.0
  0
ARC
  5
98
  8
0
  6
CONTINUOUS
 62
     7
 10
156.2873490083
 20
195.7346205732
 30
0.0
 40
2.000000000000028
 50
270.0
 51
90.0
  0
LINE
  5
99
  8
0
  6
CONTINUOUS
 62
     7
 10
238.7873490083
 20
225.7346205732
 30
0.0
 11
241.7873490083
 21
222.7346205732
 31
0.0
  0
ARC
  5
9A
  8
0
  6
CONTINUOUS
 62
     7
 10
117.2873490083
 20
195.7346205732
 30
0.0
 40
30.0
 50
90.0
 51
270.0
  0
LINE
  5
9B
  8
0
  6
CONTINUOUS
 62
     7
 10
154.2873490083
 20
193.7346205732
 30
0.0
 11
156.2873490083
 21
193.7346205732
 31
0.0
  0
CIRCLE
  5
9C
  8
0
  6
CONTINUOUS
 62
     7
 10
219.2873490083
 20
210.2346205732
 30
0.0
 40
1.699999999999989
  0
CIRCLE
  5
9D
  8
0
  6
CONTINUOUS
 62
     7
 10
219.2873490083
 20
181.2346205732
 30
0.0
 40
1.699999999999989
  0
CIRCLE
  5
9E
  8
0
  6
CONTINUOUS
 62
     7
 10
235.2873490083
 20
210.2346205732
 30
0.0
 40
1.700000000000017
  0
CIRCLE
  5
9F
  8
0
  6
CONTINUOUS
 62
     7
 10
235.2873490083
 20
181.2346205732
 30
0.0
 40
1.700000000000017
  0
CIRCLE
  5
A0
  8
0
  6
CONTINUOUS
 62
     7
 10
117.2873490083
 20
174.2346205732
 30
0.0
 40
1.700000000000003
  0
CIRCLE
  5
A1
  8
0
  6
CONTINUOUS
 62
     7
 10
135.9068951896
 20
206.4846205732
 30
0.0
 40
1.69999999999996
  0
CIRCLE
  5
A2
  8
0
  6
CONTINUOUS
 62
     7
 10
135.9068951896
 20
184.9846205732
 30
0.0
 40
1.69999999999996
  0
CIRCLE
  5
A3
  8
0
  6
CONTINUOUS
 62
     7
 10
98.6678028269
 20
206.4846205732
 30
0.0
 40
1.700000000000017
  0
CIRCLE
  5
A4
  8
0
  6
CONTINUOUS
 62
     7
 10
98.6678028269
 20
184.9846205732
 30
0.0
 40
1.700000000000017
  0
CIRCLE
  5
A5
  8
0
  6
CONTINUOUS
 62
     7
 10
117.2873490083
 20
217.2346205732
 30
0.0
 40
1.700000000000003
  0
LINE
  5
A6
  8
0
  6
CENTERX2
 62
     7
 10
155.2873490083
 20
202.5704829752
 30
0.0
 11
155.2873490083
 21
188.0379014612
 31
0.0
  0
POINT
  5
A7
  8
0
  6
CONTINUOUS
 62
     7
 10
87.2873490083
 20
195.7346205732
 30
0.0
  0
POINT
  5
A8
  8
0
  6
CONTINUOUS
 62
     7
 10
158.2873490083
 20
195.7346205732
 30
0.0
  0
POINT
  5
A9
  8
0
  6
CONTINUOUS
 62
     7
 10
152.2873490083
 20
195.7346205732
 30
0.0
  0
DIMENSION
  5
AA
  8
DIM
  2
_D
 10
241.7873490083
 20
267.7962546382
 30
0.0
 11
164.5373490083
 21
267.7962546382
 31
0.0
 70
   160
  1
<>
  3
SLDDIMSTYLE0
 13
87.2873490083
 23
195.7346205732
 33
0.0
 14
241.7873490083
 24
222.7346205732
 34
0.0
  0
DIMENSION
  5
BB
  8
DIM
  2
_D_1
 10
158.2873490083
 20
232.5383798515
 30
0.0
 11
164.5373490083
 21
232.5383798515
 31
0.0
 70
   160
  1
<>
  3
SLDDIMSTYLE1
 13
152.2873490083
 23
195.7346205732
 33
0.0
 14
158.2873490083
 24
195.7346205732
 34
0.0
  0
DIMENSION
  5
C8
  8
DIM
  2
_D_2
 10
155.2873490083
 20
242.7495879206
 30
0.0
 11
136.2873490083
 21
242.7495879206
 31
0.0
 70
   160
  1
<>
  3
SLDDIMSTYLE0
 13
117.2873490083
 23
225.4846205732
 33
0.0
 14
155.2873490083
 24
202.5704829752
 34
0.0
  0
DIMENSION
  5
D2
  8
DIM
  2
_D_3
 10
68.7473490083
 20
195.7346205732
 30
0.0
 11
74.4250268467
 21
207.2195451821
 31
0.0
 70
   162
  1
<>
  3
SLDDIMSTYLE2
 13
91.5230932457
 23
210.6096205732
 33
0.0
 14
105.8125124081
 24
202.3596205732
 34
0.0
 15
260.3273490083
 25
195.7346205732
 35
0.0
 16
74.4250268467
 26
207.2195451821
 36
0.0
  0
DIMENSION
  5
DC
  8
DIM
  2
_D_4
 10
103.1473007703
 20
211.9305779647
 30
0.0
 11
91.5610022847
 21
225.2015015711
 31
0.0
 70
   163
  1
<>
  3
SLDDIMSTYLE3
 15
131.4273972462
 25
179.5386631817
 35
0.0
 40
0.0
  0
DIMENSION
  5
E8
  8
DIM
  2
_D_5
 10
112.2873490083
 20
204.3948746111
 30
0.0
 11
97.7285567249
 21
229.6114698631
 31
0.0
 70
   163
  1
<>
  3
SLDDIMSTYLE4
 15
122.2873490083
 25
187.0743665354
 35
0.0
 40
0.0
  0
DIMENSION
  5
F3
  8
DIM
  2
_D_6
 10
172.6805470757
 20
193.7346205732
 30
0.0
 11
172.6805470757
 21
238.2805854279
 31
0.0
 70
   160
  1
<>H8
  3
SLDDIMSTYLE5
 13
156.2873490083
 23
197.7346205732
 33
0.0
 14
156.2873490083
 24
193.7346205732
 34
0.0
 50
90.0
  0
DIMENSION
  5
107
  8
DIM
  2
_D_7
 10
186.7873490083
 20
255.4614486584
 30
0.0
 11
166.7873490083
 21
255.4614486584
 31
0.0
 70
   160
  1
<>
  3
SLDDIMSTYLE0
 13
146.7873490083
 23
195.7346205732
 33
0.0
 14
186.7873490083
 24
202.3846205732
 34
0.0
  0
DIMENSION
  5
111
  8
DIM
  2
_D_8
 10
186.0840961214
 20
197.6069013687
 30
0.0
 11
206.6603101039
 21
159.9350026289
 31
0.0
 70
   163
  1
2xM4<>
  3
SLDDIMSTYLE6
 15
187.4906018951
 25
193.8623397777
 35
0.0
 40
0.0
  0
DIMENSION
  5
11F
  8
DIM
  2
_D_9
 10
277.2873490083
 20
225.7346205732
 30
0.0
 11
277.2873490083
 21
195.7346205732
 31
0.0
 70
   160
  1
<>
  3
SLDDIMSTYLE0
 13
238.7873490083
 23
165.7346205732
 33
0.0
 14
238.7873490083
 24
225.7346205732
 34
0.0
 50
90.0
  0
DIMENSION
  5
129
  8
DIM
  2
_D_10
 10
241.7873490083
 20
255.4614486584
 30
0.0
 11
214.2873490083
 21
255.4614486584
 31
0.0
 70
   160
  1
<>
  3
SLDDIMSTYLE0
 13
186.7873490083
 23
202.3846205732
 33
0.0
 14
241.7873490083
 24
222.7346205732
 34
0.0
  0
INSERT
  5
13A
  8
TXT
  2
SW_NOTE_0
 10
219.6731998386
 20
178.0076066072
 30
0.0
  0
INSERT
  5
142
  8
TXT
  2
SW_NOTE_0_1
 10
118.2489134913
 20
171.130124842
 30
0.0
  0
INSERT
  5
14E
  8
DIM
  2
SW_CENTERMARKSYMBOL_0
 10
235.2873490083
 20
181.2346205732
 30
0.0
  0
INSERT
  5
15A
  8
DIM
  2
SW_CENTERMARKSYMBOL_1
 10
219.2873490083
 20
181.2346205732
 30
0.0
  0
INSERT
  5
166
  8
DIM
  2
SW_CENTERMARKSYMBOL_2
 10
235.2873490083
 20
210.2346205732
 30
0.0
  0
INSERT
  5
172
  8
DIM
  2
SW_CENTERMARKSYMBOL_3
 10
219.2873490083
 20
210.2346205732
 30
0.0
  0
INSERT
  5
17E
  8
DIM
  2
SW_CENTERMARKSYMBOL_4
 10
186.7873490083
 20
195.7346205732
 30
0.0
  0
INSERT
  5
1B4
  8
DIM
  2
SW_CENTERMARKSYMBOL_5
 10
135.9068951896
 20
206.4846205732
 30
0.0
  0
INSERT
  5
1C0
  8
DIM
  2
SW_CENTERMARKSYMBOL_6
 10
186.7873490083
 20
195.7346205732
 30
0.0
  0
INSERT
  5
1CC
  8
DIM
  2
SW_CENTERMARKSYMBOL_7
 10
146.7873490083
 20
195.7346205732
 30
0.0
  0
LINE
  5
1CD
  8
0
  6
CENTERX2
 62
     7
 10
260.3273490083
 20
195.7346205732
 30
0.0
 11
68.7473490083
 21
195.7346205732
 31
0.0
  0
LINE
  5
1CE
  8
0
  6
CONTINUOUS
 62
     7
 10
258.3273490083
 20
183.0346205732
 30
0.0
 11
258.3273490083
 21
195.7346205732
 31
0.0
  0
INSERT
  5
1CF
  8
0
  6
CONTINUOUS
 62
     7
  2
_OPEN30
 10
258.3273490083
 20
195.7346205732
 30
0.0
 41
3.0
 42
3.0
 50
90.0
  0
LINE
  5
1D0
  8
0
  6
CONTINUOUS
 62
     7
 10
70.7473490083
 20
183.0346205732
 30
0.0
 11
70.7473490083
 21
195.7346205732
 31
0.0
  0
INSERT
  5
1D1
  8
0
  6
CONTINUOUS
 62
     7
  2
_OPEN30
 10
70.7473490083
 20
195.7346205732
 30
0.0
 41
3.0
 42
3.0
 50
90.0
  0
TEXT
  5
1D2
  8
0
  6
CONTINUOUS
 62
     7
 10
259.1408061005
 20
183.6019060347
 30
0.0
 40
3.5
  1
A
 41
0.7
 11
259.1408061005
 21
187.1019060347
 31
0.0
 73
     3
  0
TEXT
  5
1D3
  8
0
  6
CONTINUOUS
 62
     7
 10
67.9002491852
 20
183.6019060347
 30
0.0
 40
3.5
  1
A
 41
0.7
 11
67.9002491852
 21
187.1019060347
 31
0.0
 73
     3
  0
ARC
  5
1D4
  8
0
  6
CONTINUOUS
 62
     7
 10
186.7873490083
 20
195.7346205732
 30
0.0
 40
2.000000000000026
 50
75.0
 51
345.0
  0
ARC
  5
1D5
  8
0
  6
CONTINUOUS
 62
     7
 10
146.7873490083
 20
195.7346205732
 30
0.0
 40
2.000000000000026
 50
75.0
 51
345.0
  0
LINE
  5
1D6
  8
0
  6
CONTINUOUS
 62
     7
 10
310.1714285714
 20
169.1488341356
 30
0.0
 11
310.1714285714
 21
166.7346205732
 31
0.0
  0
LINE
  5
1D7
  8
0
  6
CONTINUOUS
 62
     7
 10
310.1714285714
 20
166.7346205732
 30
0.0
 11
309.1714285714
 21
165.7346205732
 31
0.0
  0
LINE
  5
1D8
  8
0
  6
CONTINUOUS
 62
     7
 10
309.1714285714
 20
165.7346205732
 30
0.0
 11
309.1714285714
 21
168.7346205732
 31
0.0
  0
LINE
  5
1D9
  8
0
  6
CONTINUOUS
 62
     7
 10
309.1714285714
 20
168.7346205732
 30
0.0
 11
310.1714285714
 21
169.1488341356
 31
0.0
  0
LINE
  5
1DA
  8
0
  6
CONTINUOUS
 62
     7
 10
303.1714285714
 20
168.7346205732
 30
0.0
 11
303.1714285714
 21
165.7346205732
 31
0.0
  0
LINE
  5
1DB
  8
0
  6
CONTINUOUS
 62
     7
 10
303.1714285714
 20
168.7346205732
 30
0.0
 11
309.1714285714
 21
168.7346205732
 31
0.0
  0
LINE
  5
1DC
  8
0
  6
CONTINUOUS
 62
     7
 10
309.1714285714
 20
165.7346205732
 30
0.0
 11
303.1714285714
 21
165.7346205732
 31
0.0
  0
LINE
  5
1DD
  8
0
  6
CONTINUOUS
 62
     7
 10
303.1714285714
 20
222.7346205732
 30
0.0
 11
303.1714285714
 21
168.7346205732
 31
0.0
  0
LINE
  5
1DE
  8
0
  6
CONTINUOUS
 62
     7
 10
309.1714285714
 20
222.7346205732
 30
0.0
 11
303.1714285714
 21
222.7346205732
 31
0.0
  0
LINE
  5
1DF
  8
0
  6
CONTINUOUS
 62
     7
 10
309.1714285714
 20
168.7346205732
 30
0.0
 11
309.1714285714
 21
222.7346205732
 31
0.0
  0
LINE
  5
1E0
  8
0
  6
CONTINUOUS
 62
     7
 10
309.1714285714
 20
222.7346205732
 30
0.0
 11
310.1714285714
 21
222.3204070108
 31
0.0
  0
LINE
  5
1E1
  8
0
  6
CONTINUOUS
 62
     7
 10
310.1714285714
 20
222.3204070108
 30
0.0
 11
310.1714285714
 21
169.1488341356
 31
0.0
  0
LINE
  5
1E2
  8
0
  6
CONTINUOUS
 62
     7
 10
309.1714285714
 20
222.7346205732
 30
0.0
 11
309.1714285714
 21
225.7346205732
 31
0.0
  0
LINE
  5
1E3
  8
0
  6
CONTINUOUS
 62
     7
 10
309.1714285714
 20
225.7346205732
 30
0.0
 11
310.1714285714
 21
224.7346205732
 31
0.0
  0
LINE
  5
1E4
  8
0
  6
CONTINUOUS
 62
     7
 10
310.1714285714
 20
224.7346205732
 30
0.0
 11
310.1714285714
 21
222.3204070108
 31
0.0
  0
LINE
  5
1E5
  8
0
  6
CONTINUOUS
 62
     7
 10
303.1714285714
 20
225.7346205732
 30
0.0
 11
303.1714285714
 21
222.7346205732
 31
0.0
  0
LINE
  5
1E6
  8
0
  6
CONTINUOUS
 62
     7
 10
303.1714285714
 20
225.7346205732
 30
0.0
 11
309.1714285714
 21
225.7346205732
 31
0.0
  0
LINE
  5
1E7
  8
0
  6
CONTINUOUS
 62
     7
 10
303.1714285714
 20
165.7346205732
 30
0.0
 11
302.1714285714
 21
166.7346205732
 31
0.0
  0
LINE
  5
1E8
  8
0
  6
CONTINUOUS
 62
     7
 10
302.1714285714
 20
166.7346205732
 30
0.0
 11
302.1714285714
 21
169.1488341356
 31
0.0
  0
LINE
  5
1E9
  8
0
  6
CONTINUOUS
 62
     7
 10
302.1714285714
 20
169.1488341356
 30
0.0
 11
303.1714285714
 21
168.7346205732
 31
0.0
  0
LINE
  5
1EA
  8
0
  6
CONTINUOUS
 62
     7
 10
302.1714285714
 20
222.3204070108
 30
0.0
 11
302.1714285714
 21
224.7346205732
 31
0.0
  0
LINE
  5
1EB
  8
0
  6
CONTINUOUS
 62
     7
 10
302.1714285714
 20
224.7346205732
 30
0.0
 11
303.1714285714
 21
225.7346205732
 31
0.0
  0
LINE
  5
1EC
  8
0
  6
CONTINUOUS
 62
     7
 10
302.1714285714
 20
222.3204070108
 30
0.0
 11
303.1714285714
 21
222.7346205732
 31
0.0
  0
LINE
  5
1ED
  8
0
  6
CONTINUOUS
 62
     7
 10
302.1714285714
 20
169.1488341356
 30
0.0
 11
302.1714285714
 21
222.3204070108
 31
0.0
  0
DIMENSION
  5
1EE
  8
DIM
  2
_D_11
 10
310.1714285714
 20
233.8800197832
 30
0.0
 11
306.1714285714
 21
233.8800197832
 31
0.0
 70
   160
  1
<>
  3
SLDDIMSTYLE1
 13
302.1714285714
 23
224.7346205732
 33
0.0
 14
310.1714285714
 24
224.7346205732
 34
0.0
  0
LINE
  5
1FA
  8
0
  6
CONTINUOUS
 62
     7
 10
192.6392699163
 20
134.0163456403
 30
0.0
 11
188.4373490083
 21
129.8144247322
 31
0.0
  0
LINE
  5
1FB
  8
0
  6
CONTINUOUS
 62
     7
 10
197.1293979768
 20
134.0163456403
 30
0.0
 11
189.1293979768
 21
126.0163456403
 31
0.0
  0
LINE
  5
1FC
  8
0
  6
CONTINUOUS
 62
     7
 10
201.6195260373
 20
134.0163456403
 30
0.0
 11
193.6195260373
 21
126.0163456403
 31
0.0
  0
LINE
  5
1FD
  8
0
  6
CONTINUOUS
 62
     7
 10
206.1096540979
 20
134.0163456403
 30
0.0
 11
198.1096540979
 21
126.0163456403
 31
0.0
  0
LINE
  5
1FE
  8
0
  6
CONTINUOUS
 62
     7
 10
210.5997821584
 20
134.0163456403
 30
0.0
 11
202.5997821584
 21
126.0163456403
 31
0.0
  0
LINE
  5
1FF
  8
0
  6
CONTINUOUS
 62
     7
 10
215.0899102189
 20
134.0163456403
 30
0.0
 11
207.0899102189
 21
126.0163456403
 31
0.0
  0
LINE
  5
200
  8
0
  6
CONTINUOUS
 62
     7
 10
219.5800382795
 20
134.0163456403
 30
0.0
 11
211.5800382795
 21
126.0163456403
 31
0.0
  0
LINE
  5
201
  8
0
  6
CONTINUOUS
 62
     7
 10
224.07016634
 20
134.0163456403
 30
0.0
 11
216.07016634
 21
126.0163456403
 31
0.0
  0
LINE
  5
202
  8
0
  6
CONTINUOUS
 62
     7
 10
228.5602944005
 20
134.0163456403
 30
0.0
 11
220.5602944005
 21
126.0163456403
 31
0.0
  0
LINE
  5
203
  8
0
  6
CONTINUOUS
 62
     7
 10
233.0504224611
 20
134.0163456403
 30
0.0
 11
225.0504224611
 21
126.0163456403
 31
0.0
  0
LINE
  5
204
  8
0
  6
CONTINUOUS
 62
     7
 10
237.5405505216
 20
134.0163456403
 30
0.0
 11
229.5405505216
 21
126.0163456403
 31
0.0
  0
LINE
  5
205
  8
0
  6
CONTINUOUS
 62
     7
 10
241.4090137952
 20
133.3946808533
 30
0.0
 11
234.0306785822
 21
126.0163456403
 31
0.0
  0
LINE
  5
206
  8
0
  6
CONTINUOUS
 62
     7
 10
241.7873490083
 20
129.2828880058
 30
0.0
 11
238.5208066427
 21
126.0163456403
 31
0.0
  0
LINE
  5
207
  8
0
  6
CONTINUOUS
 62
     7
 10
161.2083734925
 20
134.0163456403
 30
0.0
 11
158.2873490083
 21
131.095321156
 31
0.0
  0
LINE
  5
208
  8
0
  6
CONTINUOUS
 62
     7
 10
165.6985015531
 20
134.0163456403
 30
0.0
 11
158.2873490083
 21
126.6051930955
 31
0.0
  0
LINE
  5
209
  8
0
  6
CONTINUOUS
 62
     7
 10
170.1886296136
 20
134.0163456403
 30
0.0
 11
162.1886296136
 21
126.0163456403
 31
0.0
  0
LINE
  5
20A
  8
0
  6
CONTINUOUS
 62
     7
 10
174.6787576741
 20
134.0163456403
 30
0.0
 11
166.6787576741
 21
126.0163456403
 31
0.0
  0
LINE
  5
20B
  8
0
  6
CONTINUOUS
 62
     7
 10
179.1688857347
 20
134.0163456403
 30
0.0
 11
171.1688857347
 21
126.0163456403
 31
0.0
  0
LINE
  5
20C
  8
0
  6
CONTINUOUS
 62
     7
 10
183.6590137952
 20
134.0163456403
 30
0.0
 11
175.6590137952
 21
126.0163456403
 31
0.0
  0
LINE
  5
20D
  8
0
  6
CONTINUOUS
 62
     7
 10
185.1373490083
 20
131.0045527928
 30
0.0
 11
180.1491418557
 21
126.0163456403
 31
0.0
  0
LINE
  5
20E
  8
0
  6
CONTINUOUS
 62
     7
 10
185.1373490083
 20
126.5144247322
 30
0.0
 11
184.6392699163
 21
126.0163456403
 31
0.0
  0
LINE
  5
20F
  8
0
  6
CONTINUOUS
 62
     7
 10
152.0077331899
 20
133.7959614587
 30
0.0
 11
148.4373490083
 21
130.2255772771
 31
0.0
  0
LINE
  5
210
  8
0
  6
CONTINUOUS
 62
     7
 10
152.2873490083
 20
129.5854492165
 30
0.0
 11
148.718245432
 21
126.0163456403
 31
0.0
  0
LINE
  5
211
  8
0
  6
CONTINUOUS
 62
     7
 10
134.2676051293
 20
134.0163456403
 30
0.0
 11
127.2873490083
 21
127.0360895192
 31
0.0
  0
LINE
  5
212
  8
0
  6
CONTINUOUS
 62
     7
 10
138.7577331899
 20
134.0163456403
 30
0.0
 11
130.7577331899
 21
126.0163456403
 31
0.0
  0
LINE
  5
213
  8
0
  6
CONTINUOUS
 62
     7
 10
135.7873490083
 20
126.5558333981
 30
0.0
 11
135.2478612504
 21
126.0163456403
 31
0.0
  0
LINE
  5
214
  8
0
  6
CONTINUOUS
 62
     7
 10
143.2478612504
 20
134.0163456403
 30
0.0
 11
139.2478612504
 21
130.0163456403
 31
0.0
  0
LINE
  5
215
  8
0
  6
CONTINUOUS
 62
     7
 10
145.1373490083
 20
131.4157053376
 30
0.0
 11
141.7873490083
 21
128.0657053376
 31
0.0
  0
LINE
  5
216
  8
0
  6
CONTINUOUS
 62
     7
 10
145.1373490083
 20
126.9255772771
 30
0.0
 11
144.2281173715
 21
126.0163456403
 31
0.0
  0
LINE
  5
217
  8
0
  6
CONTINUOUS
 62
     7
 10
89.366324524
 20
134.0163456403
 30
0.0
 11
87.2873490083
 21
131.9373701245
 31
0.0
  0
LINE
  5
218
  8
0
  6
CONTINUOUS
 62
     7
 10
93.8564525845
 20
134.0163456403
 30
0.0
 11
87.2873490083
 21
127.447242064
 31
0.0
  0
LINE
  5
219
  8
0
  6
CONTINUOUS
 62
     7
 10
93.7873490083
 20
129.4571140035
 30
0.0
 11
90.346580645
 21
126.0163456403
 31
0.0
  0
LINE
  5
21A
  8
0
  6
CONTINUOUS
 62
     7
 10
98.346580645
 20
134.0163456403
 30
0.0
 11
94.346580645
 21
130.0163456403
 31
0.0
  0
LINE
  5
21B
  8
0
  6
CONTINUOUS
 62
     7
 10
102.8367087056
 20
134.0163456403
 30
0.0
 11
97.7873490083
 21
128.9669859429
 31
0.0
  0
LINE
  5
21C
  8
0
  6
CONTINUOUS
 62
     7
 10
105.8070928872
 20
132.4966017613
 30
0.0
 11
99.3268367661
 21
126.0163456403
 31
0.0
  0
LINE
  5
21D
  8
0
  6
CONTINUOUS
 62
     7
 10
107.2873490083
 20
129.4867298219
 30
0.0
 11
103.8169648266
 21
126.0163456403
 31
0.0
  0
LINE
  5
21E
  8
0
  6
CONTINUOUS
 62
     7
 10
188.4373490083
 20
134.0163456403
 30
0.0
 11
188.4373490083
 21
126.0163456403
 31
0.0
  0
LINE
  5
21F
  8
0
  6
CONTINUOUS
 62
     7
 10
240.7873490083
 20
134.0163456403
 30
0.0
 11
188.4373490083
 21
134.0163456403
 31
0.0
  0
LINE
  5
220
  8
0
  6
CONTINUOUS
 62
     7
 10
240.7873490083
 20
134.0163456403
 30
0.0
 11
241.7873490083
 21
133.0163456403
 31
0.0
  0
LINE
  5
221
  8
0
  6
CONTINUOUS
 62
     7
 10
241.7873490083
 20
133.0163456403
 30
0.0
 11
241.7873490083
 21
127.0163456403
 31
0.0
  0
LINE
  5
222
  8
0
  6
CONTINUOUS
 62
     7
 10
241.7873490083
 20
127.0163456403
 30
0.0
 11
240.7873490083
 21
126.0163456403
 31
0.0
  0
LINE
  5
223
  8
0
  6
CONTINUOUS
 62
     7
 10
240.7873490083
 20
126.0163456403
 30
0.0
 11
188.4373490083
 21
126.0163456403
 31
0.0
  0
LINE
  5
224
  8
0
  6
CONTINUOUS
 62
     7
 10
156.2873490083
 20
126.5163456403
 30
0.0
 11
158.2873490083
 21
126.5163456403
 31
0.0
  0
LINE
  5
225
  8
0
  6
CONTINUOUS
 62
     7
 10
158.7873490083
 20
126.0163456403
 30
0.0
 11
158.2873490083
 21
126.5163456403
 31
0.0
  0
LINE
  5
226
  8
0
  6
CONTINUOUS
 62
     7
 10
158.7873490083
 20
126.0163456403
 30
0.0
 11
156.2873490083
 21
126.0163456403
 31
0.0
  0
LINE
  5
227
  8
0
  6
CONTINUOUS
 62
     7
 10
98.2873490083
 20
126.0163456403
 30
0.0
 11
97.7873490083
 21
126.5163456403
 31
0.0
  0
LINE
  5
228
  8
0
  6
CONTINUOUS
 62
     7
 10
98.2873490083
 20
126.0163456403
 30
0.0
 11
93.2873490083
 21
126.0163456403
 31
0.0
  0
LINE
  5
229
  8
0
  6
CONTINUOUS
 62
     7
 10
93.7873490083
 20
126.5163456403
 30
0.0
 11
93.2873490083
 21
126.0163456403
 31
0.0
  0
LINE
  5
22A
  8
0
  6
CONTINUOUS
 62
     7
 10
93.7873490083
 20
126.5163456403
 30
0.0
 11
97.7873490083
 21
126.5163456403
 31
0.0
  0
LINE
  5
22B
  8
0
  6
CONTINUOUS
 62
     7
 10
185.1373490083
 20
126.0163456403
 30
0.0
 11
185.1373490083
 21
134.0163456403
 31
0.0
  0
LINE
  5
22C
  8
0
  6
CONTINUOUS
 62
     7
 10
188.4373490083
 20
134.0163456403
 30
0.0
 11
185.1373490083
 21
134.0163456403
 31
0.0
  0
LINE
  5
22D
  8
0
  6
CONTINUOUS
 62
     7
 10
188.4373490083
 20
126.0163456403
 30
0.0
 11
185.1373490083
 21
126.0163456403
 31
0.0
  0
LINE
  5
22E
  8
0
  6
CONTINUOUS
 62
     7
 10
127.7873490083
 20
126.0163456403
 30
0.0
 11
127.2873490083
 21
126.5163456403
 31
0.0
  0
LINE
  5
22F
  8
0
  6
CONTINUOUS
 62
     7
 10
107.2873490083
 20
126.5163456403
 30
0.0
 11
106.7873490083
 21
126.0163456403
 31
0.0
  0
LINE
  5
230
  8
0
  6
CONTINUOUS
 62
     7
 10
107.2873490083
 20
126.5163456403
 30
0.0
 11
127.2873490083
 21
126.5163456403
 31
0.0
  0
LINE
  5
231
  8
0
  6
CONTINUOUS
 62
     7
 10
127.7873490083
 20
126.0163456403
 30
0.0
 11
106.7873490083
 21
126.0163456403
 31
0.0
  0
LINE
  5
232
  8
0
  6
CONTINUOUS
 62
     7
 10
135.7873490083
 20
126.5163456403
 30
0.0
 11
135.2873490083
 21
126.0163456403
 31
0.0
  0
LINE
  5
233
  8
0
  6
CONTINUOUS
 62
     7
 10
135.7873490083
 20
126.5163456403
 30
0.0
 11
137.7873490083
 21
126.5163456403
 31
0.0
  0
LINE
  5
234
  8
0
  6
CONTINUOUS
 62
     7
 10
137.7873490083
 20
126.0163456403
 30
0.0
 11
135.2873490083
 21
126.0163456403
 31
0.0
  0
LINE
  5
235
  8
0
  6
CONTINUOUS
 62
     7
 10
139.7873490083
 20
126.5163456403
 30
0.0
 11
141.7873490083
 21
126.5163456403
 31
0.0
  0
LINE
  5
236
  8
0
  6
CONTINUOUS
 62
     7
 10
142.2873490083
 20
126.0163456403
 30
0.0
 11
141.7873490083
 21
126.5163456403
 31
0.0
  0
LINE
  5
237
  8
0
  6
CONTINUOUS
 62
     7
 10
142.2873490083
 20
126.0163456403
 30
0.0
 11
139.7873490083
 21
126.0163456403
 31
0.0
  0
LINE
  5
238
  8
0
  6
CONTINUOUS
 62
     7
 10
88.2873490083
 20
126.0163456403
 30
0.0
 11
87.2873490083
 21
127.0163456403
 31
0.0
  0
LINE
  5
239
  8
0
  6
CONTINUOUS
 62
     7
 10
145.1373490083
 20
126.0163456403
 30
0.0
 11
145.1373490083
 21
134.0163456403
 31
0.0
  0
LINE
  5
23A
  8
0
  6
CONTINUOUS
 62
     7
 10
148.4373490083
 20
134.0163456403
 30
0.0
 11
145.1373490083
 21
134.0163456403
 31
0.0
  0
LINE
  5
23B
  8
0
  6
CONTINUOUS
 62
     7
 10
148.4373490083
 20
134.0163456403
 30
0.0
 11
148.4373490083
 21
126.0163456403
 31
0.0
  0
LINE
  5
23C
  8
0
  6
CONTINUOUS
 62
     7
 10
148.4373490083
 20
126.0163456403
 30
0.0
 11
145.1373490083
 21
126.0163456403
 31
0.0
  0
LINE
  5
23D
  8
0
  6
CONTINUOUS
 62
     7
 10
151.7873490083
 20
134.0163456403
 30
0.0
 11
148.4373490083
 21
134.0163456403
 31
0.0
  0
LINE
  5
23E
  8
0
  6
CONTINUOUS
 62
     7
 10
151.7873490083
 20
134.0163456403
 30
0.0
 11
152.2873490083
 21
133.5163456403
 31
0.0
  0
LINE
  5
23F
  8
0
  6
CONTINUOUS
 62
     7
 10
152.2873490083
 20
126.5163456403
 30
0.0
 11
152.2873490083
 21
133.5163456403
 31
0.0
  0
LINE
  5
240
  8
0
  6
CONTINUOUS
 62
     7
 10
152.2873490083
 20
126.5163456403
 30
0.0
 11
151.7873490083
 21
126.0163456403
 31
0.0
  0
LINE
  5
241
  8
0
  6
CONTINUOUS
 62
     7
 10
151.7873490083
 20
126.0163456403
 30
0.0
 11
148.4373490083
 21
126.0163456403
 31
0.0
  0
LINE
  5
242
  8
0
  6
CONTINUOUS
 62
     7
 10
152.2873490083
 20
126.5163456403
 30
0.0
 11
154.2873490083
 21
126.5163456403
 31
0.0
  0
LINE
  5
243
  8
0
  6
CONTINUOUS
 62
     7
 10
154.2873490083
 20
126.0163456403
 30
0.0
 11
151.7873490083
 21
126.0163456403
 31
0.0
  0
LINE
  5
244
  8
0
  6
CONTINUOUS
 62
     7
 10
141.7873490083
 20
130.0163456403
 30
0.0
 11
141.7873490083
 21
126.5163456403
 31
0.0
  0
LINE
  5
245
  8
0
  6
CONTINUOUS
 62
     7
 10
141.7873490083
 20
130.0163456403
 30
0.0
 11
135.7873490083
 21
130.0163456403
 31
0.0
  0
LINE
  5
246
  8
0
  6
CONTINUOUS
 62
     7
 10
135.7873490083
 20
126.5163456403
 30
0.0
 11
135.7873490083
 21
130.0163456403
 31
0.0
  0
LINE
  5
247
  8
0
  6
CONTINUOUS
 62
     7
 10
127.2873490083
 20
131.0163456403
 30
0.0
 11
127.2873490083
 21
126.5163456403
 31
0.0
  0
LINE
  5
248
  8
0
  6
CONTINUOUS
 62
     7
 10
127.2873490083
 20
131.0163456403
 30
0.0
 11
130.2873490083
 21
134.0163456403
 31
0.0
  0
LINE
  5
249
  8
0
  6
CONTINUOUS
 62
     7
 10
145.1373490083
 20
134.0163456403
 30
0.0
 11
130.2873490083
 21
134.0163456403
 31
0.0
  0
LINE
  5
24A
  8
0
  6
CONTINUOUS
 62
     7
 10
135.2873490083
 20
126.0163456403
 30
0.0
 11
127.7873490083
 21
126.0163456403
 31
0.0
  0
LINE
  5
24B
  8
0
  6
CONTINUOUS
 62
     7
 10
145.1373490083
 20
126.0163456403
 30
0.0
 11
142.2873490083
 21
126.0163456403
 31
0.0
  0
LINE
  5
24C
  8
0
  6
CONTINUOUS
 62
     7
 10
87.2873490083
 20
127.0163456403
 30
0.0
 11
87.2873490083
 21
133.0163456403
 31
0.0
  0
LINE
  5
24D
  8
0
  6
CONTINUOUS
 62
     7
 10
87.2873490083
 20
133.0163456403
 30
0.0
 11
88.2873490083
 21
134.0163456403
 31
0.0
  0
LINE
  5
24E
  8
0
  6
CONTINUOUS
 62
     7
 10
104.2873490083
 20
134.0163456403
 30
0.0
 11
88.2873490083
 21
134.0163456403
 31
0.0
  0
LINE
  5
24F
  8
0
  6
CONTINUOUS
 62
     7
 10
104.2873490083
 20
134.0163456403
 30
0.0
 11
107.2873490083
 21
131.0163456403
 31
0.0
  0
LINE
  5
250
  8
0
  6
CONTINUOUS
 62
     7
 10
107.2873490083
 20
126.5163456403
 30
0.0
 11
107.2873490083
 21
131.0163456403
 31
0.0
  0
LINE
  5
251
  8
0
  6
CONTINUOUS
 62
     7
 10
97.7873490083
 20
130.0163456403
 30
0.0
 11
97.7873490083
 21
126.5163456403
 31
0.0
  0
LINE
  5
252
  8
0
  6
CONTINUOUS
 62
     7
 10
97.7873490083
 20
130.0163456403
 30
0.0
 11
93.7873490083
 21
130.0163456403
 31
0.0
  0
LINE
  5
253
  8
0
  6
CONTINUOUS
 62
     7
 10
93.7873490083
 20
126.5163456403
 30
0.0
 11
93.7873490083
 21
130.0163456403
 31
0.0
  0
LINE
  5
254
  8
0
  6
CONTINUOUS
 62
     7
 10
93.2873490083
 20
126.0163456403
 30
0.0
 11
88.2873490083
 21
126.0163456403
 31
0.0
  0
LINE
  5
255
  8
0
  6
CONTINUOUS
 62
     7
 10
106.7873490083
 20
126.0163456403
 30
0.0
 11
98.2873490083
 21
126.0163456403
 31
0.0
  0
LINE
  5
256
  8
0
  6
CONTINUOUS
 62
     7
 10
158.2873490083
 20
133.5163456403
 30
0.0
 11
158.2873490083
 21
126.5163456403
 31
0.0
  0
LINE
  5
257
  8
0
  6
CONTINUOUS
 62
     7
 10
158.2873490083
 20
133.5163456403
 30
0.0
 11
158.7873490083
 21
134.0163456403
 31
0.0
  0
LINE
  5
258
  8
0
  6
CONTINUOUS
 62
     7
 10
185.1373490083
 20
134.0163456403
 30
0.0
 11
158.7873490083
 21
134.0163456403
 31
0.0
  0
LINE
  5
259
  8
0
  6
CONTINUOUS
 62
     7
 10
185.1373490083
 20
126.0163456403
 30
0.0
 11
158.7873490083
 21
126.0163456403
 31
0.0
  0
LINE
  5
25A
  8
0
  6
CONTINUOUS
 62
     7
 10
154.2873490083
 20
133.5163456403
 30
0.0
 11
152.2873490083
 21
133.5163456403
 31
0.0
  0
LINE
  5
25B
  8
0
  6
CONTINUOUS
 62
     7
 10
158.2873490083
 20
133.5163456403
 30
0.0
 11
156.2873490083
 21
133.5163456403
 31
0.0
  0
LINE
  5
25C
  8
0
  6
CONTINUOUS
 62
     7
 10
127.2873490083
 20
131.0163456403
 30
0.0
 11
107.2873490083
 21
131.0163456403
 31
0.0
  0
LINE
  5
25D
  8
0
  6
CONTINUOUS
 62
     7
 10
104.2873490083
 20
134.0163456403
 30
0.0
 11
130.2873490083
 21
134.0163456403
 31
0.0
  0
LINE
  5
25E
  8
0
  6
CONTINUOUS
 62
     7
 10
151.7873490083
 20
134.0163456403
 30
0.0
 11
154.2873490083
 21
134.0163456403
 31
0.0
  0
LINE
  5
25F
  8
0
  6
CONTINUOUS
 62
     7
 10
156.2873490083
 20
134.0163456403
 30
0.0
 11
158.7873490083
 21
134.0163456403
 31
0.0
  0
LINE
  5
260
  8
0
  6
CONTINUOUS
 62
     7
 10
154.2873490083
 20
126.5163456403
 30
0.0
 11
156.2873490083
 21
126.5163456403
 31
0.0
  0
LINE
  5
261
  8
0
  6
CONTINUOUS
 62
     7
 10
156.2873490083
 20
126.0163456403
 30
0.0
 11
154.2873490083
 21
126.0163456403
 31
0.0
  0
LINE
  5
262
  8
0
  6
CONTINUOUS
 62
     7
 10
137.7873490083
 20
126.5163456403
 30
0.0
 11
139.7873490083
 21
126.5163456403
 31
0.0
  0
LINE
  5
263
  8
0
  6
CONTINUOUS
 62
     7
 10
139.7873490083
 20
126.0163456403
 30
0.0
 11
137.7873490083
 21
126.0163456403
 31
0.0
  0
LINE
  5
264
  8
0
  6
CONTINUOUS
 62
     7
 10
156.2873490083
 20
133.5163456403
 30
0.0
 11
154.2873490083
 21
133.5163456403
 31
0.0
  0
LINE
  5
265
  8
0
  6
CONTINUOUS
 62
     7
 10
154.2873490083
 20
134.0163456403
 30
0.0
 11
156.2873490083
 21
134.0163456403
 31
0.0
  0
LINE
  5
266
  8
0
  6
CONTINUOUS
 62
     7
 10
245.4475982244
 20
78.7233696011
 30
0.0
 11
212.64964108
 21
78.7233696011
 31
0.0
  0
DIMENSION
  5
267
  8
DIM
  2
_D_12
 10
97.7873490083
 20
112.4038046
 30
0.0
 11
78.2512205162
 21
112.4038046
 31
0.0
 70
   160
  1
%%c<>H8
  3
SLDDIMSTYLE5
 13
93.7873490083
 23
126.5163456403
 33
0.0
 14
97.7873490083
 24
126.5163456403
 34
0.0
  0
DIMENSION
  5
27B
  8
DIM
  2
_D_13
 10
79.4251004515
 20
130.0163456403
 30
0.0
 11
79.4251004515
 21
128.0163456403
 31
0.0
 70
   160
  1
<>
  3
SLDDIMSTYLE1
 13
98.2873490083
 23
126.0163456403
 33
0.0
 14
93.7873490083
 24
130.0163456403
 34
0.0
 50
90.0
  0
DIMENSION
  5
287
  8
DIM
  2
_D_14
 10
131.2228798513
 20
130.0163456403
 30
0.0
 11
131.2228798513
 21
120.1837732116
 31
0.0
 70
   160
  1
<>
  3
SLDDIMSTYLE1
 13
127.7873490083
 23
126.0163456403
 33
0.0
 14
135.7873490083
 24
130.0163456403
 34
0.0
 50
90.0
  0
TEXT
  5
292
  8
0
  6
CONTINUOUS
 62
     7
 10
161.8272652537
 20
143.354144862
 30
0.0
 40
3.5
  1
A-A
 41
0.7
 11
161.8272652537
 21
142.1177346453
 31
0.0
 73
     1
  0
LINE
  5
293
  8
0
  6
CONTINUOUS
 62
     7
 10
188.7873490083
 20
134.0163456403
 30
0.0
 11
188.7873490083
 21
126.0163456403
 31
0.0
  0
LINE
  5
294
  8
0
  6
CONTINUOUS
 62
     7
 10
184.7873490083
 20
134.0163456403
 30
0.0
 11
184.7873490083
 21
126.0163456403
 31
0.0
  0
LINE
  5
295
  8
0
  6
CONTINUOUS
 62
     7
 10
148.7873490083
 20
134.0163456403
 30
0.0
 11
148.7873490083
 21
126.0163456403
 31
0.0
  0
LINE
  5
296
  8
0
  6
CONTINUOUS
 62
     7
 10
144.7873490083
 20
134.0163456403
 30
0.0
 11
144.7873490083
 21
126.0163456403
 31
0.0
  0
LINE
  5
297
  8
DIM
  6
CENTERX2
 10
95.7873490083
 20
135.0163456403
 30
0.0
 11
95.7873490083
 21
121.5163456403
 31
0.0
  0
LINE
  5
298
  8
DIM
  6
CENTERX2
 10
138.7873490083
 20
135.0163456403
 30
0.0
 11
138.7873490083
 21
121.5163456403
 31
0.0
  0
CIRCLE
  5
299
  8
0
  6
CONTINUOUS
 62
     7
 10
227.2873490083
 20
49.7233696011
 30
0.0
 40
1.5
  0
CIRCLE
  5
29A
  8
0
  6
CONTINUOUS
 62
     7
 10
227.2873490083
 20
49.7233696011
 30
0.0
 40
2.0
  0
CIRCLE
  5
29B
  8
0
  6
CONTINUOUS
 62
     7
 10
235.2873490083
 20
78.7233696011
 30
0.0
 40
1.700000000000017
  0
CIRCLE
  5
29C
  8
0
  6
CONTINUOUS
 62
     7
 10
219.2873490083
 20
78.7233696011
 30
0.0
 40
1.699999999999989
  0
CIRCLE
  5
29D
  8
0
  6
CONTINUOUS
 62
     7
 10
219.2873490083
 20
49.7233696011
 30
0.0
 40
1.699999999999989
  0
CIRCLE
  5
29E
  8
0
  6
CONTINUOUS
 62
     7
 10
98.6678028269
 20
53.4733696011
 30
0.0
 40
1.700000000000017
  0
CIRCLE
  5
29F
  8
0
  6
CONTINUOUS
 62
     7
 10
135.9068951896
 20
74.9733696011
 30
0.0
 40
1.69999999999996
  0
CIRCLE
  5
2A0
  8
0
  6
CONTINUOUS
 62
     7
 10
135.9068951896
 20
53.4733696011
 30
0.0
 40
1.69999999999996
  0
CIRCLE
  5
2A1
  8
0
  6
CONTINUOUS
 62
     7
 10
117.2873490083
 20
42.7233696011
 30
0.0
 40
1.700000000000003
  0
CIRCLE
  5
2A2
  8
0
  6
CONTINUOUS
 62
     7
 10
186.7873490083
 20
64.2233696011
 30
0.0
 40
1.650000000000006
  0
LINE
  5
2A3
  8
0
  6
CONTINUOUS
 62
     7
 10
238.3731354459
 20
93.2233696011
 30
0.0
 11
117.2873490083
 21
93.2233696011
 31
0.0
  0
LINE
  5
2A4
  8
0
  6
CONTINUOUS
 62
     7
 10
240.7873490083
 20
90.8091560387
 30
0.0
 11
238.3731354459
 21
93.2233696011
 31
0.0
  0
LINE
  5
2A5
  8
0
  6
CONTINUOUS
 62
     7
 10
240.7873490083
 20
37.6375831634
 30
0.0
 11
240.7873490083
 21
90.8091560387
 31
0.0
  0
LINE
  5
2A6
  8
0
  6
CONTINUOUS
 62
     7
 10
238.3731354459
 20
35.2233696011
 30
0.0
 11
240.7873490083
 21
37.6375831634
 31
0.0
  0
LINE
  5
2A7
  8
0
  6
CONTINUOUS
 62
     7
 10
117.2873490083
 20
35.2233696011
 30
0.0
 11
238.3731354459
 21
35.2233696011
 31
0.0
  0
ARC
  5
2A8
  8
0
  6
CONTINUOUS
 62
     7
 10
117.2873490083
 20
64.2233696011
 30
0.0
 40
29.0
 50
90.0
 51
270.0
  0
LINE
  5
2A9
  8
0
  6
CONTINUOUS
 62
     7
 10
156.2873490083
 20
61.7233696011
 30
0.0
 11
154.2873490083
 21
61.7233696011
 31
0.0
  0
ARC
  5
2AA
  8
0
  6
CONTINUOUS
 62
     7
 10
156.2873490083
 20
64.2233696011
 30
0.0
 40
2.500000000000007
 50
270.0
 51
90.0
  0
LINE
  5
2AB
  8
0
  6
CONTINUOUS
 62
     7
 10
154.2873490083
 20
66.7233696011
 30
0.0
 11
156.2873490083
 21
66.7233696011
 31
0.0
  0
ARC
  5
2AC
  8
0
  6
CONTINUOUS
 62
     7
 10
154.2873490083
 20
64.2233696011
 30
0.0
 40
2.500000000000007
 50
90.0
 51
270.0
  0
CIRCLE
  5
2AD
  8
0
  6
CONTINUOUS
 62
     7
 10
227.2873490083
 20
78.7233696011
 30
0.0
 40
2.0
  0
CIRCLE
  5
2AE
  8
0
  6
CONTINUOUS
 62
     7
 10
117.2873490083
 20
64.2233696011
 30
0.0
 40
10.49999999999999
  0
LINE
  5
2AF
  8
0
  6
CONTINUOUS
 62
     7
 10
137.7873490083
 20
66.7233696011
 30
0.0
 11
139.7873490083
 21
66.7233696011
 31
0.0
  0
ARC
  5
2B0
  8
0
  6
CONTINUOUS
 62
     7
 10
137.7873490083
 20
64.2233696011
 30
0.0
 40
2.500000000000007
 50
90.0
 51
270.0
  0
LINE
  5
2B1
  8
0
  6
CONTINUOUS
 62
     7
 10
139.7873490083
 20
61.7233696011
 30
0.0
 11
137.7873490083
 21
61.7233696011
 31
0.0
  0
ARC
  5
2B2
  8
0
  6
CONTINUOUS
 62
     7
 10
139.7873490083
 20
64.2233696011
 30
0.0
 40
2.500000000000007
 50
270.0
 51
90.0
  0
CIRCLE
  5
2B3
  8
0
  6
CONTINUOUS
 62
     7
 10
95.7873490083
 20
64.2233696011
 30
0.0
 40
2.500000000000014
  0
CIRCLE
  5
2B4
  8
0
  6
CONTINUOUS
 62
     7
 10
117.2873490083
 20
85.7233696011
 30
0.0
 40
1.700000000000003
  0
CIRCLE
  5
2B5
  8
0
  6
CONTINUOUS
 62
     7
 10
235.2873490083
 20
49.7233696011
 30
0.0
 40
1.700000000000017
  0
CIRCLE
  5
2B6
  8
0
  6
CONTINUOUS
 62
     7
 10
98.6678028269
 20
74.9733696011
 30
0.0
 40
1.700000000000017
  0
CIRCLE
  5
2B7
  8
0
  6
CONTINUOUS
 62
     7
 10
146.7873490083
 20
64.2233696011
 30
0.0
 40
1.650000000000006
  0
CIRCLE
  5
2B8
  8
0
  6
CONTINUOUS
 62
     7
 10
95.7873490083
 20
64.2233696011
 30
0.0
 40
2.000000000000014
  0
ARC
  5
2B9
  8
0
  6
CONTINUOUS
 62
     7
 10
137.7873490083
 20
64.2233696011
 30
0.0
 40
2.000000000000007
 50
90.0
 51
270.0
  0
ARC
  5
2BA
  8
0
  6
CONTINUOUS
 62
     7
 10
139.7873490083
 20
64.2233696011
 30
0.0
 40
2.000000000000007
 50
270.0
 51
90.0
  0
CIRCLE
  5
2BB
  8
0
  6
CONTINUOUS
 62
     7
 10
117.2873490083
 20
64.2233696011
 30
0.0
 40
9.999999999999986
  0
LINE
  5
2BC
  8
0
  6
CONTINUOUS
 62
     7
 10
137.7873490083
 20
62.2233696011
 30
0.0
 11
139.7873490083
 21
62.2233696011
 31
0.0
  0
ARC
  5
2BD
  8
0
  6
CONTINUOUS
 62
     7
 10
117.2873490083
 20
64.2233696011
 30
0.0
 40
30.0
 50
90.0
 51
270.0
  0
LINE
  5
2BE
  8
0
  6
CONTINUOUS
 62
     7
 10
154.2873490083
 20
62.2233696011
 30
0.0
 11
156.2873490083
 21
62.2233696011
 31
0.0
  0
LINE
  5
2BF
  8
0
  6
CONTINUOUS
 62
     7
 10
238.3731354459
 20
93.2233696011
 30
0.0
 11
238.7873490083
 21
94.2233696011
 31
0.0
  0
LINE
  5
2C0
  8
0
  6
CONTINUOUS
 62
     7
 10
238.7873490083
 20
94.2233696011
 30
0.0
 11
241.7873490083
 21
91.2233696011
 31
0.0
  0
LINE
  5
2C1
  8
0
  6
CONTINUOUS
 62
     7
 10
241.7873490083
 20
91.2233696011
 30
0.0
 11
240.7873490083
 21
90.8091560387
 31
0.0
  0
LINE
  5
2C2
  8
0
  6
CONTINUOUS
 62
     7
 10
241.7873490083
 20
91.2233696011
 30
0.0
 11
241.7873490083
 21
37.2233696011
 31
0.0
  0
LINE
  5
2C3
  8
0
  6
CONTINUOUS
 62
     7
 10
241.7873490083
 20
37.2233696011
 30
0.0
 11
240.7873490083
 21
37.6375831634
 31
0.0
  0
LINE
  5
2C4
  8
0
  6
CONTINUOUS
 62
     7
 10
238.7873490083
 20
34.2233696011
 30
0.0
 11
238.3731354459
 21
35.2233696011
 31
0.0
  0
LINE
  5
2C5
  8
0
  6
CONTINUOUS
 62
     7
 10
238.7873490083
 20
34.2233696011
 30
0.0
 11
117.2873490083
 21
34.2233696011
 31
0.0
  0
ARC
  5
2C6
  8
0
  6
CONTINUOUS
 62
     7
 10
154.2873490083
 20
64.2233696011
 30
0.0
 40
2.000000000000007
 50
90.0
 51
270.0
  0
LINE
  5
2C7
  8
0
  6
CONTINUOUS
 62
     7
 10
156.2873490083
 20
66.2233696011
 30
0.0
 11
154.2873490083
 21
66.2233696011
 31
0.0
  0
CIRCLE
  5
2C8
  8
0
  6
CONTINUOUS
 62
     7
 10
227.2873490083
 20
78.7233696011
 30
0.0
 40
1.5
  0
ARC
  5
2C9
  8
0
  6
CONTINUOUS
 62
     7
 10
156.2873490083
 20
64.2233696011
 30
0.0
 40
2.000000000000007
 50
270.0
 51
90.0
  0
LINE
  5
2CA
  8
0
  6
CONTINUOUS
 62
     7
 10
139.7873490083
 20
66.2233696011
 30
0.0
 11
137.7873490083
 21
66.2233696011
 31
0.0
  0
LINE
  5
2CB
  8
0
  6
CONTINUOUS
 62
     7
 10
117.2873490083
 20
94.2233696011
 30
0.0
 11
238.7873490083
 21
94.2233696011
 31
0.0
  0
LINE
  5
2CC
  8
0
  6
CONTINUOUS
 62
     7
 10
241.7873490083
 20
37.2233696011
 30
0.0
 11
238.7873490083
 21
34.2233696011
 31
0.0
  0
LINE
  5
2CD
  8
0
  6
CENTERX2
 62
     7
 10
138.7873490083
 20
68.3086954988
 30
0.0
 11
138.7873490083
 21
60.7060207531
 31
0.0
  0
POINT
  5
2CE
  8
0
  6
CONTINUOUS
 62
     7
 10
135.7873490083
 20
64.2233696011
 30
0.0
  0
POINT
  5
2CF
  8
0
  6
CONTINUOUS
 62
     7
 10
141.7873490083
 20
64.2233696011
 30
0.0
  0
DIMENSION
  5
2D0
  8
DIM
  2
_D_15
 10
141.7873490083
 20
98.2627181104
 30
0.0
 11
129.4949968313
 21
98.2627181104
 31
0.0
 70
   160
  1
<>
  3
SLDDIMSTYLE1
 13
135.7873490083
 23
64.2233696011
 33
0.0
 14
141.7873490083
 24
64.2233696011
 34
0.0
  0
DIMENSION
  5
2DC
  8
DIM
  2
_D_16
 10
138.7873490083
 20
105.0282991428
 30
0.0
 11
117.2873490083
 21
105.0282991428
 31
0.0
 70
   160
  1
<>
  3
SLDDIMSTYLE0
 13
95.7873490083
 23
71.7233696011
 33
0.0
 14
138.7873490083
 24
68.3086954988
 34
0.0
  0
DIMENSION
  5
2E6
  8
DIM
  2
_D_17
 10
255.0636770475
 20
49.7233696011
 30
0.0
 11
255.0636770475
 21
64.2233696011
 31
0.0
 70
   160
  1
<>
  3
SLDDIMSTYLE0
 13
233.7873490083
 23
78.7233696011
 33
0.0
 14
233.7873490083
 24
49.7233696011
 34
0.0
 50
90.0
  0
DIMENSION
  5
2F0
  8
DIM
  2
_D_18
 10
227.2873490083
 20
24.941609554
 30
0.0
 11
234.5373490083
 21
24.941609554
 31
0.0
 70
   160
  1
<>
  3
SLDDIMSTYLE0
 13
241.7873490083
 23
37.2233696011
 33
0.0
 14
227.2873490083
 24
72.2233696011
 34
0.0
  0
DIMENSION
  5
2FA
  8
DIM
  2
_D_19
 10
235.2873490083
 20
108.8527876381
 30
0.0
 11
227.2873490083
 21
108.8527876381
 31
0.0
 70
   160
  1
<>
  3
SLDDIMSTYLE0
 13
219.2873490083
 23
85.4233696011
 33
0.0
 14
235.2873490083
 24
85.4233696011
 34
0.0
  0
DIMENSION
  5
304
  8
DIM
  2
_D_20
 10
235.2873490083
 20
100.2122467654
 30
0.0
 11
231.2873490083
 21
100.2122467654
 31
0.0
 70
   160
  1
<>
  3
SLDDIMSTYLE0
 13
227.2873490083
 23
85.2233696011
 33
0.0
 14
235.2873490083
 24
85.4233696011
 34
0.0
  0
DIMENSION
  5
30E
  8
DIM
  2
_D_21
 10
151.1879813896
 20
62.2233696011
 30
0.0
 11
151.1879813896
 21
110.0220232458
 31
0.0
 70
   160
  1
<>H8
  3
SLDDIMSTYLE5
 13
139.7873490083
 23
66.2233696011
 33
0.0
 14
139.7873490083
 24
62.2233696011
 34
0.0
 50
90.0
  0
INSERT
  5
32C
  8
DIM
  2
SW_CENTERMARKSYMBOL_8
 10
227.2873490083
 20
49.7233696011
 30
0.0
  0
INSERT
  5
338
  8
DIM
  2
SW_CENTERMARKSYMBOL_9
 10
227.2873490083
 20
78.7233696011
 30
0.0
  0
INSERT
  5
344
  8
DIM
  2
SW_CENTERMARKSYMBOL_10
 10
219.2873490083
 20
78.7233696011
 30
0.0
  0
INSERT
  5
350
  8
DIM
  2
SW_CENTERMARKSYMBOL_11
 10
235.2873490083
 20
78.7233696011
 30
0.0
  0
INSERT
  5
35C
  8
DIM
  2
SW_CENTERMARKSYMBOL_12
 10
235.2873490083
 20
49.7233696011
 30
0.0
  0
INSERT
  5
368
  8
DIM
  2
SW_CENTERMARKSYMBOL_13
 10
219.2873490083
 20
49.7233696011
 30
0.0
  0
INSERT
  5
374
  8
DIM
  2
SW_CENTERMARKSYMBOL_14
 10
117.2873490083
 20
64.2233696011
 30
0.0
  0
INSERT
  5
380
  8
DIM
  2
SW_CENTERMARKSYMBOL_15
 10
95.7873490083
 20
64.2233696011
 30
0.0
  0
LINE
  5
381
  8
0
  6
CENTERX2
 62
     7
 10
247.3667191051
 20
78.7233696011
 30
0.0
 11
212.64964108
 21
78.7233696011
 31
0.0
  0
LINE
  5
382
  8
0
  6
CONTINUOUS
 62
     7
 10
245.3667191051
 20
91.4233696011
 30
0.0
 11
245.3667191051
 21
78.7233696011
 31
0.0
  0
INSERT
  5
383
  8
0
  6
CONTINUOUS
 62
     7
  2
_OPEN30
 10
245.3667191051
 20
78.7233696011
 30
0.0
 41
3.0
 42
3.0
 50
270.0
  0
LINE
  5
384
  8
0
  6
CONTINUOUS
 62
     7
 10
214.64964108
 20
91.4233696011
 30
0.0
 11
214.64964108
 21
78.7233696011
 31
0.0
  0
INSERT
  5
385
  8
0
  6
CONTINUOUS
 62
     7
  2
_OPEN30
 10
214.64964108
 20
78.7233696011
 30
0.0
 41
3.0
 42
3.0
 50
270.0
  0
TEXT
  5
386
  8
0
  6
CONTINUOUS
 62
     7
 10
246.1801761974
 20
87.9233696011
 30
0.0
 40
3.5
  1
B
 41
0.7
 11
246.1801761974
 21
91.4233696011
 31
0.0
 73
     3
  0
TEXT
  5
387
  8
0
  6
CONTINUOUS
 62
     7
 10
211.802541257
 20
87.9233696011
 30
0.0
 40
3.5
  1
B
 41
0.7
 11
211.802541257
 21
91.4233696011
 31
0.0
 73
     3
  0
ARC
  5
388
  8
0
  6
CONTINUOUS
 62
     7
 10
186.7873490083
 20
64.2233696011
 30
0.0
 40
2.000000000000012
 50
75.0
 51
345.0
  0
ARC
  5
389
  8
0
  6
CONTINUOUS
 62
     7
 10
146.7873490083
 20
64.2233696011
 30
0.0
 40
2.000000000000012
 50
75.0
 51
345.0
  0
LINE
  5
38A
  8
0
  6
CONTINUOUS
 62
     7
 10
285.0578706823
 20
107.6128293673
 30
0.0
 11
283.5250533506
 21
106.0800120355
 31
0.0
  0
LINE
  5
38B
  8
0
  6
CONTINUOUS
 62
     7
 10
289.5479987429
 20
107.6128293673
 30
0.0
 11
281.9750533506
 21
100.039883975
 31
0.0
  0
LINE
  5
38C
  8
0
  6
CONTINUOUS
 62
     7
 10
286.7750533506
 20
100.3497559144
 30
0.0
 11
286.0381268034
 21
99.6128293673
 31
0.0
  0
LINE
  5
38D
  8
0
  6
CONTINUOUS
 62
     7
 10
293.0250533506
 20
106.5997559144
 30
0.0
 11
289.0381268034
 21
102.6128293673
 31
0.0
  0
LINE
  5
38E
  8
0
  6
CONTINUOUS
 62
     7
 10
294.2282548639
 20
103.3128293673
 30
0.0
 11
290.5282548639
 21
99.6128293673
 31
0.0
  0
LINE
  5
38F
  8
0
  6
CONTINUOUS
 62
     7
 10
276.0776145613
 20
107.6128293673
 30
0.0
 11
273.6373454224
 21
105.1725602284
 31
0.0
  0
LINE
  5
390
  8
0
  6
CONTINUOUS
 62
     7
 10
277.0250533506
 20
104.070140096
 30
0.0
 11
273.6373454224
 21
100.6824321678
 31
0.0
  0
LINE
  5
391
  8
0
  6
CONTINUOUS
 62
     7
 10
278.5750533506
 20
101.1300120355
 30
0.0
 11
277.0578706823
 21
99.6128293673
 31
0.0
  0
LINE
  5
392
  8
0
  6
CONTINUOUS
 62
     7
 10
298.7183829245
 20
103.3128293673
 30
0.0
 11
297.9750533506
 21
102.5694997934
 31
0.0
  0
LINE
  5
393
  8
0
  6
CONTINUOUS
 62
     7
 10
302.3967181375
 20
106.9911645803
 30
0.0
 11
299.5250533506
 21
104.1194997934
 31
0.0
  0
LINE
  5
394
  8
0
  6
CONTINUOUS
 62
     7
 10
302.7750533506
 20
102.8793717328
 30
0.0
 11
299.508510985
 21
99.6128293673
 31
0.0
  0
LINE
  5
395
  8
0
  6
CONTINUOUS
 62
     7
 10
297.9750533506
 20
103.3128293673
 30
0.0
 11
297.9750533506
 21
99.6128293673
 31
0.0
  0
LINE
  5
396
  8
0
  6
CONTINUOUS
 62
     7
 10
299.5250533506
 20
103.3128293673
 30
0.0
 11
297.9750533506
 21
103.3128293673
 31
0.0
  0
LINE
  5
397
  8
0
  6
CONTINUOUS
 62
     7
 10
299.5250533506
 20
107.6128293673
 30
0.0
 11
299.5250533506
 21
103.3128293673
 31
0.0
  0
LINE
  5
398
  8
0
  6
CONTINUOUS
 62
     7
 10
301.7750533506
 20
107.6128293673
 30
0.0
 11
299.5250533506
 21
107.6128293673
 31
0.0
  0
LINE
  5
399
  8
0
  6
CONTINUOUS
 62
     7
 10
301.7750533506
 20
107.6128293673
 30
0.0
 11
302.7750533506
 21
106.6128293673
 31
0.0
  0
LINE
  5
39A
  8
0
  6
CONTINUOUS
 62
     7
 10
302.7750533506
 20
106.6128293673
 30
0.0
 11
302.7750533506
 21
100.6128293673
 31
0.0
  0
LINE
  5
39B
  8
0
  6
CONTINUOUS
 62
     7
 10
302.7750533506
 20
100.6128293673
 30
0.0
 11
301.7750533506
 21
99.6128293673
 31
0.0
  0
LINE
  5
39C
  8
0
  6
CONTINUOUS
 62
     7
 10
301.7750533506
 20
99.6128293673
 30
0.0
 11
297.9750533506
 21
99.6128293673
 31
0.0
  0
LINE
  5
39D
  8
0
  6
CONTINUOUS
 62
     7
 10
277.0250533506
 20
103.3128293673
 30
0.0
 11
277.0250533506
 21
107.6128293673
 31
0.0
  0
LINE
  5
39E
  8
0
  6
CONTINUOUS
 62
     7
 10
283.5250533506
 20
107.6128293673
 30
0.0
 11
277.0250533506
 21
107.6128293673
 31
0.0
  0
LINE
  5
39F
  8
0
  6
CONTINUOUS
 62
     7
 10
283.5250533506
 20
107.6128293673
 30
0.0
 11
283.5250533506
 21
103.3128293673
 31
0.0
  0
LINE
  5
3A0
  8
0
  6
CONTINUOUS
 62
     7
 10
278.5750533506
 20
103.3128293673
 30
0.0
 11
277.0250533506
 21
103.3128293673
 31
0.0
  0
LINE
  5
3A1
  8
0
  6
CONTINUOUS
 62
     7
 10
278.5750533506
 20
99.6128293673
 30
0.0
 11
278.5750533506
 21
103.3128293673
 31
0.0
  0
LINE
  5
3A2
  8
0
  6
CONTINUOUS
 62
     7
 10
278.5750533506
 20
99.6128293673
 30
0.0
 11
273.6373454224
 21
99.6128293673
 31
0.0
  0
LINE
  5
3A3
  8
0
  6
CONTINUOUS
 62
     7
 10
273.6373454224
 20
99.6128293673
 30
0.0
 11
273.6373454224
 21
107.6128293673
 31
0.0
  0
LINE
  5
3A4
  8
0
  6
CONTINUOUS
 62
     7
 10
277.0250533506
 20
107.6128293673
 30
0.0
 11
273.6373454224
 21
107.6128293673
 31
0.0
  0
LINE
  5
3A5
  8
0
  6
CONTINUOUS
 62
     7
 10
293.0250533506
 20
103.3128293673
 30
0.0
 11
293.0250533506
 21
107.6128293673
 31
0.0
  0
LINE
  5
3A6
  8
0
  6
CONTINUOUS
 62
     7
 10
299.5250533506
 20
107.6128293673
 30
0.0
 11
293.0250533506
 21
107.6128293673
 31
0.0
  0
LINE
  5
3A7
  8
0
  6
CONTINUOUS
 62
     7
 10
294.5750533506
 20
103.3128293673
 30
0.0
 11
293.0250533506
 21
103.3128293673
 31
0.0
  0
LINE
  5
3A8
  8
0
  6
CONTINUOUS
 62
     7
 10
294.5750533506
 20
99.6128293673
 30
0.0
 11
294.5750533506
 21
103.3128293673
 31
0.0
  0
LINE
  5
3A9
  8
0
  6
CONTINUOUS
 62
     7
 10
294.5750533506
 20
99.6128293673
 30
0.0
 11
290.2750533506
 21
99.6128293673
 31
0.0
  0
LINE
  5
3AA
  8
0
  6
CONTINUOUS
 62
     7
 10
290.2750533506
 20
99.6128293673
 30
0.0
 11
289.7750533506
 21
100.1128293673
 31
0.0
  0
LINE
  5
3AB
  8
0
  6
CONTINUOUS
 62
     7
 10
289.7750533506
 20
102.6128293673
 30
0.0
 11
289.7750533506
 21
100.1128293673
 31
0.0
  0
LINE
  5
3AC
  8
0
  6
CONTINUOUS
 62
     7
 10
289.7750533506
 20
102.6128293673
 30
0.0
 11
286.7750533506
 21
102.6128293673
 31
0.0
  0
LINE
  5
3AD
  8
0
  6
CONTINUOUS
 62
     7
 10
286.7750533506
 20
100.1128293673
 30
0.0
 11
286.7750533506
 21
102.6128293673
 31
0.0
  0
LINE
  5
3AE
  8
0
  6
CONTINUOUS
 62
     7
 10
286.7750533506
 20
100.1128293673
 30
0.0
 11
286.2750533506
 21
99.6128293673
 31
0.0
  0
LINE
  5
3AF
  8
0
  6
CONTINUOUS
 62
     7
 10
286.2750533506
 20
99.6128293673
 30
0.0
 11
281.9750533506
 21
99.6128293673
 31
0.0
  0
LINE
  5
3B0
  8
0
  6
CONTINUOUS
 62
     7
 10
281.9750533506
 20
103.3128293673
 30
0.0
 11
281.9750533506
 21
99.6128293673
 31
0.0
  0
LINE
  5
3B1
  8
0
  6
CONTINUOUS
 62
     7
 10
283.5250533506
 20
103.3128293673
 30
0.0
 11
281.9750533506
 21
103.3128293673
 31
0.0
  0
LINE
  5
3B2
  8
0
  6
CONTINUOUS
 62
     7
 10
293.0250533506
 20
107.6128293673
 30
0.0
 11
283.5250533506
 21
107.6128293673
 31
0.0
  0
LINE
  5
3B3
  8
0
  6
CONTINUOUS
 62
     7
 10
281.9750533506
 20
99.6128293673
 30
0.0
 11
278.5750533506
 21
99.6128293673
 31
0.0
  0
LINE
  5
3B4
  8
0
  6
CONTINUOUS
 62
     7
 10
281.9750533506
 20
103.3128293673
 30
0.0
 11
278.5750533506
 21
103.3128293673
 31
0.0
  0
LINE
  5
3B5
  8
0
  6
CONTINUOUS
 62
     7
 10
297.9750533506
 20
99.6128293673
 30
0.0
 11
294.5750533506
 21
99.6128293673
 31
0.0
  0
LINE
  5
3B6
  8
0
  6
CONTINUOUS
 62
     7
 10
297.9750533506
 20
103.3128293673
 30
0.0
 11
294.5750533506
 21
103.3128293673
 31
0.0
  0
LINE
  5
3B7
  8
0
  6
CONTINUOUS
 62
     7
 10
286.7750533506
 20
100.1128293673
 30
0.0
 11
289.7750533506
 21
100.1128293673
 31
0.0
  0
LINE
  5
3B8
  8
0
  6
CONTINUOUS
 62
     7
 10
290.2750533506
 20
99.6128293673
 30
0.0
 11
286.2750533506
 21
99.6128293673
 31
0.0
  0
DIMENSION
  5
3B9
  8
DIM
  2
_D_22
 10
289.7750533506
 20
88.0626552981
 30
0.0
 11
305.6476650236
 21
88.0626552981
 31
0.0
 70
   160
  1
2x%%c<>H8
  3
SLDDIMSTYLE7
 13
286.7750533506
 23
100.1128293673
 33
0.0
 14
289.7750533506
 24
100.1128293673
 34
0.0
  0
DIMENSION
  5
3CF
  8
DIM
  2
_D_23
 10
284.7902642916
 20
102.6128293673
 30
0.0
 11
284.7902642916
 21
94.6995248807
 31
0.0
 70
   160
  1
<>
  3
SLDDIMSTYLE1
 13
286.2750533506
 23
99.6128293673
 33
0.0
 14
286.7750533506
 24
102.6128293673
 34
0.0
 50
90.0
  0
TEXT
  5
3DA
  8
0
  6
CONTINUOUS
 62
     7
 10
285.1509910238
 20
116.950628589
 30
0.0
 40
3.5
  1
B-B
 41
0.7
 11
285.1509910238
 21
115.7142183723
 31
0.0
 73
     1
  0
LINE
  5
3DB
  8
DIM
  6
CENTERX2
 10
288.2750533506
 20
107.6128293673
 30
0.0
 11
288.2750533506
 21
95.1128293673
 31
0.0
  0
ENDSEC
  0
EOF
