  0
SECTION
  2
HEADER
  9
$ACADVER
  1
AC1009
  9
$DWGCODEPAGE
  3
dos932
  9
$INSBASE
 10
0.0
 20
0.0
 30
0.0
  9
$EXTMIN
 10
0.0
 20
0.0
 30
0.0
  9
$EXTMAX
 10
840.0
 20
594.0
 30
0.0
  9
$LIMMIN
 10
0.0
 20
0.0
  9
$LIMMAX
 10
840.0
 20
594.0
  9
$ORTHOMODE
 70
     0
  9
$REGENMODE
 70
     1
  9
$FILLMODE
 70
     1
  9
$QTEXTMODE
 70
     0
  9
$MIRRTEXT
 70
     1
  9
$DRAGMODE
 70
     2
  9
$LTSCALE
 40
2.0
  9
$OSMODE
 70
    37
  9
$ATTMODE
 70
     1
  9
$TEXTSIZE
 40
7.0
  9
$TRACEWID
 40
1.0
  9
$TEXTSTYLE
  7
STANDARD
  9
$CLAYER
  8
0
  9
$CELTYPE
  6
BYLAYER
  9
$CECOLOR
 62
   256
  9
$DIMSCALE
 40
1.0
  9
$DIMASZ
 40
6.0
  9
$DIMEXO
 40
0.02
  9
$DIMDLI
 40
3.75
  9
$DIMRND
 40
0.0
  9
$DIMDLE
 40
0.0
  9
$DIMEXE
 40
2.0
  9
$DIMTP
 40
0.0
  9
$DIMTM
 40
0.0
  9
$DIMTXT
 40
7.0
  9
$DIMCEN
 40
2.5
  9
$DIMTSZ
 40
0.0
  9
$DIMTOL
 70
     0
  9
$DIMLIM
 70
     0
  9
$DIMTIH
 70
     1
  9
$DIMTOH
 70
     1
  9
$DIMSE1
 70
     0
  9
$DIMSE2
 70
     0
  9
$DIMTAD
 70
     1
  9
$DIMZIN
 70
     0
  9
$DIMBLK
  1

  9
$DIMASO
 70
     1
  9
$DIMSHO
 70
     1
  9
$DIMPOST
  1

  9
$DIMAPOST
  1

  9
$DIMALT
 70
     0
  9
$DIMALTD
 70
     3
  9
$DIMALTF
 40
0.0393700787
  9
$DIMLFAC
 40
1.0
  9
$DIMTOFL
 70
     1
  9
$DIMTVP
 40
0.0
  9
$DIMTIX
 70
     0
  9
$DIMSOXD
 70
     0
  9
$DIMSAH
 70
     0
  9
$DIMBLK1
  1

  9
$DIMBLK2
  1

  9
$DIMSTYLE
  2
ISO-25
  9
$DIMCLRD
 70
     0
  9
$DIMCLRE
 70
     0
  9
$DIMCLRT
 70
     0
  9
$DIMTFAC
 40
1.0
  9
$DIMGAP
 40
3.048
  9
$LUNITS
 70
     2
  9
$LUPREC
 70
     4
  9
$SKETCHINC
 40
1.0
  9
$FILLETRAD
 40
10.0
  9
$AUNITS
 70
     0
  9
$AUPREC
 70
     2
  9
$MENU
  1
.
  9
$ELEVATION
 40
0.0
  9
$PELEVATION
 40
0.0
  9
$THICKNESS
 40
0.0
  9
$LIMCHECK
 70
     0
  9
$CHAMFERA
 40
0.0
  9
$CHAMFERB
 40
0.0
  9
$SKPOLY
 70
     0
  9
$TDCREATE
 40
2460356.620557535
  9
$TDUPDATE
 40
2460356.620559364
  9
$TDINDWG
 40
0.0000000116
  9
$TDUSRTIMER
 40
0.0000000116
  9
$USRTIMER
 70
     1
  9
$ANGBASE
 50
0.0
  9
$ANGDIR
 70
     0
  9
$PDMODE
 70
     0
  9
$PDSIZE
 40
-1.0
  9
$PLINEWID
 40
0.0
  9
$COORDS
 70
     1
  9
$SPLFRAME
 70
     0
  9
$SPLINETYPE
 70
     6
  9
$SPLINESEGS
 70
     8
  9
$ATTDIA
 70
     0
  9
$ATTREQ
 70
     1
  9
$HANDLING
 70
     1
  9
$HANDSEED
  5
2C0
  9
$SURFTAB1
 70
     6
  9
$SURFTAB2
 70
     6
  9
$SURFTYPE
 70
     6
  9
$SURFU
 70
     6
  9
$SURFV
 70
     6
  9
$UCSNAME
  2

  9
$UCSORG
 10
0.0
 20
0.0
 30
0.0
  9
$UCSXDIR
 10
1.0
 20
0.0
 30
0.0
  9
$UCSYDIR
 10
0.0
 20
1.0
 30
0.0
  9
$PUCSNAME
  2

  9
$PUCSORG
 10
0.0
 20
0.0
 30
0.0
  9
$PUCSXDIR
 10
1.0
 20
0.0
 30
0.0
  9
$PUCSYDIR
 10
0.0
 20
1.0
 30
0.0
  9
$USERI1
 70
     0
  9
$USERI2
 70
     0
  9
$USERI3
 70
     0
  9
$USERI4
 70
     0
  9
$USERI5
 70
     0
  9
$USERR1
 40
0.0
  9
$USERR2
 40
0.0
  9
$USERR3
 40
0.0
  9
$USERR4
 40
0.0
  9
$USERR5
 40
0.0
  9
$WORLDVIEW
 70
     1
  9
$SHADEDGE
 70
     3
  9
$SHADEDIF
 70
    70
  9
$TILEMODE
 70
     1
  9
$MAXACTVP
 70
    64
  9
$PLIMCHECK
 70
     0
  9
$PEXTMIN
 10
1.0000000000E+20
 20
1.0000000000E+20
 30
1.0000000000E+20
  9
$PEXTMAX
 10
-1.0000000000E+20
 20
-1.0000000000E+20
 30
-1.0000000000E+20
  9
$PLIMMIN
 10
0.0
 20
0.0
  9
$PLIMMAX
 10
420.0
 20
297.0
  9
$UNITMODE
 70
     0
  9
$VISRETAIN
 70
     1
  9
$PLINEGEN
 70
     0
  9
$PSLTSCALE
 70
     1
  0
ENDSEC
  0
SECTION
  2
TABLES
  0
TABLE
  2
VPORT
 70
     1
  0
VPORT
  2
*ACTIVE
 70
     0
 10
0.0
 20
0.0
 11
1.0
 21
1.0
 12
420.0
 22
297.0
 13
0.0
 23
0.0
 14
10.0
 24
10.0
 15
10.0
 25
10.0
 16
0.0
 26
0.0
 36
1.0
 17
0.0
 27
0.0
 37
0.0
 40
594.0
 41
1.4141414141
 42
50.0
 43
0.0
 44
0.0
 50
0.0
 51
0.0
 71
     0
 72
  2000
 73
     1
 74
     3
 75
     0
 76
     0
 77
     0
 78
     0
  0
ENDTAB
  0
TABLE
  2
LTYPE
 70
     6
  0
LTYPE
  2
CONTINUOUS
 70
     0
  3
Solid line
 72
    65
 73
     0
 40
0.0
  0
LTYPE
  2
HIDDEN
 70
     0
  3
Hidden __ __ __ __ __ __ __ __ __ __ __ __ __ __
 72
    65
 73
     2
 40
1.905
 49
1.27
 49
-0.635
  0
LTYPE
  2
PHANTOM
 70
     0
  3
Phantom ______  __  __  ______  __  __  ______
 72
    65
 73
     6
 40
12.7
 49
6.35
 49
-1.27
 49
1.27
 49
-1.27
 49
1.27
 49
-1.27
  0
LTYPE
  2
CENTER
 70
     0
  3
Center ____ _ ____ _ ____ _ ____ _ ____ _ ____
 72
    65
 73
     4
 40
10.16
 49
6.35
 49
-1.27
 49
1.27
 49
-1.27
  0
LTYPE
  2
CENTERX2
 70
     0
  3
Center (2x) ________  __  ________  __  _____
 72
    65
 73
     4
 40
20.32
 49
12.7
 49
-2.54
 49
2.54
 49
-2.54
  0
LTYPE
  2
DOT2
 70
     0
  3
Dot (.5x) ........................................
 72
    65
 73
     2
 40
0.635
 49
0.0
 49
-0.635
  0
ENDTAB
  0
TABLE
  2
LAYER
 70
     4
  0
LAYER
  2
0
 70
     0
 62
     7
  6
CONTINUOUS
  0
LAYER
  2
DIM
 70
     0
 62
     7
  6
CONTINUOUS
  0
LAYER
  2
TXT
 70
     0
 62
     7
  6
CONTINUOUS
  0
LAYER
  2
FRAME
 70
     0
 62
     7
  6
CONTINUOUS
  0
ENDTAB
  0
TABLE
  2
STYLE
 70
     1
  0
STYLE
  2
STANDARD
 70
     0
 40
0.0
 41
1.0
 50
0.0
 71
     0
 42
7.0
  3
txt
  4
bigfont
  0
ENDTAB
  0
TABLE
  2
VIEW
 70
     0
  0
ENDTAB
  0
TABLE
  2
UCS
 70
     0
  0
ENDTAB
  0
TABLE
  2
APPID
 70
     1
  0
APPID
  2
ACAD
 70
     0
  0
ENDTAB
  0
TABLE
  2
DIMSTYLE
 70
     4
  0
DIMSTYLE
  2
ISO-25
 70
     0
  3

  4

  5

  6

  7

 40
1.0
 41
2.5
 42
0.625
 43
3.75
 44
1.25
 45
0.0
 46
0.0
 47
0.0
 48
0.0
140
2.5
141
2.5
142
0.0
143
0.0393700787
144
1.0
145
0.0
146
1.0
147
0.625
 71
     0
 72
     0
 73
     0
 74
     0
 75
     0
 76
     0
 77
     1
 78
     8
170
     0
171
     3
172
     1
173
     0
174
     0
175
     0
176
     0
177
     0
178
     0
  0
DIMSTYLE
  2
SLDDIMSTYLE0
 70
     0
  3

  4

  5

  6
OPEN30
  7
OPEN30
 40
1.0
 41
6.0
 42
0.0625
 43
0.38
 44
0.0
 45
0.000000001
 46
0.0
 47
0.0
 48
0.0
140
7.0
141
0.09
142
0.0
143
25.4
144
1.0
145
0.0
146
1.0
147
1.75
 71
     0
 72
     0
 73
     0
 74
     0
 75
     0
 76
     0
 77
     3
 78
    12
170
     0
171
     2
172
     0
173
     1
174
     0
175
     0
176
     0
177
     0
178
     0
  0
DIMSTYLE
  2
SLDDIMSTYLE1
 70
     0
  3

  4

  5

  6
OPEN30
  7
OPEN30
 40
1.0
 41
6.0
 42
0.0625
 43
0.38
 44
0.0
 45
0.000000001
 46
0.0
 47
0.0
 48
0.0
140
7.0
141
0.09
142
0.0
143
25.4
144
1.0
145
0.0
146
1.0
147
1.75
 71
     0
 72
     0
 73
     0
 74
     0
 75
     0
 76
     0
 77
     3
 78
    12
170
     0
171
     2
172
     1
173
     1
174
     0
175
     0
176
     0
177
     0
178
     0
  0
DIMSTYLE
  2
SLDDIMSTYLE2
 70
     0
  3

  4

  5

  6
NONE
  7
OPEN30
 40
1.0
 41
6.0
 42
0.0625
 43
0.38
 44
0.0
 45
0.000000001
 46
0.0
 47
0.018
 48
0.0
140
7.0
141
0.0
142
0.0
143
25.4
144
1.0
145
0.0
146
1.0
147
1.75
 71
     1
 72
     0
 73
     1
 74
     1
 75
     0
 76
     0
 77
     0
 78
    12
170
     0
171
     2
172
     1
173
     1
174
     0
175
     0
176
     0
177
     0
178
     0
  0
ENDTAB
  0
ENDSEC
  0
SECTION
  2
BLOCKS
  0
BLOCK
  8
0
  2
$MODEL_SPACE
 70
     0
 10
0.0
 20
0.0
 30
0.0
  3
$MODEL_SPACE
  1

  0
ENDBLK
  5
21
  8
0
  0
BLOCK
 67
     1
  8
0
  2
$PAPER_SPACE
 70
     0
 10
0.0
 20
0.0
 30
0.0
  3
$PAPER_SPACE
  1

  0
ENDBLK
  5
1D
 67
     1
  8
0
  0
BLOCK
  8
0
  2
_OPEN30
 70
     0
 10
0.0
 20
0.0
 30
0.0
  3
_OPEN30
  1

  0
LINE
  5
DB
  8
0
  6
BYBLOCK
 62
     0
 10
-1.0
 20
0.267949
 30
0.0
 11
0.0
 21
0.0
 31
0.0
  0
LINE
  5
DC
  8
0
  6
BYBLOCK
 62
     0
 10
0.0
 20
0.0
 30
0.0
 11
-1.0
 21
-0.267949
 31
0.0
  0
LINE
  5
DD
  8
0
  6
BYBLOCK
 62
     0
 10
0.0
 20
0.0
 30
0.0
 11
-1.0
 21
0.0
 31
0.0
  0
ENDBLK
  5
DA
  8
0
  0
BLOCK
  8
0
  2
_D
 70
     0
 10
0.0
 20
0.0
 30
0.0
  3
_D
  1

  0
INSERT
  5
E1
  8
DIM
  2
_OPEN30
 10
444.2334331002
 20
221.5388253645
 30
-83.4600314154
 41
6.0
 42
6.0
 50
270.0
  0
INSERT
  5
E2
  8
DIM
  2
_OPEN30
 10
444.2334331002
 20
267.5388253645
 30
-83.4600314154
 41
6.0
 42
6.0
 50
90.0
  0
LINE
  5
E3
  8
DIM
 10
392.2863196306
 20
221.5388253645
 30
0.0
 11
446.2334331002
 21
221.5388253645
 31
0.0
  0
LINE
  5
E4
  8
DIM
 10
392.2863196306
 20
267.5388253645
 30
0.0
 11
446.2334331002
 21
267.5388253645
 31
0.0
  0
LINE
  5
E5
  8
DIM
 10
444.2334331002
 20
221.5388253645
 30
0.0
 11
444.2334331002
 21
267.5388253645
 31
0.0
  0
TEXT
  5
E6
  8
DIM
 10
441.7606131324
 20
240.4652143695
 30
-83.4600314154
 40
7.0
  1
46
 50
90.0
 41
0.7
 11
444.2334335658
 21
240.4652143695
 31
-83.4600314154
 73
     1
  0
ENDBLK
  5
E0
  8
0
  0
BLOCK
  8
0
  2
_D_1
 70
     0
 10
0.0
 20
0.0
 30
0.0
  3
_D_1
  1

  0
INSERT
  5
EB
  8
DIM
  2
_OPEN30
 10
420.9056002365
 20
234.5388253645
 30
-83.4600314154
 41
6.0
 42
6.0
 50
270.0
  0
INSERT
  5
EC
  8
DIM
  2
_OPEN30
 10
420.9056002365
 20
267.5388253645
 30
-83.4600314154
 41
6.0
 42
6.0
 50
90.0
  0
LINE
  5
ED
  8
DIM
 10
403.7863196306
 20
234.5388253645
 30
0.0
 11
422.9056002365
 21
234.5388253645
 31
0.0
  0
LINE
  5
EE
  8
DIM
 10
392.2863196306
 20
267.5388253645
 30
0.0
 11
422.9056002365
 21
267.5388253645
 31
0.0
  0
LINE
  5
EF
  8
DIM
 10
420.9056002365
 20
234.5388253645
 30
0.0
 11
420.9056002365
 21
267.5388253645
 31
0.0
  0
TEXT
  5
F0
  8
DIM
 10
418.4327802687
 20
246.9652143695
 30
-83.4600314154
 40
7.0
  1
33
 50
90.0
 41
0.7
 11
420.9056007021
 21
246.9652143695
 31
-83.4600314154
 73
     1
  0
ENDBLK
  5
EA
  8
0
  0
BLOCK
  8
0
  2
SW_NOTE_0
 70
     0
 10
0.0
 20
0.0
 30
0.0
  3
SW_NOTE_0
  1

  0
LINE
  5
F4
  8
TXT
 62
     0
 10
-132.435710955
 20
24.2986346672
 30
0.0
 11
-30.3425790074
 21
24.2986346672
 31
0.0
  0
TEXT
  5
F5
  8
TXT
 62
     0
 10
-133.4112366296
 20
26.891392842
 30
0.0
 40
7.0
  1
4xφ6.6,11深座ぐり深さ6.5
 41
0.7
 11
-133.4112366296
 21
24.4185724086
 31
0.0
 73
     1
  0
LINE
  5
F6
  8
TXT
 62
     0
 10
-30.3425790074
 20
24.2986346672
 30
0.0
 11
0.0
 21
0.0
 31
0.0
  0
INSERT
  5
F7
  8
TXT
 62
     0
  2
_OPEN30
 10
0.0
 20
0.0
 30
-77.9600314154
 41
6.0
 42
6.0
 50
321.3119113347
  0
ENDBLK
  5
F3
  8
0
  0
BLOCK
  8
0
  2
SW_CENTERMARKSYMBOL_0
 70
     0
 10
0.0
 20
0.0
 30
0.0
  3
SW_CENTERMARKSYMBOL_0
  1

  0
LINE
  5
FC
  8
DIM
 62
     0
 10
0.0
 20
0.0
 30
0.0
 11
0.0
 21
5.0
 31
0.0
  0
LINE
  5
FD
  8
DIM
 62
     0
 10
0.0
 20
0.0
 30
0.0
 11
-5.0
 21
0.0
 31
0.0
  0
LINE
  5
FE
  8
DIM
 62
     0
 10
0.0
 20
0.0
 30
0.0
 11
0.0
 21
-5.0
 31
0.0
  0
LINE
  5
FF
  8
DIM
 62
     0
 10
0.0
 20
0.0
 30
0.0
 11
5.0
 21
0.0
 31
0.0
  0
LINE
  5
100
  8
DIM
 62
     0
 10
0.0
 20
10.0
 30
0.0
 11
0.0
 21
10.5
 31
0.0
  0
LINE
  5
101
  8
DIM
 62
     0
 10
-10.0
 20
0.0
 30
0.0
 11
-10.5
 21
0.0
 31
0.0
  0
LINE
  5
102
  8
DIM
 62
     0
 10
0.0
 20
-10.0
 30
0.0
 11
0.0
 21
-10.5
 31
0.0
  0
LINE
  5
103
  8
DIM
 62
     0
 10
10.0
 20
0.0
 30
0.0
 11
87.1825784631
 21
0.0
 31
0.0
  0
ENDBLK
  5
FB
  8
0
  0
BLOCK
  8
0
  2
SW_CENTERMARKSYMBOL_1
 70
     0
 10
0.0
 20
0.0
 30
0.0
  3
SW_CENTERMARKSYMBOL_1
  1

  0
LINE
  5
108
  8
DIM
 62
     0
 10
0.0
 20
0.0
 30
0.0
 11
0.0
 21
5.0
 31
0.0
  0
LINE
  5
109
  8
DIM
 62
     0
 10
0.0
 20
0.0
 30
0.0
 11
-5.0
 21
0.0
 31
0.0
  0
LINE
  5
10A
  8
DIM
 62
     0
 10
0.0
 20
0.0
 30
0.0
 11
0.0
 21
-5.0
 31
0.0
  0
LINE
  5
10B
  8
DIM
 62
     0
 10
0.0
 20
0.0
 30
0.0
 11
5.0
 21
0.0
 31
0.0
  0
LINE
  5
10C
  8
DIM
 62
     0
 10
0.0
 20
10.0
 30
0.0
 11
0.0
 21
10.5
 31
0.0
  0
LINE
  5
10D
  8
DIM
 62
     0
 10
-10.0
 20
0.0
 30
0.0
 11
-10.5
 21
0.0
 31
0.0
  0
LINE
  5
10E
  8
DIM
 62
     0
 10
0.0
 20
-10.0
 30
0.0
 11
0.0
 21
-10.5
 31
0.0
  0
LINE
  5
10F
  8
DIM
 62
     0
 10
10.0
 20
0.0
 30
0.0
 11
10.5
 21
0.0
 31
0.0
  0
ENDBLK
  5
107
  8
0
  0
BLOCK
  8
0
  2
SW_CENTERMARKSYMBOL_2
 70
     0
 10
0.0
 20
0.0
 30
0.0
  3
SW_CENTERMARKSYMBOL_2
  1

  0
LINE
  5
114
  8
DIM
 62
     0
 10
0.0
 20
0.0
 30
0.0
 11
0.0
 21
5.0
 31
0.0
  0
LINE
  5
115
  8
DIM
 62
     0
 10
0.0
 20
0.0
 30
0.0
 11
-5.0
 21
0.0
 31
0.0
  0
LINE
  5
116
  8
DIM
 62
     0
 10
0.0
 20
0.0
 30
0.0
 11
0.0
 21
-5.0
 31
0.0
  0
LINE
  5
117
  8
DIM
 62
     0
 10
0.0
 20
0.0
 30
0.0
 11
5.0
 21
0.0
 31
0.0
  0
LINE
  5
118
  8
DIM
 62
     0
 10
0.0
 20
10.0
 30
0.0
 11
0.0
 21
10.5
 31
0.0
  0
LINE
  5
119
  8
DIM
 62
     0
 10
-10.0
 20
0.0
 30
0.0
 11
-10.5
 21
0.0
 31
0.0
  0
LINE
  5
11A
  8
DIM
 62
     0
 10
0.0
 20
-10.0
 30
0.0
 11
0.0
 21
-10.5
 31
0.0
  0
LINE
  5
11B
  8
DIM
 62
     0
 10
10.0
 20
0.0
 30
0.0
 11
10.5
 21
0.0
 31
0.0
  0
ENDBLK
  5
113
  8
0
  0
BLOCK
  8
0
  2
SW_CENTERMARKSYMBOL_3
 70
     0
 10
0.0
 20
0.0
 30
0.0
  3
SW_CENTERMARKSYMBOL_3
  1

  0
LINE
  5
120
  8
DIM
 62
     0
 10
0.0
 20
0.0
 30
0.0
 11
0.0
 21
5.0
 31
0.0
  0
LINE
  5
121
  8
DIM
 62
     0
 10
0.0
 20
0.0
 30
0.0
 11
-5.0
 21
0.0
 31
0.0
  0
LINE
  5
122
  8
DIM
 62
     0
 10
0.0
 20
0.0
 30
0.0
 11
0.0
 21
-5.0
 31
0.0
  0
LINE
  5
123
  8
DIM
 62
     0
 10
0.0
 20
0.0
 30
0.0
 11
5.0
 21
0.0
 31
0.0
  0
LINE
  5
124
  8
DIM
 62
     0
 10
0.0
 20
10.0
 30
0.0
 11
0.0
 21
10.5
 31
0.0
  0
LINE
  5
125
  8
DIM
 62
     0
 10
-10.0
 20
0.0
 30
0.0
 11
-10.5
 21
0.0
 31
0.0
  0
LINE
  5
126
  8
DIM
 62
     0
 10
0.0
 20
-10.0
 30
0.0
 11
0.0
 21
-10.5
 31
0.0
  0
LINE
  5
127
  8
DIM
 62
     0
 10
10.0
 20
0.0
 30
0.0
 11
90.7111442628
 21
0.0
 31
0.0
  0
ENDBLK
  5
11F
  8
0
  0
BLOCK
  8
0
  2
_D_2
 70
     0
 10
0.0
 20
0.0
 30
0.0
  3
_D_2
  1

  0
INSERT
  5
16B
  8
DIM
  2
_OPEN30
 10
719.2725105729
 20
132.0388253645
 30
-1.3580128774
 41
6.0
 42
6.0
 50
270.0
  0
INSERT
  5
16C
  8
DIM
  2
_OPEN30
 10
719.2725105729
 20
337.0388253645
 30
-1.3580128774
 41
6.0
 42
6.0
 50
90.0
  0
LINE
  5
16D
  8
DIM
 10
679.051716308
 20
132.0388253645
 30
0.0
 11
721.2725105729
 21
132.0388253645
 31
0.0
  0
LINE
  5
16E
  8
DIM
 10
679.051716308
 20
337.0388253645
 30
0.0
 11
721.2725105729
 21
337.0388253645
 31
0.0
  0
LINE
  5
16F
  8
DIM
 10
719.2725105729
 20
132.0388253645
 30
0.0
 11
719.2725105729
 21
337.0388253645
 31
0.0
  0
TEXT
  5
170
  8
DIM
 10
716.7996906051
 20
228.4284086392
 30
-1.3580128774
 40
7.0
  1
205
 50
90.0
 41
0.7
 11
719.2725110386
 21
228.4284086392
 31
-1.3580128774
 73
     1
  0
ENDBLK
  5
16A
  8
0
  0
BLOCK
  8
0
  2
_D_3
 70
     0
 10
0.0
 20
0.0
 30
0.0
  3
_D_3
  1

  0
INSERT
  5
175
  8
DIM
  2
_OPEN30
 10
509.7634784895
 20
337.0388253645
 30
-1.3580128774
 41
6.0
 42
6.0
 50
90.0
  0
INSERT
  5
176
  8
DIM
  2
_OPEN30
 10
509.7634784895
 20
212.0388253645
 30
-1.3580128774
 41
6.0
 42
6.0
 50
270.0
  0
LINE
  5
177
  8
DIM
 10
668.011716308
 20
337.0388253645
 30
0.0
 11
507.7634784895
 21
337.0388253645
 31
0.0
  0
LINE
  5
178
  8
DIM
 10
532.511716308
 20
212.0388253645
 30
0.0
 11
507.7634784895
 21
212.0388253645
 31
0.0
  0
LINE
  5
179
  8
DIM
 10
509.7634784895
 20
337.0388253645
 30
0.0
 11
509.7634784895
 21
212.0388253645
 31
0.0
  0
TEXT
  5
17A
  8
DIM
 10
507.2906585217
 20
268.4284086392
 30
-1.3580128774
 40
7.0
  1
125
 50
90.0
 41
0.7
 11
509.7634789551
 21
268.4284086392
 31
-1.3580128774
 73
     1
  0
ENDBLK
  5
174
  8
0
  0
BLOCK
  8
0
  2
_D_4
 70
     0
 10
0.0
 20
0.0
 30
0.0
  3
_D_4
  1

  0
INSERT
  5
180
  8
DIM
  2
_OPEN30
 10
509.7634784895
 20
212.0388253645
 30
-1.3580128774
 41
6.0
 42
6.0
 50
270.0
  0
INSERT
  5
181
  8
DIM
  2
_OPEN30
 10
509.7634784895
 20
200.0388253645
 30
-1.3580128774
 41
6.0
 42
6.0
 50
90.0
  0
LINE
  5
182
  8
DIM
 10
532.511716308
 20
212.0388253645
 30
0.0
 11
507.7634784895
 21
212.0388253645
 31
0.0
  0
LINE
  5
183
  8
DIM
 10
532.511716308
 20
200.0388253645
 30
0.0
 11
507.7634784895
 21
200.0388253645
 31
0.0
  0
LINE
  5
184
  8
DIM
 10
509.7634784895
 20
212.0388253645
 30
0.0
 11
509.7634784895
 21
224.7388253645
 31
0.0
  0
LINE
  5
185
  8
DIM
 10
509.7634784895
 20
212.0388253645
 30
0.0
 11
509.7634784895
 21
200.0388253645
 31
0.0
  0
LINE
  5
186
  8
DIM
 10
509.7634784895
 20
200.0388253645
 30
0.0
 11
509.7634784895
 21
187.3388253645
 31
0.0
  0
TEXT
  5
187
  8
DIM
 10
507.2906585217
 20
201.9652143695
 30
-1.3580128774
 40
7.0
  1
12
 50
90.0
 41
0.7
 11
509.7634789551
 21
201.9652143695
 31
-1.3580128774
 73
     1
  0
ENDBLK
  5
17F
  8
0
  0
BLOCK
  8
0
  2
_D_5
 70
     0
 10
0.0
 20
0.0
 30
0.0
  3
_D_5
  1

  0
INSERT
  5
18C
  8
DIM
  2
_OPEN30
 10
679.531716308
 20
125.2524063222
 30
-1.3580128774
 41
6.0
 42
6.0
 50
0.0
  0
INSERT
  5
18D
  8
DIM
  2
_OPEN30
 10
587.531716308
 20
125.2524063222
 30
-1.3580128774
 41
6.0
 42
6.0
 50
180.0
  0
LINE
  5
18E
  8
DIM
 10
679.531716308
 20
132.5188253645
 30
0.0
 11
679.531716308
 21
123.2524063222
 31
0.0
  0
LINE
  5
18F
  8
DIM
 10
587.531716308
 20
175.0188253645
 30
0.0
 11
587.531716308
 21
123.2524063222
 31
0.0
  0
LINE
  5
190
  8
DIM
 10
679.531716308
 20
125.2524063222
 30
0.0
 11
587.531716308
 21
125.2524063222
 31
0.0
  0
TEXT
  5
191
  8
DIM
 10
629.458105313
 20
127.72522629
 30
-1.3580128774
 40
7.0
  1
92
 50
0.0
 41
0.7
 11
629.458105313
 21
125.2524058565
 31
-1.3580128774
 73
     1
  0
ENDBLK
  5
18B
  8
0
  0
BLOCK
  8
0
  2
_D_6
 70
     0
 10
0.0
 20
0.0
 30
0.0
  3
_D_6
  1

  0
INSERT
  5
196
  8
DIM
  2
_OPEN30
 10
509.7634784895
 20
175.0388253645
 30
-1.3580128774
 41
6.0
 42
6.0
 50
270.0
  0
INSERT
  5
197
  8
DIM
  2
_OPEN30
 10
509.7634784895
 20
200.0388253645
 30
-1.3580128774
 41
6.0
 42
6.0
 50
90.0
  0
LINE
  5
198
  8
DIM
 10
587.511716308
 20
175.0388253645
 30
0.0
 11
507.7634784895
 21
175.0388253645
 31
0.0
  0
LINE
  5
199
  8
DIM
 10
532.511716308
 20
200.0388253645
 30
0.0
 11
507.7634784895
 21
200.0388253645
 31
0.0
  0
LINE
  5
19A
  8
DIM
 10
509.7634784895
 20
175.0388253645
 30
0.0
 11
509.7634784895
 21
200.0388253645
 31
0.0
  0
TEXT
  5
19B
  8
DIM
 10
507.2906585217
 20
183.4652143695
 30
-1.3580128774
 40
7.0
  1
25
 50
90.0
 41
0.7
 11
509.7634789551
 21
183.4652143695
 31
-1.3580128774
 73
     1
  0
ENDBLK
  5
195
  8
0
  0
BLOCK
  8
0
  2
_D_7
 70
     0
 10
0.0
 20
0.0
 30
0.0
  3
_D_7
  1

  0
INSERT
  5
1FD
  8
DIM
  2
_OPEN30
 10
266.7663196306
 20
552.4416326814
 30
-3.1649080437
 41
6.0
 42
6.0
 50
180.0
  0
INSERT
  5
1FE
  8
DIM
  2
_OPEN30
 10
396.7663196306
 20
552.4416326814
 30
-3.1649080437
 41
6.0
 42
6.0
 50
0.0
  0
LINE
  5
1FF
  8
DIM
 10
266.7663196306
 20
518.7068528765
 30
0.0
 11
266.7663196306
 21
554.4416326814
 31
0.0
  0
LINE
  5
200
  8
DIM
 10
396.7663196306
 20
518.7068528765
 30
0.0
 11
396.7663196306
 21
554.4416326814
 31
0.0
  0
LINE
  5
201
  8
DIM
 10
266.7663196306
 20
552.4416326814
 30
0.0
 11
396.7663196306
 21
552.4416326814
 31
0.0
  0
TEXT
  5
202
  8
DIM
 10
325.6559029054
 20
554.9144526491
 30
-3.1649080437
 40
7.0
  1
130
 41
0.7
 11
325.6559029054
 21
552.4416322157
 31
-3.1649080437
 73
     1
  0
ENDBLK
  5
1FC
  8
0
  0
BLOCK
  8
0
  2
_D_8
 70
     0
 10
0.0
 20
0.0
 30
0.0
  3
_D_8
  1

  0
INSERT
  5
207
  8
DIM
  2
_OPEN30
 10
443.0936048678
 20
519.1868528765
 30
-3.1649080437
 41
6.0
 42
6.0
 50
90.0
  0
INSERT
  5
208
  8
DIM
  2
_OPEN30
 10
443.0936048678
 20
362.1868528765
 30
-3.1649080437
 41
6.0
 42
6.0
 50
270.0
  0
LINE
  5
209
  8
DIM
 10
396.2863196306
 20
519.1868528765
 30
0.0
 11
445.0936048678
 21
519.1868528765
 31
0.0
  0
LINE
  5
20A
  8
DIM
 10
386.7863196306
 20
362.1868528765
 30
0.0
 11
445.0936048678
 21
362.1868528765
 31
0.0
  0
LINE
  5
20B
  8
DIM
 10
443.0936048678
 20
519.1868528765
 30
0.0
 11
443.0936048678
 21
362.1868528765
 31
0.0
  0
TEXT
  5
20C
  8
DIM
 10
440.6207849
 20
434.5764361512
 30
-3.1649080437
 40
7.0
  1
157
 50
90.0
 41
0.7
 11
443.0936053335
 21
434.5764361512
 31
-3.1649080437
 73
     1
  0
ENDBLK
  5
206
  8
0
  0
BLOCK
  8
0
  2
_D_9
 70
     0
 10
0.0
 20
0.0
 30
0.0
  3
_D_9
  1

  0
INSERT
  5
211
  8
DIM
  2
_OPEN30
 10
276.7663196306
 20
541.0268235561
 30
-3.1649080437
 41
6.0
 42
6.0
 50
180.0
  0
INSERT
  5
212
  8
DIM
  2
_OPEN30
 10
386.7663196306
 20
541.0268235561
 30
-3.1649080437
 41
6.0
 42
6.0
 50
0.0
  0
LINE
  5
213
  8
DIM
 10
276.7663196306
 20
491.1068528765
 30
0.0
 11
276.7663196306
 21
543.0268235561
 31
0.0
  0
LINE
  5
214
  8
DIM
 10
386.7663196306
 20
491.1068528765
 30
0.0
 11
386.7663196306
 21
543.0268235561
 31
0.0
  0
LINE
  5
215
  8
DIM
 10
276.7663196306
 20
541.0268235561
 30
0.0
 11
386.7663196306
 21
541.0268235561
 31
0.0
  0
TEXT
  5
216
  8
DIM
 10
325.6559029053
 20
543.4996435239
 30
-3.1649080437
 40
7.0
  1
110
 41
0.7
 11
325.6559029053
 21
541.0268230904
 31
-3.1649080437
 73
     1
  0
ENDBLK
  5
210
  8
0
  0
BLOCK
  8
0
  2
_D_10
 70
     0
 10
0.0
 20
0.0
 30
0.0
  3
_D_10
  1

  0
INSERT
  5
21B
  8
DIM
  2
_OPEN30
 10
428.051051974
 20
482.1868528765
 30
-3.1649080437
 41
6.0
 42
6.0
 50
90.0
  0
INSERT
  5
21C
  8
DIM
  2
_OPEN30
 10
428.051051974
 20
372.1868528765
 30
-3.1649080437
 41
6.0
 42
6.0
 50
270.0
  0
LINE
  5
21D
  8
DIM
 10
395.6863196306
 20
482.1868528765
 30
0.0
 11
430.051051974
 21
482.1868528765
 31
0.0
  0
LINE
  5
21E
  8
DIM
 10
395.6863196306
 20
372.1868528765
 30
0.0
 11
430.051051974
 21
372.1868528765
 31
0.0
  0
LINE
  5
21F
  8
DIM
 10
428.051051974
 20
482.1868528765
 30
0.0
 11
428.051051974
 21
372.1868528765
 31
0.0
  0
TEXT
  5
220
  8
DIM
 10
425.5782320063
 20
421.0764361512
 30
-3.1649080437
 40
7.0
  1
110
 50
90.0
 41
0.7
 11
428.0510524397
 21
421.0764361512
 31
-3.1649080437
 73
     1
  0
ENDBLK
  5
21A
  8
0
  0
BLOCK
  8
0
  2
_NONE
 70
     0
 10
0.0
 20
0.0
 30
0.0
  3
_NONE
  1

  0
ENDBLK
  5
225
  8
0
  0
BLOCK
  8
0
  2
_D_11
 70
     0
 10
0.0
 20
0.0
 30
0.0
  3
_D_11
  1

  0
ARC
  5
229
  8
DIM
 10
230.8974284346
 20
411.8901507136
 30
0.0
 40
12.75242037108494
 50
153.4349488229
 51
206.5650511771
  0
ARC
  5
22A
  8
DIM
 10
225.1943722035
 20
411.8901507136
 30
0.0
 40
12.75242037108494
 50
333.4349488229
 51
26.5650511771
  0
INSERT
  5
22B
  8
DIM
  2
_OPEN30
 10
289.7297736643
 20
388.6368461616
 30
-3.1649080437
 41
6.0
 42
6.0
 50
324.5496462757
  0
LINE
  5
22C
  8
DIM
 10
289.7297736643
 20
388.6368461616
 30
0.0
 11
265.563470433
 21
405.842928416
 31
0.0
  0
LINE
  5
22D
  8
DIM
 10
293.802865597
 20
385.7368595913
 30
0.0
 11
289.7297736643
 21
388.6368461616
 31
0.0
  0
LINE
  5
22E
  8
DIM
 10
265.563470433
 20
405.842928416
 30
0.0
 11
181.889871917
 21
405.842928416
 31
0.0
  0
TEXT
  5
22F
  8
DIM
 10
181.889871917
 20
408.3157493151
 30
-3.1649080437
 40
7.0
  1
4x
 41
0.7
 11
181.889871917
 21
405.8429288816
 31
-3.1649080437
 73
     1
  0
TEXT
  5
230
  8
DIM
 10
190.0370939069
 20
408.3157493151
 30
-3.1649080437
 40
7.0
  1
%%c
 41
0.7
 11
190.0370939069
 21
405.8429288816
 31
-3.1649080437
 73
     1
  0
TEXT
  5
231
  8
DIM
 10
197.7769554027
 20
408.3157493151
 30
-3.1649080437
 40
7.0
  1
5
 41
0.7
 11
197.7769554027
 21
405.8429288816
 31
-3.1649080437
 73
     1
  0
TEXT
  5
232
  8
DIM
 10
201.850565932
 20
408.3157493151
 30
-3.1649080437
 40
7.0
  1
 H8 
 41
0.525
 11
201.850565932
 21
405.8429288816
 31
-3.1649080437
 73
     1
  0
TEXT
  5
233
  8
DIM
 10
219.4913169037
 20
413.6211251916
 30
-3.1649080437
 40
4.9
  1
+
 41
0.7
 11
219.4913169037
 21
411.8901508882
 31
-3.1649080437
 73
     1
  0
TEXT
  5
234
  8
DIM
 10
219.4913169037
 20
407.9180694262
 30
-3.1649080437
 40
4.9
  1
 
 41
0.7
 11
219.4913169037
 21
406.1870951228
 31
-3.1649080437
 73
     1
  0
TEXT
  5
235
  8
DIM
 10
222.3428447864
 20
413.6211251916
 30
-3.1649080437
 40
4.9
  1
0.018
 41
0.7
 11
222.3428447864
 21
411.8901508882
 31
-3.1649080437
 73
     1
  0
TEXT
  5
236
  8
DIM
 10
222.3428447864
 20
407.9180694262
 30
-3.1649080437
 40
4.9
  1
0
 41
0.7
 11
222.3428447864
 21
406.1870951228
 31
-3.1649080437
 73
     1
  0
TEXT
  5
237
  8
DIM
 10
237.9467960813
 20
408.3157493151
 30
-3.1649080437
 40
7.0
  1
 深さ4
 41
0.7
 11
237.9467960813
 21
405.8429288816
 31
-3.1649080437
 73
     1
  0
ENDBLK
  5
228
  8
0
  0
BLOCK
  8
0
  2
_D_12
 70
     0
 10
0.0
 20
0.0
 30
0.0
  3
_D_12
  1

  0
INSERT
  5
23C
  8
DIM
  2
_OPEN30
 10
414.8136054275
 20
467.1868528765
 30
-3.1649080437
 41
6.0
 42
6.0
 50
90.0
  0
INSERT
  5
23D
  8
DIM
  2
_OPEN30
 10
414.8136054275
 20
387.1868528765
 30
-3.1649080437
 41
6.0
 42
6.0
 50
270.0
  0
LINE
  5
23E
  8
DIM
 10
379.7863196306
 20
467.1868528765
 30
0.0
 11
416.8136054275
 21
467.1868528765
 31
0.0
  0
LINE
  5
23F
  8
DIM
 10
379.7863196306
 20
387.1868528765
 30
0.0
 11
416.8136054275
 21
387.1868528765
 31
0.0
  0
LINE
  5
240
  8
DIM
 10
414.8136054275
 20
467.1868528765
 30
0.0
 11
414.8136054275
 21
387.1868528765
 31
0.0
  0
TEXT
  5
241
  8
DIM
 10
412.3407854597
 20
423.1132418815
 30
-3.1649080437
 40
7.0
  1
80
 50
90.0
 41
0.7
 11
414.8136058932
 21
423.1132418815
 31
-3.1649080437
 73
     1
  0
ENDBLK
  5
23B
  8
0
  0
BLOCK
  8
0
  2
_D_13
 70
     0
 10
0.0
 20
0.0
 30
0.0
  3
_D_13
  1

  0
INSERT
  5
246
  8
DIM
  2
_OPEN30
 10
291.7663196306
 20
529.8403106133
 30
-3.1649080437
 41
6.0
 42
6.0
 50
180.0
  0
INSERT
  5
247
  8
DIM
  2
_OPEN30
 10
371.7663196306
 20
529.8403106133
 30
-3.1649080437
 41
6.0
 42
6.0
 50
0.0
  0
LINE
  5
248
  8
DIM
 10
291.7663196306
 20
475.2068528765
 30
0.0
 11
291.7663196306
 21
531.8403106133
 31
0.0
  0
LINE
  5
249
  8
DIM
 10
371.7663196306
 20
475.2068528765
 30
0.0
 11
371.7663196306
 21
531.8403106133
 31
0.0
  0
LINE
  5
24A
  8
DIM
 10
291.7663196306
 20
529.8403106133
 30
0.0
 11
371.7663196306
 21
529.8403106133
 31
0.0
  0
TEXT
  5
24B
  8
DIM
 10
327.6927086357
 20
532.3131305811
 30
-3.1649080437
 40
7.0
  1
80
 41
0.7
 11
327.6927086357
 21
529.8403101477
 31
-3.1649080437
 73
     1
  0
ENDBLK
  5
245
  8
0
  0
BLOCK
  8
0
  2
SW_NOTE_0_1
 70
     0
 10
0.0
 20
0.0
 30
0.0
  3
SW_NOTE_0_1
  1

  0
LINE
  5
24F
  8
TXT
 62
     0
 10
-37.0048461565
 20
-13.0510843678
 30
0.0
 11
-20.457557676
 21
-13.0510843678
 31
0.0
  0
TEXT
  5
250
  8
TXT
 62
     0
 10
-37.761145933
 20
-10.4267790215
 30
0.0
 40
7.0
  1
4xM8
 41
0.7
 11
-37.761145933
 21
-12.8995994549
 31
0.0
 73
     1
  0
LINE
  5
251
  8
TXT
 62
     0
 10
-20.457557676
 20
-13.0510843678
 30
0.0
 11
0.0
 21
0.0
 31
0.0
  0
INSERT
  5
252
  8
TXT
 62
     0
  2
_OPEN30
 10
0.0
 20
0.0
 30
-25.6649080437
 41
6.0
 42
6.0
 50
32.5362086375
  0
ENDBLK
  5
24E
  8
0
  0
BLOCK
  8
0
  2
SW_CENTERMARKSYMBOL_4
 70
     0
 10
0.0
 20
0.0
 30
0.0
  3
SW_CENTERMARKSYMBOL_4
  1

  0
LINE
  5
257
  8
DIM
 62
     0
 10
0.0
 20
0.0
 30
0.0
 11
0.0
 21
5.0
 31
0.0
  0
LINE
  5
258
  8
DIM
 62
     0
 10
0.0
 20
0.0
 30
0.0
 11
-5.0
 21
0.0
 31
0.0
  0
LINE
  5
259
  8
DIM
 62
     0
 10
0.0
 20
0.0
 30
0.0
 11
0.0
 21
-5.0
 31
0.0
  0
LINE
  5
25A
  8
DIM
 62
     0
 10
0.0
 20
0.0
 30
0.0
 11
5.0
 21
0.0
 31
0.0
  0
LINE
  5
25B
  8
DIM
 62
     0
 10
0.0
 20
10.0
 30
0.0
 11
0.0
 21
98.4855291641
 31
0.0
  0
LINE
  5
25C
  8
DIM
 62
     0
 10
-10.0
 20
0.0
 30
0.0
 11
-70.8790856939
 21
0.0
 31
0.0
  0
LINE
  5
25D
  8
DIM
 62
     0
 10
0.0
 20
-10.0
 30
0.0
 11
0.0
 21
-72.4949405255
 31
0.0
  0
LINE
  5
25E
  8
DIM
 62
     0
 10
10.0
 20
0.0
 30
0.0
 11
70.1410600018
 21
0.0
 31
0.0
  0
ENDBLK
  5
256
  8
0
  0
BLOCK
  8
0
  2
SW_CENTERMARKSYMBOL_5
 70
     0
 10
0.0
 20
0.0
 30
0.0
  3
SW_CENTERMARKSYMBOL_5
  1

  0
LINE
  5
263
  8
DIM
 62
     0
 10
0.0
 20
0.0
 30
0.0
 11
0.0
 21
5.0
 31
0.0
  0
LINE
  5
264
  8
DIM
 62
     0
 10
0.0
 20
0.0
 30
0.0
 11
-5.0
 21
0.0
 31
0.0
  0
LINE
  5
265
  8
DIM
 62
     0
 10
0.0
 20
0.0
 30
0.0
 11
0.0
 21
-5.0
 31
0.0
  0
LINE
  5
266
  8
DIM
 62
     0
 10
0.0
 20
0.0
 30
0.0
 11
5.0
 21
0.0
 31
0.0
  0
LINE
  5
267
  8
DIM
 62
     0
 10
0.0
 20
5.0
 30
0.0
 11
0.0
 21
8.9
 31
0.0
  0
LINE
  5
268
  8
DIM
 62
     0
 10
-5.0
 20
0.0
 30
0.0
 11
-8.9
 21
0.0
 31
0.0
  0
LINE
  5
269
  8
DIM
 62
     0
 10
0.0
 20
-5.0
 30
0.0
 11
0.0
 21
-8.9
 31
0.0
  0
LINE
  5
26A
  8
DIM
 62
     0
 10
5.0
 20
0.0
 30
0.0
 11
8.9
 21
0.0
 31
0.0
  0
ENDBLK
  5
262
  8
0
  0
BLOCK
  8
0
  2
SW_CENTERMARKSYMBOL_6
 70
     0
 10
0.0
 20
0.0
 30
0.0
  3
SW_CENTERMARKSYMBOL_6
  1

  0
LINE
  5
26F
  8
DIM
 62
     0
 10
0.0
 20
0.0
 30
0.0
 11
0.0
 21
5.0
 31
0.0
  0
LINE
  5
270
  8
DIM
 62
     0
 10
0.0
 20
0.0
 30
0.0
 11
-5.0
 21
0.0
 31
0.0
  0
LINE
  5
271
  8
DIM
 62
     0
 10
0.0
 20
0.0
 30
0.0
 11
0.0
 21
-5.0
 31
0.0
  0
LINE
  5
272
  8
DIM
 62
     0
 10
0.0
 20
0.0
 30
0.0
 11
5.0
 21
0.0
 31
0.0
  0
LINE
  5
273
  8
DIM
 62
     0
 10
0.0
 20
5.0
 30
0.0
 11
0.0
 21
8.9
 31
0.0
  0
LINE
  5
274
  8
DIM
 62
     0
 10
-5.0
 20
0.0
 30
0.0
 11
-8.9
 21
0.0
 31
0.0
  0
LINE
  5
275
  8
DIM
 62
     0
 10
0.0
 20
-5.0
 30
0.0
 11
0.0
 21
-8.9
 31
0.0
  0
LINE
  5
276
  8
DIM
 62
     0
 10
5.0
 20
0.0
 30
0.0
 11
8.9
 21
0.0
 31
0.0
  0
ENDBLK
  5
26E
  8
0
  0
BLOCK
  8
0
  2
SW_CENTERMARKSYMBOL_7
 70
     0
 10
0.0
 20
0.0
 30
0.0
  3
SW_CENTERMARKSYMBOL_7
  1

  0
LINE
  5
27B
  8
DIM
 62
     0
 10
0.0
 20
0.0
 30
0.0
 11
0.0
 21
5.0
 31
0.0
  0
LINE
  5
27C
  8
DIM
 62
     0
 10
0.0
 20
0.0
 30
0.0
 11
-5.0
 21
0.0
 31
0.0
  0
LINE
  5
27D
  8
DIM
 62
     0
 10
0.0
 20
0.0
 30
0.0
 11
0.0
 21
-5.0
 31
0.0
  0
LINE
  5
27E
  8
DIM
 62
     0
 10
0.0
 20
0.0
 30
0.0
 11
5.0
 21
0.0
 31
0.0
  0
LINE
  5
27F
  8
DIM
 62
     0
 10
0.0
 20
5.0
 30
0.0
 11
0.0
 21
8.0
 31
0.0
  0
LINE
  5
280
  8
DIM
 62
     0
 10
-5.0
 20
0.0
 30
0.0
 11
-8.0
 21
0.0
 31
0.0
  0
LINE
  5
281
  8
DIM
 62
     0
 10
0.0
 20
-5.0
 30
0.0
 11
0.0
 21
-8.0
 31
0.0
  0
LINE
  5
282
  8
DIM
 62
     0
 10
5.0
 20
0.0
 30
0.0
 11
8.0
 21
0.0
 31
0.0
  0
ENDBLK
  5
27A
  8
0
  0
BLOCK
  8
0
  2
SW_CENTERMARKSYMBOL_8
 70
     0
 10
0.0
 20
0.0
 30
0.0
  3
SW_CENTERMARKSYMBOL_8
  1

  0
LINE
  5
287
  8
DIM
 62
     0
 10
0.0
 20
0.0
 30
0.0
 11
0.0
 21
5.0
 31
0.0
  0
LINE
  5
288
  8
DIM
 62
     0
 10
0.0
 20
0.0
 30
0.0
 11
-5.0
 21
0.0
 31
0.0
  0
LINE
  5
289
  8
DIM
 62
     0
 10
0.0
 20
0.0
 30
0.0
 11
0.0
 21
-5.0
 31
0.0
  0
LINE
  5
28A
  8
DIM
 62
     0
 10
0.0
 20
0.0
 30
0.0
 11
5.0
 21
0.0
 31
0.0
  0
LINE
  5
28B
  8
DIM
 62
     0
 10
0.0
 20
5.0
 30
0.0
 11
0.0
 21
8.0
 31
0.0
  0
LINE
  5
28C
  8
DIM
 62
     0
 10
-5.0
 20
0.0
 30
0.0
 11
-8.0
 21
0.0
 31
0.0
  0
LINE
  5
28D
  8
DIM
 62
     0
 10
0.0
 20
-5.0
 30
0.0
 11
0.0
 21
-8.0
 31
0.0
  0
LINE
  5
28E
  8
DIM
 62
     0
 10
5.0
 20
0.0
 30
0.0
 11
8.0
 21
0.0
 31
0.0
  0
ENDBLK
  5
286
  8
0
  0
BLOCK
  8
0
  2
SW_CENTERMARKSYMBOL_9
 70
     0
 10
0.0
 20
0.0
 30
0.0
  3
SW_CENTERMARKSYMBOL_9
  1

  0
LINE
  5
293
  8
DIM
 62
     0
 10
0.0
 20
0.0
 30
0.0
 11
0.0
 21
5.0
 31
0.0
  0
LINE
  5
294
  8
DIM
 62
     0
 10
0.0
 20
0.0
 30
0.0
 11
-5.0
 21
0.0
 31
0.0
  0
LINE
  5
295
  8
DIM
 62
     0
 10
0.0
 20
0.0
 30
0.0
 11
0.0
 21
-5.0
 31
0.0
  0
LINE
  5
296
  8
DIM
 62
     0
 10
0.0
 20
0.0
 30
0.0
 11
5.0
 21
0.0
 31
0.0
  0
LINE
  5
297
  8
DIM
 62
     0
 10
0.0
 20
5.0
 30
0.0
 11
0.0
 21
8.0
 31
0.0
  0
LINE
  5
298
  8
DIM
 62
     0
 10
-5.0
 20
0.0
 30
0.0
 11
-8.0
 21
0.0
 31
0.0
  0
LINE
  5
299
  8
DIM
 62
     0
 10
0.0
 20
-5.0
 30
0.0
 11
0.0
 21
-8.0
 31
0.0
  0
LINE
  5
29A
  8
DIM
 62
     0
 10
5.0
 20
0.0
 30
0.0
 11
8.0
 21
0.0
 31
0.0
  0
ENDBLK
  5
292
  8
0
  0
BLOCK
  8
0
  2
SW_CENTERMARKSYMBOL_10
 70
     0
 10
0.0
 20
0.0
 30
0.0
  3
SW_CENTERMARKSYMBOL_10
  1

  0
LINE
  5
29F
  8
DIM
 62
     0
 10
0.0
 20
0.0
 30
0.0
 11
0.0
 21
5.0
 31
0.0
  0
LINE
  5
2A0
  8
DIM
 62
     0
 10
0.0
 20
0.0
 30
0.0
 11
-5.0
 21
0.0
 31
0.0
  0
LINE
  5
2A1
  8
DIM
 62
     0
 10
0.0
 20
0.0
 30
0.0
 11
0.0
 21
-5.0
 31
0.0
  0
LINE
  5
2A2
  8
DIM
 62
     0
 10
0.0
 20
0.0
 30
0.0
 11
5.0
 21
0.0
 31
0.0
  0
LINE
  5
2A3
  8
DIM
 62
     0
 10
0.0
 20
5.0
 30
0.0
 11
0.0
 21
8.0
 31
0.0
  0
LINE
  5
2A4
  8
DIM
 62
     0
 10
-5.0
 20
0.0
 30
0.0
 11
-8.0
 21
0.0
 31
0.0
  0
LINE
  5
2A5
  8
DIM
 62
     0
 10
0.0
 20
-5.0
 30
0.0
 11
0.0
 21
-8.0
 31
0.0
  0
LINE
  5
2A6
  8
DIM
 62
     0
 10
5.0
 20
0.0
 30
0.0
 11
8.0
 21
0.0
 31
0.0
  0
ENDBLK
  5
29E
  8
0
  0
BLOCK
  8
0
  2
SW_CENTERMARKSYMBOL_11
 70
     0
 10
0.0
 20
0.0
 30
0.0
  3
SW_CENTERMARKSYMBOL_11
  1

  0
LINE
  5
2AB
  8
DIM
 62
     0
 10
0.0
 20
0.0
 30
0.0
 11
0.0
 21
5.0
 31
0.0
  0
LINE
  5
2AC
  8
DIM
 62
     0
 10
0.0
 20
0.0
 30
0.0
 11
-5.0
 21
0.0
 31
0.0
  0
LINE
  5
2AD
  8
DIM
 62
     0
 10
0.0
 20
0.0
 30
0.0
 11
0.0
 21
-5.0
 31
0.0
  0
LINE
  5
2AE
  8
DIM
 62
     0
 10
0.0
 20
0.0
 30
0.0
 11
5.0
 21
0.0
 31
0.0
  0
LINE
  5
2AF
  8
DIM
 62
     0
 10
0.0
 20
5.0
 30
0.0
 11
0.0
 21
8.9
 31
0.0
  0
LINE
  5
2B0
  8
DIM
 62
     0
 10
-5.0
 20
0.0
 30
0.0
 11
-8.9
 21
0.0
 31
0.0
  0
LINE
  5
2B1
  8
DIM
 62
     0
 10
0.0
 20
-5.0
 30
0.0
 11
0.0
 21
-8.9
 31
0.0
  0
LINE
  5
2B2
  8
DIM
 62
     0
 10
5.0
 20
0.0
 30
0.0
 11
8.9
 21
0.0
 31
0.0
  0
ENDBLK
  5
2AA
  8
0
  0
BLOCK
  8
0
  2
SW_CENTERMARKSYMBOL_12
 70
     0
 10
0.0
 20
0.0
 30
0.0
  3
SW_CENTERMARKSYMBOL_12
  1

  0
LINE
  5
2B7
  8
DIM
 62
     0
 10
0.0
 20
0.0
 30
0.0
 11
0.0
 21
5.0
 31
0.0
  0
LINE
  5
2B8
  8
DIM
 62
     0
 10
0.0
 20
0.0
 30
0.0
 11
-5.0
 21
0.0
 31
0.0
  0
LINE
  5
2B9
  8
DIM
 62
     0
 10
0.0
 20
0.0
 30
0.0
 11
0.0
 21
-5.0
 31
0.0
  0
LINE
  5
2BA
  8
DIM
 62
     0
 10
0.0
 20
0.0
 30
0.0
 11
5.0
 21
0.0
 31
0.0
  0
LINE
  5
2BB
  8
DIM
 62
     0
 10
0.0
 20
5.0
 30
0.0
 11
0.0
 21
8.9
 31
0.0
  0
LINE
  5
2BC
  8
DIM
 62
     0
 10
-5.0
 20
0.0
 30
0.0
 11
-8.9
 21
0.0
 31
0.0
  0
LINE
  5
2BD
  8
DIM
 62
     0
 10
0.0
 20
-5.0
 30
0.0
 11
0.0
 21
-8.9
 31
0.0
  0
LINE
  5
2BE
  8
DIM
 62
     0
 10
5.0
 20
0.0
 30
0.0
 11
8.9
 21
0.0
 31
0.0
  0
ENDBLK
  5
2B6
  8
0
  0
ENDSEC
  0
SECTION
  2
ENTITIES
  0
LINE
  5
76
  8
0
  6
CONTINUOUS
 62
     7
 10
396.2663196306
 20
200.0388253645
 30
0.0
 11
396.2663196306
 21
199.5388253645
 31
0.0
  0
LINE
  5
77
  8
0
  6
CONTINUOUS
 62
     7
 10
396.2663196306
 20
199.5388253645
 30
0.0
 11
382.2663196306
 21
199.5388253645
 31
0.0
  0
LINE
  5
78
  8
0
  6
CONTINUOUS
 62
     7
 10
382.2663196306
 20
200.0388253645
 30
0.0
 11
382.2663196306
 21
199.5388253645
 31
0.0
  0
LINE
  5
79
  8
0
  6
CONTINUOUS
 62
     7
 10
382.2663196306
 20
175.0388253645
 30
0.0
 11
382.2663196306
 21
135.0388253645
 31
0.0
  0
LINE
  5
7A
  8
0
  6
CONTINUOUS
 62
     7
 10
382.2663196306
 20
175.0388253645
 30
0.0
 11
396.2663196306
 21
175.0388253645
 31
0.0
  0
LINE
  5
7B
  8
0
  6
CONTINUOUS
 62
     7
 10
396.2663196306
 20
135.0388253645
 30
0.0
 11
396.2663196306
 21
175.0388253645
 31
0.0
  0
LINE
  5
7C
  8
0
  6
CONTINUOUS
 62
     7
 10
382.2663196306
 20
135.0388253645
 30
0.0
 11
396.2663196306
 21
135.0388253645
 31
0.0
  0
LINE
  5
7D
  8
0
  6
CONTINUOUS
 62
     7
 10
382.2663196306
 20
135.0388253645
 30
0.0
 11
381.7663196306
 21
135.5388253645
 31
0.0
  0
LINE
  5
7E
  8
0
  6
CONTINUOUS
 62
     7
 10
381.7663196306
 20
135.5388253645
 30
0.0
 11
381.7663196306
 21
175.3064172437
 31
0.0
  0
LINE
  5
7F
  8
0
  6
CONTINUOUS
 62
     7
 10
381.7663196306
 20
175.3064172437
 30
0.0
 11
382.2663196306
 21
175.0388253645
 31
0.0
  0
LINE
  5
80
  8
0
  6
CONTINUOUS
 62
     7
 10
381.7663196306
 20
199.5388253645
 30
0.0
 11
382.2663196306
 21
199.5388253645
 31
0.0
  0
LINE
  5
81
  8
0
  6
CONTINUOUS
 62
     7
 10
382.2663196306
 20
200.0388253645
 30
0.0
 11
381.7663196306
 21
199.5388253645
 31
0.0
  0
LINE
  5
82
  8
0
  6
CONTINUOUS
 62
     7
 10
381.7663196306
 20
175.3064172437
 30
0.0
 11
381.7663196306
 21
199.5388253645
 31
0.0
  0
LINE
  5
83
  8
0
  6
CONTINUOUS
 62
     7
 10
382.2663196306
 20
199.5388253645
 30
0.0
 11
382.2663196306
 21
175.0388253645
 31
0.0
  0
LINE
  5
84
  8
0
  6
CONTINUOUS
 62
     7
 10
396.2663196306
 20
175.0388253645
 30
0.0
 11
396.2663196306
 21
199.5388253645
 31
0.0
  0
LINE
  5
85
  8
0
  6
CONTINUOUS
 62
     7
 10
396.7663196306
 20
199.5388253645
 30
0.0
 11
396.7663196306
 21
175.3064172437
 31
0.0
  0
LINE
  5
86
  8
0
  6
CONTINUOUS
 62
     7
 10
396.7663196306
 20
175.3064172437
 30
0.0
 11
396.2663196306
 21
175.0388253645
 31
0.0
  0
LINE
  5
87
  8
0
  6
CONTINUOUS
 62
     7
 10
396.7663196306
 20
199.5388253645
 30
0.0
 11
396.2663196306
 21
199.5388253645
 31
0.0
  0
LINE
  5
88
  8
0
  6
CONTINUOUS
 62
     7
 10
396.7663196306
 20
199.5388253645
 30
0.0
 11
396.2663196306
 21
200.0388253645
 31
0.0
  0
LINE
  5
89
  8
0
  6
CONTINUOUS
 62
     7
 10
396.7663196306
 20
175.3064172437
 30
0.0
 11
396.7663196306
 21
135.5388253645
 31
0.0
  0
LINE
  5
8A
  8
0
  6
CONTINUOUS
 62
     7
 10
396.2663196306
 20
135.0388253645
 30
0.0
 11
396.7663196306
 21
135.5388253645
 31
0.0
  0
LINE
  5
8B
  8
0
  6
CONTINUOUS
 62
     7
 10
267.2663196306
 20
175.0388253645
 30
0.0
 11
267.2663196306
 21
135.0388253645
 31
0.0
  0
LINE
  5
8C
  8
0
  6
CONTINUOUS
 62
     7
 10
267.2663196306
 20
135.0388253645
 30
0.0
 11
266.7663196306
 21
135.5388253645
 31
0.0
  0
LINE
  5
8D
  8
0
  6
CONTINUOUS
 62
     7
 10
266.7663196306
 20
135.5388253645
 30
0.0
 11
266.7663196306
 21
175.3064172437
 31
0.0
  0
LINE
  5
8E
  8
0
  6
CONTINUOUS
 62
     7
 10
266.7663196306
 20
175.3064172437
 30
0.0
 11
267.2663196306
 21
175.0388253645
 31
0.0
  0
LINE
  5
8F
  8
0
  6
CONTINUOUS
 62
     7
 10
267.2663196306
 20
199.5388253645
 30
0.0
 11
267.2663196306
 21
175.0388253645
 31
0.0
  0
LINE
  5
90
  8
0
  6
CONTINUOUS
 62
     7
 10
281.2663196306
 20
199.5388253645
 30
0.0
 11
267.2663196306
 21
199.5388253645
 31
0.0
  0
LINE
  5
91
  8
0
  6
CONTINUOUS
 62
     7
 10
281.2663196306
 20
175.0388253645
 30
0.0
 11
281.2663196306
 21
199.5388253645
 31
0.0
  0
LINE
  5
92
  8
0
  6
CONTINUOUS
 62
     7
 10
267.2663196306
 20
175.0388253645
 30
0.0
 11
281.2663196306
 21
175.0388253645
 31
0.0
  0
LINE
  5
93
  8
0
  6
CONTINUOUS
 62
     7
 10
281.2663196306
 20
135.0388253645
 30
0.0
 11
281.2663196306
 21
175.0388253645
 31
0.0
  0
LINE
  5
94
  8
0
  6
CONTINUOUS
 62
     7
 10
267.2663196306
 20
135.0388253645
 30
0.0
 11
281.2663196306
 21
135.0388253645
 31
0.0
  0
LINE
  5
95
  8
0
  6
CONTINUOUS
 62
     7
 10
266.7663196306
 20
175.3064172437
 30
0.0
 11
266.7663196306
 21
199.5388253645
 31
0.0
  0
LINE
  5
96
  8
0
  6
CONTINUOUS
 62
     7
 10
266.7663196306
 20
199.5388253645
 30
0.0
 11
267.2663196306
 21
199.5388253645
 31
0.0
  0
LINE
  5
97
  8
0
  6
CONTINUOUS
 62
     7
 10
281.2663196306
 20
200.0388253645
 30
0.0
 11
281.2663196306
 21
199.5388253645
 31
0.0
  0
LINE
  5
98
  8
0
  6
CONTINUOUS
 62
     7
 10
267.2663196306
 20
200.0388253645
 30
0.0
 11
267.2663196306
 21
199.5388253645
 31
0.0
  0
LINE
  5
99
  8
0
  6
CONTINUOUS
 62
     7
 10
267.2663196306
 20
200.0388253645
 30
0.0
 11
266.7663196306
 21
199.5388253645
 31
0.0
  0
LINE
  5
9A
  8
0
  6
CONTINUOUS
 62
     7
 10
281.7663196306
 20
175.3064172437
 30
0.0
 11
281.2663196306
 21
175.0388253645
 31
0.0
  0
LINE
  5
9B
  8
0
  6
CONTINUOUS
 62
     7
 10
281.7663196306
 20
175.3064172437
 30
0.0
 11
281.7663196306
 21
135.5388253645
 31
0.0
  0
LINE
  5
9C
  8
0
  6
CONTINUOUS
 62
     7
 10
281.2663196306
 20
135.0388253645
 30
0.0
 11
281.7663196306
 21
135.5388253645
 31
0.0
  0
LINE
  5
9D
  8
0
  6
CONTINUOUS
 62
     7
 10
281.7663196306
 20
199.5388253645
 30
0.0
 11
281.2663196306
 21
199.5388253645
 31
0.0
  0
LINE
  5
9E
  8
0
  6
CONTINUOUS
 62
     7
 10
281.7663196306
 20
199.5388253645
 30
0.0
 11
281.2663196306
 21
200.0388253645
 31
0.0
  0
LINE
  5
9F
  8
0
  6
CONTINUOUS
 62
     7
 10
281.7663196306
 20
199.5388253645
 30
0.0
 11
281.7663196306
 21
175.3064172437
 31
0.0
  0
LINE
  5
A0
  8
0
  6
CONTINUOUS
 62
     7
 10
396.7663196306
 20
211.5388253645
 30
0.0
 11
386.7663196306
 21
211.5388253645
 31
0.0
  0
LINE
  5
A1
  8
0
  6
CONTINUOUS
 62
     7
 10
396.7663196306
 20
211.5388253645
 30
0.0
 11
396.7663196306
 21
200.5388253645
 31
0.0
  0
LINE
  5
A2
  8
0
  6
CONTINUOUS
 62
     7
 10
386.7663196306
 20
200.5388253645
 30
0.0
 11
396.7663196306
 21
200.5388253645
 31
0.0
  0
LINE
  5
A3
  8
0
  6
CONTINUOUS
 62
     7
 10
396.2663196306
 20
200.0388253645
 30
0.0
 11
386.7663196306
 21
200.0388253645
 31
0.0
  0
LINE
  5
A4
  8
0
  6
CONTINUOUS
 62
     7
 10
396.2663196306
 20
200.0388253645
 30
0.0
 11
396.7663196306
 21
200.5388253645
 31
0.0
  0
LINE
  5
A5
  8
0
  6
CONTINUOUS
 62
     7
 10
386.7663196306
 20
212.0388253645
 30
0.0
 11
396.2663196306
 21
212.0388253645
 31
0.0
  0
LINE
  5
A6
  8
0
  6
CONTINUOUS
 62
     7
 10
396.2663196306
 20
212.0388253645
 30
0.0
 11
396.7663196306
 21
211.5388253645
 31
0.0
  0
LINE
  5
A7
  8
0
  6
CONTINUOUS
 62
     7
 10
276.7663196306
 20
200.5388253645
 30
0.0
 11
386.7663196306
 21
200.5388253645
 31
0.0
  0
LINE
  5
A8
  8
0
  6
CONTINUOUS
 62
     7
 10
386.7663196306
 20
200.0388253645
 30
0.0
 11
276.7663196306
 21
200.0388253645
 31
0.0
  0
LINE
  5
A9
  8
0
  6
CONTINUOUS
 62
     7
 10
386.7663196306
 20
211.5388253645
 30
0.0
 11
276.7663196306
 21
211.5388253645
 31
0.0
  0
LINE
  5
AA
  8
0
  6
CONTINUOUS
 62
     7
 10
276.7663196306
 20
212.0388253645
 30
0.0
 11
386.7663196306
 21
212.0388253645
 31
0.0
  0
LINE
  5
AB
  8
0
  6
CONTINUOUS
 62
     7
 10
266.7663196306
 20
200.5388253645
 30
0.0
 11
276.7663196306
 21
200.5388253645
 31
0.0
  0
LINE
  5
AC
  8
0
  6
CONTINUOUS
 62
     7
 10
276.7663196306
 20
200.0388253645
 30
0.0
 11
267.2663196306
 21
200.0388253645
 31
0.0
  0
LINE
  5
AD
  8
0
  6
CONTINUOUS
 62
     7
 10
266.7663196306
 20
200.5388253645
 30
0.0
 11
267.2663196306
 21
200.0388253645
 31
0.0
  0
LINE
  5
AE
  8
0
  6
CONTINUOUS
 62
     7
 10
276.7663196306
 20
211.5388253645
 30
0.0
 11
266.7663196306
 21
211.5388253645
 31
0.0
  0
LINE
  5
AF
  8
0
  6
CONTINUOUS
 62
     7
 10
266.7663196306
 20
200.5388253645
 30
0.0
 11
266.7663196306
 21
211.5388253645
 31
0.0
  0
LINE
  5
B0
  8
0
  6
CONTINUOUS
 62
     7
 10
266.7663196306
 20
211.5388253645
 30
0.0
 11
267.2663196306
 21
212.0388253645
 31
0.0
  0
LINE
  5
B1
  8
0
  6
CONTINUOUS
 62
     7
 10
267.2663196306
 20
212.0388253645
 30
0.0
 11
276.7663196306
 21
212.0388253645
 31
0.0
  0
LINE
  5
B2
  8
0
  6
CONTINUOUS
 62
     7
 10
393.5592128494
 20
336.5388253645
 30
0.0
 11
269.9734264118
 21
336.5388253645
 31
0.0
  0
LINE
  5
B3
  8
0
  6
CONTINUOUS
 62
     7
 10
269.9734264118
 20
336.5388253645
 30
0.0
 11
269.7663196306
 21
337.0388253645
 31
0.0
  0
LINE
  5
B4
  8
0
  6
CONTINUOUS
 62
     7
 10
269.7663196306
 20
337.0388253645
 30
0.0
 11
393.7663196306
 21
337.0388253645
 31
0.0
  0
LINE
  5
B5
  8
0
  6
CONTINUOUS
 62
     7
 10
393.5592128494
 20
336.5388253645
 30
0.0
 11
393.7663196306
 21
337.0388253645
 31
0.0
  0
LINE
  5
B6
  8
0
  6
CONTINUOUS
 62
     7
 10
393.7663196306
 20
132.0388253645
 30
0.0
 11
269.7663196306
 21
132.0388253645
 31
0.0
  0
LINE
  5
B7
  8
0
  6
CONTINUOUS
 62
     7
 10
269.7663196306
 20
132.0388253645
 30
0.0
 11
269.9734264118
 21
132.5388253645
 31
0.0
  0
LINE
  5
B8
  8
0
  6
CONTINUOUS
 62
     7
 10
269.9734264118
 20
132.5388253645
 30
0.0
 11
393.5592128494
 21
132.5388253645
 31
0.0
  0
LINE
  5
B9
  8
0
  6
CONTINUOUS
 62
     7
 10
393.7663196306
 20
132.0388253645
 30
0.0
 11
393.5592128494
 21
132.5388253645
 31
0.0
  0
LINE
  5
BA
  8
0
  6
CONTINUOUS
 62
     7
 10
393.5592128494
 20
132.5388253645
 30
0.0
 11
396.0592128494
 21
135.0388253645
 31
0.0
  0
LINE
  5
BB
  8
0
  6
CONTINUOUS
 62
     7
 10
396.41276624
 20
135.1852719739
 30
0.0
 11
396.7663196306
 21
135.0388253645
 31
0.0
  0
LINE
  5
BC
  8
0
  6
CONTINUOUS
 62
     7
 10
396.7663196306
 20
135.0388253645
 30
0.0
 11
393.7663196306
 21
132.0388253645
 31
0.0
  0
LINE
  5
BD
  8
0
  6
CONTINUOUS
 62
     7
 10
396.2663196306
 20
212.0388253645
 30
0.0
 11
396.2663196306
 21
333.8317185833
 31
0.0
  0
LINE
  5
BE
  8
0
  6
CONTINUOUS
 62
     7
 10
396.2663196306
 20
333.8317185833
 30
0.0
 11
396.7663196306
 21
334.0388253645
 31
0.0
  0
LINE
  5
BF
  8
0
  6
CONTINUOUS
 62
     7
 10
396.7663196306
 20
334.0388253645
 30
0.0
 11
396.7663196306
 21
211.5388253645
 31
0.0
  0
LINE
  5
C0
  8
0
  6
CONTINUOUS
 62
     7
 10
396.7663196306
 20
200.5388253645
 30
0.0
 11
396.7663196306
 21
199.5388253645
 31
0.0
  0
LINE
  5
C1
  8
0
  6
CONTINUOUS
 62
     7
 10
396.7663196306
 20
135.5388253645
 30
0.0
 11
396.7663196306
 21
135.0388253645
 31
0.0
  0
LINE
  5
C2
  8
0
  6
CONTINUOUS
 62
     7
 10
396.2663196306
 20
333.8317185833
 30
0.0
 11
393.5592128494
 21
336.5388253645
 31
0.0
  0
LINE
  5
C3
  8
0
  6
CONTINUOUS
 62
     7
 10
267.4734264118
 20
135.0388253645
 30
0.0
 11
269.9734264118
 21
132.5388253645
 31
0.0
  0
LINE
  5
C4
  8
0
  6
CONTINUOUS
 62
     7
 10
267.2663196306
 20
333.8317185833
 30
0.0
 11
267.2663196306
 21
212.0388253645
 31
0.0
  0
LINE
  5
C5
  8
0
  6
CONTINUOUS
 62
     7
 10
269.9734264118
 20
336.5388253645
 30
0.0
 11
267.2663196306
 21
333.8317185833
 31
0.0
  0
CIRCLE
  5
C6
  8
0
  6
CONTINUOUS
 62
     7
 10
381.7663196306
 20
267.5388253645
 30
0.0
 40
5.5
  0
CIRCLE
  5
C7
  8
0
  6
CONTINUOUS
 62
     7
 10
381.7663196306
 20
221.5388253645
 30
0.0
 40
5.5
  0
CIRCLE
  5
C8
  8
0
  6
CONTINUOUS
 62
     7
 10
281.7663196306
 20
221.5388253645
 30
0.0
 40
5.5
  0
CIRCLE
  5
C9
  8
0
  6
CONTINUOUS
 62
     7
 10
281.7663196306
 20
267.5388253645
 30
0.0
 40
5.5
  0
LINE
  5
CA
  8
0
  6
CONTINUOUS
 62
     7
 10
269.7663196306
 20
132.0388253645
 30
0.0
 11
266.7663196306
 21
135.0388253645
 31
0.0
  0
LINE
  5
CB
  8
0
  6
CONTINUOUS
 62
     7
 10
266.7663196306
 20
135.0388253645
 30
0.0
 11
267.1198730212
 21
135.1852719739
 31
0.0
  0
LINE
  5
CC
  8
0
  6
CONTINUOUS
 62
     7
 10
266.7663196306
 20
135.0388253645
 30
0.0
 11
266.7663196306
 21
135.5388253645
 31
0.0
  0
LINE
  5
CD
  8
0
  6
CONTINUOUS
 62
     7
 10
266.7663196306
 20
199.5388253645
 30
0.0
 11
266.7663196306
 21
200.5388253645
 31
0.0
  0
LINE
  5
CE
  8
0
  6
CONTINUOUS
 62
     7
 10
266.7663196306
 20
211.5388253645
 30
0.0
 11
266.7663196306
 21
334.0388253645
 31
0.0
  0
LINE
  5
CF
  8
0
  6
CONTINUOUS
 62
     7
 10
266.7663196306
 20
334.0388253645
 30
0.0
 11
267.2663196306
 21
333.8317185833
 31
0.0
  0
LINE
  5
D0
  8
0
  6
CONTINUOUS
 62
     7
 10
266.7663196306
 20
334.0388253645
 30
0.0
 11
269.7663196306
 21
337.0388253645
 31
0.0
  0
LINE
  5
D1
  8
0
  6
CONTINUOUS
 62
     7
 10
393.7663196306
 20
337.0388253645
 30
0.0
 11
396.7663196306
 21
334.0388253645
 31
0.0
  0
CIRCLE
  5
D2
  8
0
  6
CONTINUOUS
 62
     7
 10
281.7663196306
 20
267.5388253645
 30
0.0
 40
3.300000000000011
  0
CIRCLE
  5
D3
  8
0
  6
CONTINUOUS
 62
     7
 10
281.7663196306
 20
221.5388253645
 30
0.0
 40
3.300000000000011
  0
CIRCLE
  5
D4
  8
0
  6
CONTINUOUS
 62
     7
 10
381.7663196306
 20
267.5388253645
 30
0.0
 40
3.299999999999955
  0
CIRCLE
  5
D5
  8
0
  6
CONTINUOUS
 62
     7
 10
381.7663196306
 20
221.5388253645
 30
0.0
 40
3.300000000000011
  0
DIMENSION
  5
D6
  8
DIM
  2
_D
 10
444.2334331002
 20
267.5388253645
 30
0.0
 11
444.2334331002
 21
244.5388253645
 31
0.0
 70
   160
  1
<>
  3
SLDDIMSTYLE0
 13
392.2663196306
 23
221.5388253645
 33
0.0
 14
392.2663196306
 24
267.5388253645
 34
0.0
 50
90.0
  0
DIMENSION
  5
E7
  8
DIM
  2
_D_1
 10
420.9056002365
 20
267.5388253645
 30
0.0
 11
420.9056002365
 21
251.0388253645
 31
0.0
 70
   160
  1
<>
  3
SLDDIMSTYLE0
 13
403.7663196306
 23
234.5388253645
 33
0.0
 14
392.2663196306
 24
267.5388253645
 34
0.0
 50
90.0
  0
INSERT
  5
F8
  8
TXT
  2
SW_NOTE_0
 10
279.2005655694
 20
223.6141340397
 30
0.0
  0
INSERT
  5
104
  8
DIM
  2
SW_CENTERMARKSYMBOL_0
 10
281.7663196306
 20
267.5388253645
 30
0.0
  0
INSERT
  5
110
  8
DIM
  2
SW_CENTERMARKSYMBOL_1
 10
381.7663196306
 20
267.5388253645
 30
0.0
  0
INSERT
  5
11C
  8
DIM
  2
SW_CENTERMARKSYMBOL_2
 10
381.7663196306
 20
221.5388253645
 30
0.0
  0
INSERT
  5
128
  8
DIM
  2
SW_CENTERMARKSYMBOL_3
 10
281.7663196306
 20
221.5388253645
 30
0.0
  0
LINE
  5
129
  8
DIM
  6
CENTERX2
 10
403.7663196306
 20
234.5388253645
 30
0.0
 11
259.7663196306
 21
234.5388253645
 31
0.0
  0
LINE
  5
12A
  8
DIM
  6
CENTERX2
 10
331.7663196306
 20
344.0388253645
 30
0.0
 11
331.7663196306
 21
125.0388253645
 31
0.0
  0
LINE
  5
12B
  8
0
  6
CONTINUOUS
 62
     7
 10
647.531716308
 20
135.0388253645
 30
0.0
 11
587.531716308
 21
175.0388253645
 31
0.0
  0
LINE
  5
12C
  8
0
  6
CONTINUOUS
 62
     7
 10
588.031716308
 20
175.3064172437
 30
0.0
 11
587.531716308
 21
175.0388253645
 31
0.0
  0
LINE
  5
12D
  8
0
  6
CONTINUOUS
 62
     7
 10
588.031716308
 20
175.3064172437
 30
0.0
 11
647.6831041269
 21
135.5388253645
 31
0.0
  0
LINE
  5
12E
  8
0
  6
CONTINUOUS
 62
     7
 10
647.531716308
 20
135.0388253645
 30
0.0
 11
647.6831041269
 21
135.5388253645
 31
0.0
  0
LINE
  5
12F
  8
0
  6
CONTINUOUS
 62
     7
 10
667.031716308
 20
199.5388253645
 30
0.0
 11
588.031716308
 21
199.5388253645
 31
0.0
  0
LINE
  5
130
  8
0
  6
CONTINUOUS
 62
     7
 10
667.031716308
 20
135.5388253645
 30
0.0
 11
667.031716308
 21
199.5388253645
 31
0.0
  0
LINE
  5
131
  8
0
  6
CONTINUOUS
 62
     7
 10
647.6831041269
 20
135.5388253645
 30
0.0
 11
667.031716308
 21
135.5388253645
 31
0.0
  0
LINE
  5
132
  8
0
  6
CONTINUOUS
 62
     7
 10
588.031716308
 20
199.5388253645
 30
0.0
 11
588.031716308
 21
175.3064172437
 31
0.0
  0
LINE
  5
133
  8
0
  6
CONTINUOUS
 62
     7
 10
667.031716308
 20
135.0388253645
 30
0.0
 11
647.531716308
 21
135.0388253645
 31
0.0
  0
LINE
  5
134
  8
0
  6
CONTINUOUS
 62
     7
 10
667.031716308
 20
135.0388253645
 30
0.0
 11
667.031716308
 21
135.5388253645
 31
0.0
  0
LINE
  5
135
  8
0
  6
CONTINUOUS
 62
     7
 10
667.531716308
 20
135.5388253645
 30
0.0
 11
667.031716308
 21
135.5388253645
 31
0.0
  0
LINE
  5
136
  8
0
  6
CONTINUOUS
 62
     7
 10
667.031716308
 20
135.0388253645
 30
0.0
 11
667.531716308
 21
135.5388253645
 31
0.0
  0
LINE
  5
137
  8
0
  6
CONTINUOUS
 62
     7
 10
587.531716308
 20
175.0388253645
 30
0.0
 11
587.531716308
 21
199.5388253645
 31
0.0
  0
LINE
  5
138
  8
0
  6
CONTINUOUS
 62
     7
 10
588.031716308
 20
199.5388253645
 30
0.0
 11
587.531716308
 21
199.5388253645
 31
0.0
  0
LINE
  5
139
  8
0
  6
CONTINUOUS
 62
     7
 10
667.531716308
 20
199.5388253645
 30
0.0
 11
667.531716308
 21
135.5388253645
 31
0.0
  0
LINE
  5
13A
  8
0
  6
CONTINUOUS
 62
     7
 10
667.531716308
 20
199.5388253645
 30
0.0
 11
667.031716308
 21
199.5388253645
 31
0.0
  0
LINE
  5
13B
  8
0
  6
CONTINUOUS
 62
     7
 10
588.031716308
 20
199.5388253645
 30
0.0
 11
588.031716308
 21
200.0388253645
 31
0.0
  0
LINE
  5
13C
  8
0
  6
CONTINUOUS
 62
     7
 10
588.031716308
 20
200.0388253645
 30
0.0
 11
667.031716308
 21
200.0388253645
 31
0.0
  0
LINE
  5
13D
  8
0
  6
CONTINUOUS
 62
     7
 10
667.031716308
 20
199.5388253645
 30
0.0
 11
667.031716308
 21
200.0388253645
 31
0.0
  0
LINE
  5
13E
  8
0
  6
CONTINUOUS
 62
     7
 10
588.031716308
 20
200.0388253645
 30
0.0
 11
587.531716308
 21
199.5388253645
 31
0.0
  0
LINE
  5
13F
  8
0
  6
CONTINUOUS
 62
     7
 10
667.531716308
 20
199.5388253645
 30
0.0
 11
667.031716308
 21
200.0388253645
 31
0.0
  0
LINE
  5
140
  8
0
  6
CONTINUOUS
 62
     7
 10
667.031716308
 20
200.0388253645
 30
0.0
 11
532.531716308
 21
200.0388253645
 31
0.0
  0
LINE
  5
141
  8
0
  6
CONTINUOUS
 62
     7
 10
532.531716308
 20
200.5388253645
 30
0.0
 11
667.531716308
 21
200.5388253645
 31
0.0
  0
LINE
  5
142
  8
0
  6
CONTINUOUS
 62
     7
 10
667.031716308
 20
200.0388253645
 30
0.0
 11
667.531716308
 21
200.5388253645
 31
0.0
  0
LINE
  5
143
  8
0
  6
CONTINUOUS
 62
     7
 10
667.531716308
 20
211.5388253645
 30
0.0
 11
532.531716308
 21
211.5388253645
 31
0.0
  0
LINE
  5
144
  8
0
  6
CONTINUOUS
 62
     7
 10
667.531716308
 20
211.5388253645
 30
0.0
 11
667.531716308
 21
200.5388253645
 31
0.0
  0
LINE
  5
145
  8
0
  6
CONTINUOUS
 62
     7
 10
532.531716308
 20
212.0388253645
 30
0.0
 11
667.031716308
 21
212.0388253645
 31
0.0
  0
LINE
  5
146
  8
0
  6
CONTINUOUS
 62
     7
 10
667.031716308
 20
212.0388253645
 30
0.0
 11
667.531716308
 21
211.5388253645
 31
0.0
  0
LINE
  5
147
  8
0
  6
CONTINUOUS
 62
     7
 10
532.531716308
 20
211.5388253645
 30
0.0
 11
522.531716308
 21
211.5388253645
 31
0.0
  0
LINE
  5
148
  8
0
  6
CONTINUOUS
 62
     7
 10
522.531716308
 20
200.5388253645
 30
0.0
 11
532.531716308
 21
200.5388253645
 31
0.0
  0
LINE
  5
149
  8
0
  6
CONTINUOUS
 62
     7
 10
522.531716308
 20
200.5388253645
 30
0.0
 11
522.531716308
 21
211.5388253645
 31
0.0
  0
LINE
  5
14A
  8
0
  6
CONTINUOUS
 62
     7
 10
532.531716308
 20
200.0388253645
 30
0.0
 11
523.031716308
 21
200.0388253645
 31
0.0
  0
LINE
  5
14B
  8
0
  6
CONTINUOUS
 62
     7
 10
522.531716308
 20
200.5388253645
 30
0.0
 11
523.031716308
 21
200.0388253645
 31
0.0
  0
LINE
  5
14C
  8
0
  6
CONTINUOUS
 62
     7
 10
523.031716308
 20
212.0388253645
 30
0.0
 11
532.531716308
 21
212.0388253645
 31
0.0
  0
LINE
  5
14D
  8
0
  6
CONTINUOUS
 62
     7
 10
523.031716308
 20
212.0388253645
 30
0.0
 11
522.531716308
 21
211.5388253645
 31
0.0
  0
LINE
  5
14E
  8
0
  6
CONTINUOUS
 62
     7
 10
679.531716308
 20
135.2459321456
 30
0.0
 11
679.531716308
 21
132.5388253645
 31
0.0
  0
LINE
  5
14F
  8
0
  6
CONTINUOUS
 62
     7
 10
679.031716308
 20
132.0388253645
 30
0.0
 11
679.531716308
 21
132.5388253645
 31
0.0
  0
LINE
  5
150
  8
0
  6
CONTINUOUS
 62
     7
 10
679.031716308
 20
132.0388253645
 30
0.0
 11
679.031716308
 21
135.0388253645
 31
0.0
  0
LINE
  5
151
  8
0
  6
CONTINUOUS
 62
     7
 10
679.531716308
 20
135.2459321456
 30
0.0
 11
679.031716308
 21
135.0388253645
 31
0.0
  0
LINE
  5
152
  8
0
  6
CONTINUOUS
 62
     7
 10
668.031716308
 20
334.0388253645
 30
0.0
 11
668.031716308
 21
135.0388253645
 31
0.0
  0
LINE
  5
153
  8
0
  6
CONTINUOUS
 62
     7
 10
679.031716308
 20
334.0388253645
 30
0.0
 11
668.031716308
 21
334.0388253645
 31
0.0
  0
LINE
  5
154
  8
0
  6
CONTINUOUS
 62
     7
 10
679.031716308
 20
135.0388253645
 30
0.0
 11
679.031716308
 21
334.0388253645
 31
0.0
  0
LINE
  5
155
  8
0
  6
CONTINUOUS
 62
     7
 10
668.031716308
 20
135.0388253645
 30
0.0
 11
679.031716308
 21
135.0388253645
 31
0.0
  0
LINE
  5
156
  8
0
  6
CONTINUOUS
 62
     7
 10
679.531716308
 20
336.5388253645
 30
0.0
 11
679.531716308
 21
333.8317185833
 31
0.0
  0
LINE
  5
157
  8
0
  6
CONTINUOUS
 62
     7
 10
679.531716308
 20
333.8317185833
 30
0.0
 11
679.031716308
 21
334.0388253645
 31
0.0
  0
LINE
  5
158
  8
0
  6
CONTINUOUS
 62
     7
 10
679.031716308
 20
334.0388253645
 30
0.0
 11
679.031716308
 21
337.0388253645
 31
0.0
  0
LINE
  5
159
  8
0
  6
CONTINUOUS
 62
     7
 10
679.531716308
 20
336.5388253645
 30
0.0
 11
679.031716308
 21
337.0388253645
 31
0.0
  0
LINE
  5
15A
  8
0
  6
CONTINUOUS
 62
     7
 10
668.031716308
 20
135.0388253645
 30
0.0
 11
668.031716308
 21
132.0388253645
 31
0.0
  0
LINE
  5
15B
  8
0
  6
CONTINUOUS
 62
     7
 10
679.031716308
 20
132.0388253645
 30
0.0
 11
668.031716308
 21
132.0388253645
 31
0.0
  0
LINE
  5
15C
  8
0
  6
CONTINUOUS
 62
     7
 10
668.031716308
 20
337.0388253645
 30
0.0
 11
668.031716308
 21
334.0388253645
 31
0.0
  0
LINE
  5
15D
  8
0
  6
CONTINUOUS
 62
     7
 10
668.031716308
 20
337.0388253645
 30
0.0
 11
679.031716308
 21
337.0388253645
 31
0.0
  0
LINE
  5
15E
  8
0
  6
CONTINUOUS
 62
     7
 10
679.531716308
 20
333.8317185833
 30
0.0
 11
679.531716308
 21
135.2459321456
 31
0.0
  0
LINE
  5
15F
  8
0
  6
CONTINUOUS
 62
     7
 10
667.531716308
 20
132.5388253645
 30
0.0
 11
667.531716308
 21
135.2459321456
 31
0.0
  0
LINE
  5
160
  8
0
  6
CONTINUOUS
 62
     7
 10
667.531716308
 20
135.2459321456
 30
0.0
 11
668.031716308
 21
135.0388253645
 31
0.0
  0
LINE
  5
161
  8
0
  6
CONTINUOUS
 62
     7
 10
668.031716308
 20
132.0388253645
 30
0.0
 11
667.531716308
 21
132.5388253645
 31
0.0
  0
LINE
  5
162
  8
0
  6
CONTINUOUS
 62
     7
 10
667.531716308
 20
333.8317185833
 30
0.0
 11
667.531716308
 21
336.5388253645
 31
0.0
  0
LINE
  5
163
  8
0
  6
CONTINUOUS
 62
     7
 10
667.531716308
 20
336.5388253645
 30
0.0
 11
668.031716308
 21
337.0388253645
 31
0.0
  0
LINE
  5
164
  8
0
  6
CONTINUOUS
 62
     7
 10
667.531716308
 20
333.8317185833
 30
0.0
 11
668.031716308
 21
334.0388253645
 31
0.0
  0
LINE
  5
165
  8
0
  6
CONTINUOUS
 62
     7
 10
667.531716308
 20
135.2459321456
 30
0.0
 11
667.531716308
 21
200.5388253645
 31
0.0
  0
LINE
  5
166
  8
0
  6
CONTINUOUS
 62
     7
 10
667.531716308
 20
211.5388253645
 30
0.0
 11
667.531716308
 21
333.8317185833
 31
0.0
  0
DIMENSION
  5
167
  8
DIM
  2
_D_2
 10
719.2725105729
 20
337.0388253645
 30
0.0
 11
719.2725105729
 21
234.5388253645
 31
0.0
 70
   160
  1
<>
  3
SLDDIMSTYLE0
 13
679.031716308
 23
132.0388253645
 33
0.0
 14
679.031716308
 24
337.0388253645
 34
0.0
 50
90.0
  0
DIMENSION
  5
171
  8
DIM
  2
_D_3
 10
509.7634784895
 20
212.0388253645
 30
0.0
 11
509.7634784895
 21
274.5388253645
 31
0.0
 70
   160
  1
<>
  3
SLDDIMSTYLE0
 13
668.031716308
 23
337.0388253645
 33
0.0
 14
532.531716308
 24
212.0388253645
 34
0.0
 50
90.0
  0
DIMENSION
  5
17B
  8
DIM
  2
_D_4
 10
509.7634784895
 20
200.0388253645
 30
0.0
 11
509.7634784895
 21
206.0388253645
 31
0.0
 70
   160
  1
<>
  3
SLDDIMSTYLE1
 13
532.531716308
 23
212.0388253645
 33
0.0
 14
532.531716308
 24
200.0388253645
 34
0.0
 50
90.0
  0
DIMENSION
  5
188
  8
DIM
  2
_D_5
 10
587.531716308
 20
125.2524063222
 30
0.0
 11
633.531716308
 21
125.2524063222
 31
0.0
 70
   160
  1
<>
  3
SLDDIMSTYLE0
 13
679.531716308
 23
132.5388253645
 33
0.0
 14
587.531716308
 24
175.0388253645
 34
0.0
  0
DIMENSION
  5
192
  8
DIM
  2
_D_6
 10
509.7634784895
 20
200.0388253645
 30
0.0
 11
509.7634784895
 21
187.5388253645
 31
0.0
 70
   160
  1
<>
  3
SLDDIMSTYLE0
 13
587.531716308
 23
175.0388253645
 33
0.0
 14
532.531716308
 24
200.0388253645
 34
0.0
 50
90.0
  0
CIRCLE
  5
19C
  8
0
  6
CONTINUOUS
 62
     7
 10
274.2663196306
 20
467.1868528765
 30
0.0
 40
4.25
  0
LINE
  5
19D
  8
0
  6
CONTINUOUS
 62
     7
 10
276.2663196306
 20
466.0321523381
 30
0.0
 11
276.2663196306
 21
468.3415534148
 31
0.0
  0
LINE
  5
19E
  8
0
  6
CONTINUOUS
 62
     7
 10
276.2663196306
 20
468.3415534148
 30
0.0
 11
274.2663196306
 21
469.4962539532
 31
0.0
  0
LINE
  5
19F
  8
0
  6
CONTINUOUS
 62
     7
 10
274.2663196306
 20
469.4962539532
 30
0.0
 11
272.2663196306
 21
468.3415534148
 31
0.0
  0
LINE
  5
1A0
  8
0
  6
CONTINUOUS
 62
     7
 10
272.2663196306
 20
468.3415534148
 30
0.0
 11
272.2663196306
 21
466.0321523381
 31
0.0
  0
LINE
  5
1A1
  8
0
  6
CONTINUOUS
 62
     7
 10
272.2663196306
 20
466.0321523381
 30
0.0
 11
274.2663196306
 21
464.8774517997
 31
0.0
  0
LINE
  5
1A2
  8
0
  6
CONTINUOUS
 62
     7
 10
274.2663196306
 20
464.8774517997
 30
0.0
 11
276.2663196306
 21
466.0321523381
 31
0.0
  0
CIRCLE
  5
1A3
  8
0
  6
CONTINUOUS
 62
     7
 10
389.2663196306
 20
447.1868528765
 30
0.0
 40
4.25
  0
LINE
  5
1A4
  8
0
  6
CONTINUOUS
 62
     7
 10
391.2663196306
 20
446.0321523381
 30
0.0
 11
391.2663196306
 21
448.3415534148
 31
0.0
  0
LINE
  5
1A5
  8
0
  6
CONTINUOUS
 62
     7
 10
391.2663196306
 20
448.3415534148
 30
0.0
 11
389.2663196306
 21
449.4962539532
 31
0.0
  0
LINE
  5
1A6
  8
0
  6
CONTINUOUS
 62
     7
 10
389.2663196306
 20
449.4962539532
 30
0.0
 11
387.2663196306
 21
448.3415534148
 31
0.0
  0
LINE
  5
1A7
  8
0
  6
CONTINUOUS
 62
     7
 10
387.2663196306
 20
448.3415534148
 30
0.0
 11
387.2663196306
 21
446.0321523381
 31
0.0
  0
LINE
  5
1A8
  8
0
  6
CONTINUOUS
 62
     7
 10
387.2663196306
 20
446.0321523381
 30
0.0
 11
389.2663196306
 21
444.8774517997
 31
0.0
  0
LINE
  5
1A9
  8
0
  6
CONTINUOUS
 62
     7
 10
389.2663196306
 20
444.8774517997
 30
0.0
 11
391.2663196306
 21
446.0321523381
 31
0.0
  0
CIRCLE
  5
1AA
  8
0
  6
CONTINUOUS
 62
     7
 10
274.2663196306
 20
447.1868528765
 30
0.0
 40
4.25
  0
LINE
  5
1AB
  8
0
  6
CONTINUOUS
 62
     7
 10
276.2663196306
 20
446.0321523381
 30
0.0
 11
276.2663196306
 21
448.3415534148
 31
0.0
  0
LINE
  5
1AC
  8
0
  6
CONTINUOUS
 62
     7
 10
276.2663196306
 20
448.3415534148
 30
0.0
 11
274.2663196306
 21
449.4962539532
 31
0.0
  0
LINE
  5
1AD
  8
0
  6
CONTINUOUS
 62
     7
 10
274.2663196306
 20
449.4962539532
 30
0.0
 11
272.2663196306
 21
448.3415534148
 31
0.0
  0
LINE
  5
1AE
  8
0
  6
CONTINUOUS
 62
     7
 10
272.2663196306
 20
448.3415534148
 30
0.0
 11
272.2663196306
 21
446.0321523381
 31
0.0
  0
LINE
  5
1AF
  8
0
  6
CONTINUOUS
 62
     7
 10
272.2663196306
 20
446.0321523381
 30
0.0
 11
274.2663196306
 21
444.8774517997
 31
0.0
  0
LINE
  5
1B0
  8
0
  6
CONTINUOUS
 62
     7
 10
274.2663196306
 20
444.8774517997
 30
0.0
 11
276.2663196306
 21
446.0321523381
 31
0.0
  0
CIRCLE
  5
1B1
  8
0
  6
CONTINUOUS
 62
     7
 10
389.2663196306
 20
467.1868528765
 30
0.0
 40
4.25
  0
LINE
  5
1B2
  8
0
  6
CONTINUOUS
 62
     7
 10
391.2663196306
 20
466.0321523381
 30
0.0
 11
391.2663196306
 21
468.3415534148
 31
0.0
  0
LINE
  5
1B3
  8
0
  6
CONTINUOUS
 62
     7
 10
391.2663196306
 20
468.3415534148
 30
0.0
 11
389.2663196306
 21
469.4962539532
 31
0.0
  0
LINE
  5
1B4
  8
0
  6
CONTINUOUS
 62
     7
 10
389.2663196306
 20
469.4962539532
 30
0.0
 11
387.2663196306
 21
468.3415534148
 31
0.0
  0
LINE
  5
1B5
  8
0
  6
CONTINUOUS
 62
     7
 10
387.2663196306
 20
468.3415534148
 30
0.0
 11
387.2663196306
 21
466.0321523381
 31
0.0
  0
LINE
  5
1B6
  8
0
  6
CONTINUOUS
 62
     7
 10
387.2663196306
 20
466.0321523381
 30
0.0
 11
389.2663196306
 21
464.8774517997
 31
0.0
  0
LINE
  5
1B7
  8
0
  6
CONTINUOUS
 62
     7
 10
389.2663196306
 20
464.8774517997
 30
0.0
 11
391.2663196306
 21
466.0321523381
 31
0.0
  0
CIRCLE
  5
1B8
  8
0
  6
CONTINUOUS
 62
     7
 10
389.2663196306
 20
447.1868528765
 30
0.0
 40
5.500000000000057
  0
CIRCLE
  5
1B9
  8
0
  6
CONTINUOUS
 62
     7
 10
389.2663196306
 20
467.1868528765
 30
0.0
 40
5.500000000000057
  0
CIRCLE
  5
1BA
  8
0
  6
CONTINUOUS
 62
     7
 10
274.2663196306
 20
447.1868528765
 30
0.0
 40
5.500000000000057
  0
CIRCLE
  5
1BB
  8
0
  6
CONTINUOUS
 62
     7
 10
371.7663196306
 20
387.1868528765
 30
0.0
 40
3.000000000000057
  0
CIRCLE
  5
1BC
  8
0
  6
CONTINUOUS
 62
     7
 10
291.7663196306
 20
467.1868528765
 30
0.0
 40
3.0
  0
CIRCLE
  5
1BD
  8
0
  6
CONTINUOUS
 62
     7
 10
371.7663196306
 20
467.1868528765
 30
0.0
 40
3.000000000000057
  0
CIRCLE
  5
1BE
  8
0
  6
CONTINUOUS
 62
     7
 10
291.7663196306
 20
387.1868528765
 30
0.0
 40
3.0
  0
CIRCLE
  5
1BF
  8
0
  6
CONTINUOUS
 62
     7
 10
386.7663196306
 20
372.1868528765
 30
0.0
 40
3.900000000000034
  0
CIRCLE
  5
1C0
  8
0
  6
CONTINUOUS
 62
     7
 10
276.7663196306
 20
482.1868528765
 30
0.0
 40
3.899999999999977
  0
CIRCLE
  5
1C1
  8
0
  6
CONTINUOUS
 62
     7
 10
386.7663196306
 20
482.1868528765
 30
0.0
 40
3.899999999999977
  0
ARC
  5
1C2
  8
0
  6
CONTINUOUS
 62
     7
 10
386.7663196306
 20
372.1868528765
 30
0.0
 40
9.500000000000057
 50
270.0
 51
360.0
  0
LINE
  5
1C3
  8
0
  6
CONTINUOUS
 62
     7
 10
276.7663196306
 20
362.6868528765
 30
0.0
 11
386.7663196306
 21
362.6868528765
 31
0.0
  0
ARC
  5
1C4
  8
0
  6
CONTINUOUS
 62
     7
 10
276.7663196306
 20
372.1868528765
 30
0.0
 40
9.499999999999943
 50
180.0
 51
270.0
  0
LINE
  5
1C5
  8
0
  6
CONTINUOUS
 62
     7
 10
267.2663196306
 20
506.6868528765
 30
0.0
 11
267.2663196306
 21
372.1868528765
 31
0.0
  0
LINE
  5
1C6
  8
0
  6
CONTINUOUS
 62
     7
 10
396.2663196306
 20
506.6868528765
 30
0.0
 11
267.2663196306
 21
506.6868528765
 31
0.0
  0
LINE
  5
1C7
  8
0
  6
CONTINUOUS
 62
     7
 10
396.2663196306
 20
372.1868528765
 30
0.0
 11
396.2663196306
 21
506.6868528765
 31
0.0
  0
CIRCLE
  5
1C8
  8
0
  6
CONTINUOUS
 62
     7
 10
331.7663196306
 20
427.1868528765
 30
0.0
 40
31.5
  0
CIRCLE
  5
1C9
  8
0
  6
CONTINUOUS
 62
     7
 10
276.7663196306
 20
372.1868528765
 30
0.0
 40
3.900000000000034
  0
CIRCLE
  5
1CA
  8
0
  6
CONTINUOUS
 62
     7
 10
274.2663196306
 20
467.1868528765
 30
0.0
 40
5.500000000000057
  0
LINE
  5
1CB
  8
0
  6
CONTINUOUS
 62
     7
 10
266.7663196306
 20
507.1868528765
 30
0.0
 11
267.2663196306
 21
506.6868528765
 31
0.0
  0
LINE
  5
1CC
  8
0
  6
CONTINUOUS
 62
     7
 10
266.7663196306
 20
507.1868528765
 30
0.0
 11
267.2663196306
 21
507.1868528765
 31
0.0
  0
LINE
  5
1CD
  8
0
  6
CONTINUOUS
 62
     7
 10
396.2663196306
 20
507.1868528765
 30
0.0
 11
396.7663196306
 21
507.1868528765
 31
0.0
  0
LINE
  5
1CE
  8
0
  6
CONTINUOUS
 62
     7
 10
396.2663196306
 20
506.6868528765
 30
0.0
 11
396.7663196306
 21
507.1868528765
 31
0.0
  0
LINE
  5
1CF
  8
0
  6
CONTINUOUS
 62
     7
 10
396.7663196306
 20
507.1868528765
 30
0.0
 11
396.7663196306
 21
372.1868528765
 31
0.0
  0
ARC
  5
1D0
  8
0
  6
CONTINUOUS
 62
     7
 10
386.7663196306
 20
372.1868528765
 30
0.0
 40
10.00000000000006
 50
270.0
 51
360.0
  0
CIRCLE
  5
1D1
  8
0
  6
CONTINUOUS
 62
     7
 10
389.2663196306
 20
467.1868528765
 30
0.0
 40
5.0
  0
CIRCLE
  5
1D2
  8
0
  6
CONTINUOUS
 62
     7
 10
389.2663196306
 20
447.1868528765
 30
0.0
 40
5.0
  0
CIRCLE
  5
1D3
  8
0
  6
CONTINUOUS
 62
     7
 10
386.7663196306
 20
482.1868528765
 30
0.0
 40
3.399999999999977
  0
CIRCLE
  5
1D4
  8
0
  6
CONTINUOUS
 62
     7
 10
386.7663196306
 20
372.1868528765
 30
0.0
 40
3.400000000000034
  0
LINE
  5
1D5
  8
0
  6
CONTINUOUS
 62
     7
 10
386.7663196306
 20
362.1868528765
 30
0.0
 11
276.7663196306
 21
362.1868528765
 31
0.0
  0
CIRCLE
  5
1D6
  8
0
  6
CONTINUOUS
 62
     7
 10
371.7663196306
 20
467.1868528765
 30
0.0
 40
2.5
  0
CIRCLE
  5
1D7
  8
0
  6
CONTINUOUS
 62
     7
 10
371.7663196306
 20
387.1868528765
 30
0.0
 40
2.5
  0
CIRCLE
  5
1D8
  8
0
  6
CONTINUOUS
 62
     7
 10
331.7663196306
 20
427.1868528765
 30
0.0
 40
31.0
  0
CIRCLE
  5
1D9
  8
0
  6
CONTINUOUS
 62
     7
 10
291.7663196306
 20
387.1868528765
 30
0.0
 40
2.5
  0
CIRCLE
  5
1DA
  8
0
  6
CONTINUOUS
 62
     7
 10
291.7663196306
 20
467.1868528765
 30
0.0
 40
2.5
  0
CIRCLE
  5
1DB
  8
0
  6
CONTINUOUS
 62
     7
 10
276.7663196306
 20
372.1868528765
 30
0.0
 40
3.400000000000034
  0
CIRCLE
  5
1DC
  8
0
  6
CONTINUOUS
 62
     7
 10
276.7663196306
 20
482.1868528765
 30
0.0
 40
3.399999999999977
  0
CIRCLE
  5
1DD
  8
0
  6
CONTINUOUS
 62
     7
 10
274.2663196306
 20
447.1868528765
 30
0.0
 40
5.0
  0
CIRCLE
  5
1DE
  8
0
  6
CONTINUOUS
 62
     7
 10
274.2663196306
 20
467.1868528765
 30
0.0
 40
5.0
  0
ARC
  5
1DF
  8
0
  6
CONTINUOUS
 62
     7
 10
276.7663196306
 20
372.1868528765
 30
0.0
 40
10.0
 50
180.0
 51
270.0
  0
LINE
  5
1E0
  8
0
  6
CONTINUOUS
 62
     7
 10
266.7663196306
 20
372.1868528765
 30
0.0
 11
266.7663196306
 21
507.1868528765
 31
0.0
  0
LINE
  5
1E1
  8
0
  6
CONTINUOUS
 62
     7
 10
266.7663196306
 20
507.6868528765
 30
0.0
 11
269.7663196306
 21
507.6868528765
 31
0.0
  0
LINE
  5
1E2
  8
0
  6
CONTINUOUS
 62
     7
 10
266.7663196306
 20
507.6868528765
 30
0.0
 11
266.7663196306
 21
518.6868528765
 31
0.0
  0
LINE
  5
1E3
  8
0
  6
CONTINUOUS
 62
     7
 10
269.7663196306
 20
518.6868528765
 30
0.0
 11
266.7663196306
 21
518.6868528765
 31
0.0
  0
LINE
  5
1E4
  8
0
  6
CONTINUOUS
 62
     7
 10
269.7663196306
 20
518.6868528765
 30
0.0
 11
269.7663196306
 21
507.6868528765
 31
0.0
  0
LINE
  5
1E5
  8
0
  6
CONTINUOUS
 62
     7
 10
267.2663196306
 20
519.1868528765
 30
0.0
 11
269.9734264118
 21
519.1868528765
 31
0.0
  0
LINE
  5
1E6
  8
0
  6
CONTINUOUS
 62
     7
 10
269.9734264118
 20
519.1868528765
 30
0.0
 11
269.7663196306
 21
518.6868528765
 31
0.0
  0
LINE
  5
1E7
  8
0
  6
CONTINUOUS
 62
     7
 10
266.7663196306
 20
518.6868528765
 30
0.0
 11
267.2663196306
 21
519.1868528765
 31
0.0
  0
LINE
  5
1E8
  8
0
  6
CONTINUOUS
 62
     7
 10
269.9734264118
 20
519.1868528765
 30
0.0
 11
393.5592128494
 21
519.1868528765
 31
0.0
  0
LINE
  5
1E9
  8
0
  6
CONTINUOUS
 62
     7
 10
393.5592128494
 20
519.1868528765
 30
0.0
 11
393.7663196306
 21
518.6868528765
 31
0.0
  0
LINE
  5
1EA
  8
0
  6
CONTINUOUS
 62
     7
 10
393.7663196306
 20
518.6868528765
 30
0.0
 11
269.7663196306
 21
518.6868528765
 31
0.0
  0
LINE
  5
1EB
  8
0
  6
CONTINUOUS
 62
     7
 10
393.7663196306
 20
507.6868528765
 30
0.0
 11
396.7663196306
 21
507.6868528765
 31
0.0
  0
LINE
  5
1EC
  8
0
  6
CONTINUOUS
 62
     7
 10
393.7663196306
 20
507.6868528765
 30
0.0
 11
393.7663196306
 21
518.6868528765
 31
0.0
  0
LINE
  5
1ED
  8
0
  6
CONTINUOUS
 62
     7
 10
396.7663196306
 20
518.6868528765
 30
0.0
 11
393.7663196306
 21
518.6868528765
 31
0.0
  0
LINE
  5
1EE
  8
0
  6
CONTINUOUS
 62
     7
 10
396.7663196306
 20
518.6868528765
 30
0.0
 11
396.7663196306
 21
507.6868528765
 31
0.0
  0
LINE
  5
1EF
  8
0
  6
CONTINUOUS
 62
     7
 10
393.5592128494
 20
519.1868528765
 30
0.0
 11
396.2663196306
 21
519.1868528765
 31
0.0
  0
LINE
  5
1F0
  8
0
  6
CONTINUOUS
 62
     7
 10
396.2663196306
 20
519.1868528765
 30
0.0
 11
396.7663196306
 21
518.6868528765
 31
0.0
  0
LINE
  5
1F1
  8
0
  6
CONTINUOUS
 62
     7
 10
269.7663196306
 20
507.6868528765
 30
0.0
 11
393.7663196306
 21
507.6868528765
 31
0.0
  0
LINE
  5
1F2
  8
0
  6
CONTINUOUS
 62
     7
 10
393.5592128494
 20
507.1868528765
 30
0.0
 11
269.9734264118
 21
507.1868528765
 31
0.0
  0
LINE
  5
1F3
  8
0
  6
CONTINUOUS
 62
     7
 10
269.9734264118
 20
507.1868528765
 30
0.0
 11
269.7663196306
 21
507.6868528765
 31
0.0
  0
LINE
  5
1F4
  8
0
  6
CONTINUOUS
 62
     7
 10
393.5592128494
 20
507.1868528765
 30
0.0
 11
393.7663196306
 21
507.6868528765
 31
0.0
  0
LINE
  5
1F5
  8
0
  6
CONTINUOUS
 62
     7
 10
269.9734264118
 20
507.1868528765
 30
0.0
 11
267.2663196306
 21
507.1868528765
 31
0.0
  0
LINE
  5
1F6
  8
0
  6
CONTINUOUS
 62
     7
 10
266.7663196306
 20
507.6868528765
 30
0.0
 11
267.2663196306
 21
507.1868528765
 31
0.0
  0
LINE
  5
1F7
  8
0
  6
CONTINUOUS
 62
     7
 10
396.2663196306
 20
507.1868528765
 30
0.0
 11
393.5592128494
 21
507.1868528765
 31
0.0
  0
LINE
  5
1F8
  8
0
  6
CONTINUOUS
 62
     7
 10
396.2663196306
 20
507.1868528765
 30
0.0
 11
396.7663196306
 21
507.6868528765
 31
0.0
  0
DIMENSION
  5
1F9
  8
DIM
  2
_D_7
 10
396.7663196306
 20
552.4416326814
 30
0.0
 11
331.7663196306
 21
552.4416326814
 31
0.0
 70
   160
  1
<>
  3
SLDDIMSTYLE0
 13
266.7663196306
 23
518.6868528765
 33
0.0
 14
396.7663196306
 24
518.6868528765
 34
0.0
  0
DIMENSION
  5
203
  8
DIM
  2
_D_8
 10
443.0936048678
 20
362.1868528765
 30
0.0
 11
443.0936048678
 21
440.6868528765
 31
0.0
 70
   160
  1
<>
  3
SLDDIMSTYLE0
 13
396.2663196306
 23
519.1868528765
 33
0.0
 14
386.7663196306
 24
362.1868528765
 34
0.0
 50
90.0
  0
DIMENSION
  5
20D
  8
DIM
  2
_D_9
 10
386.7663196306
 20
541.0268235561
 30
0.0
 11
331.7663196306
 21
541.0268235561
 31
0.0
 70
   160
  1
<>
  3
SLDDIMSTYLE0
 13
276.7663196306
 23
491.0868528765
 33
0.0
 14
386.7663196306
 24
491.0868528765
 34
0.0
  0
DIMENSION
  5
217
  8
DIM
  2
_D_10
 10
428.051051974
 20
372.1868528765
 30
0.0
 11
428.051051974
 21
427.1868528765
 31
0.0
 70
   160
  1
<>
  3
SLDDIMSTYLE0
 13
395.6663196306
 23
482.1868528765
 33
0.0
 14
395.6663196306
 24
372.1868528765
 34
0.0
 50
90.0
  0
DIMENSION
  5
221
  8
DIM
  2
_D_11
 10
293.802865597
 20
385.7368595913
 30
0.0
 11
222.139171175
 21
412.0745083456
 31
0.0
 70
   163
  1
4x<>H8 深さ4
  3
SLDDIMSTYLE2
 15
289.7297736643
 25
388.6368461616
 35
0.0
 40
0.0
  0
DIMENSION
  5
238
  8
DIM
  2
_D_12
 10
414.8136054275
 20
387.1868528765
 30
0.0
 11
414.8136054275
 21
427.1868528765
 31
0.0
 70
   160
  1
<>
  3
SLDDIMSTYLE0
 13
379.7663196306
 23
467.1868528765
 33
0.0
 14
379.7663196306
 24
387.1868528765
 34
0.0
 50
90.0
  0
DIMENSION
  5
242
  8
DIM
  2
_D_13
 10
371.7663196306
 20
529.8403106133
 30
0.0
 11
331.7663196306
 21
529.8403106133
 31
0.0
 70
   160
  1
<>
  3
SLDDIMSTYLE0
 13
291.7663196306
 23
475.1868528765
 33
0.0
 14
371.7663196306
 24
475.1868528765
 34
0.0
  0
INSERT
  5
253
  8
TXT
  2
SW_NOTE_0_1
 10
273.2766539947
 20
370.4455218483
 30
0.0
  0
INSERT
  5
25F
  8
DIM
  2
SW_CENTERMARKSYMBOL_4
 10
331.7663196306
 20
427.1868528765
 30
0.0
  0
INSERT
  5
26B
  8
DIM
  2
SW_CENTERMARKSYMBOL_5
 10
276.7663196306
 20
482.1868528765
 30
0.0
  0
INSERT
  5
277
  8
DIM
  2
SW_CENTERMARKSYMBOL_6
 10
386.7663196306
 20
482.1868528765
 30
0.0
  0
INSERT
  5
283
  8
DIM
  2
SW_CENTERMARKSYMBOL_7
 10
371.7663196306
 20
467.1868528765
 30
0.0
  0
INSERT
  5
28F
  8
DIM
  2
SW_CENTERMARKSYMBOL_8
 10
291.7663196306
 20
467.1868528765
 30
0.0
  0
INSERT
  5
29B
  8
DIM
  2
SW_CENTERMARKSYMBOL_9
 10
291.7663196306
 20
387.1868528765
 30
0.0
  0
INSERT
  5
2A7
  8
DIM
  2
SW_CENTERMARKSYMBOL_10
 10
371.7663196306
 20
387.1868528765
 30
0.0
  0
INSERT
  5
2B3
  8
DIM
  2
SW_CENTERMARKSYMBOL_11
 10
276.7663196306
 20
372.1868528765
 30
0.0
  0
INSERT
  5
2BF
  8
DIM
  2
SW_CENTERMARKSYMBOL_12
 10
386.7663196306
 20
372.1868528765
 30
0.0
  0
ENDSEC
  0
EOF
