  0
SECTION
  2
HEADER
  9
$ACADVER
  1
AC1009
  9
$DWGCODEPAGE
  3
dos932
  9
$INSBASE
 10
0.0
 20
0.0
 30
0.0
  9
$EXTMIN
 10
0.0
 20
0.0
 30
0.0
  9
$EXTMAX
 10
840.0
 20
594.0
 30
0.0
  9
$LIMMIN
 10
0.0
 20
0.0
  9
$LIMMAX
 10
840.0
 20
594.0
  9
$ORTHOMODE
 70
     0
  9
$REGENMODE
 70
     1
  9
$FILLMODE
 70
     1
  9
$QTEXTMODE
 70
     0
  9
$MIRRTEXT
 70
     1
  9
$DRAGMODE
 70
     2
  9
$LTSCALE
 40
2.0
  9
$OSMODE
 70
    37
  9
$ATTMODE
 70
     1
  9
$TEXTSIZE
 40
7.0
  9
$TRACEWID
 40
1.0
  9
$TEXTSTYLE
  7
STANDARD
  9
$CLAYER
  8
0
  9
$CELTYPE
  6
BYLAYER
  9
$CECOLOR
 62
   256
  9
$DIMSCALE
 40
1.0
  9
$DIMASZ
 40
6.0
  9
$DIMEXO
 40
0.02
  9
$DIMDLI
 40
3.75
  9
$DIMRND
 40
0.0
  9
$DIMDLE
 40
0.0
  9
$DIMEXE
 40
2.0
  9
$DIMTP
 40
0.0
  9
$DIMTM
 40
0.0
  9
$DIMTXT
 40
7.0
  9
$DIMCEN
 40
2.5
  9
$DIMTSZ
 40
0.0
  9
$DIMTOL
 70
     0
  9
$DIMLIM
 70
     0
  9
$DIMTIH
 70
     1
  9
$DIMTOH
 70
     1
  9
$DIMSE1
 70
     0
  9
$DIMSE2
 70
     0
  9
$DIMTAD
 70
     1
  9
$DIMZIN
 70
     0
  9
$DIMBLK
  1

  9
$DIMASO
 70
     1
  9
$DIMSHO
 70
     1
  9
$DIMPOST
  1

  9
$DIMAPOST
  1

  9
$DIMALT
 70
     0
  9
$DIMALTD
 70
     3
  9
$DIMALTF
 40
0.0393700787
  9
$DIMLFAC
 40
1.0
  9
$DIMTOFL
 70
     1
  9
$DIMTVP
 40
0.0
  9
$DIMTIX
 70
     0
  9
$DIMSOXD
 70
     0
  9
$DIMSAH
 70
     0
  9
$DIMBLK1
  1

  9
$DIMBLK2
  1

  9
$DIMSTYLE
  2
ISO-25
  9
$DIMCLRD
 70
     0
  9
$DIMCLRE
 70
     0
  9
$DIMCLRT
 70
     0
  9
$DIMTFAC
 40
1.0
  9
$DIMGAP
 40
3.048
  9
$LUNITS
 70
     2
  9
$LUPREC
 70
     4
  9
$SKETCHINC
 40
1.0
  9
$FILLETRAD
 40
10.0
  9
$AUNITS
 70
     0
  9
$AUPREC
 70
     2
  9
$MENU
  1
.
  9
$ELEVATION
 40
0.0
  9
$PELEVATION
 40
0.0
  9
$THICKNESS
 40
0.0
  9
$LIMCHECK
 70
     0
  9
$CHAMFERA
 40
0.0
  9
$CHAMFERB
 40
0.0
  9
$SKPOLY
 70
     0
  9
$TDCREATE
 40
2460356.590262836
  9
$TDUPDATE
 40
2460356.590265683
  9
$TDINDWG
 40
0.0000000116
  9
$TDUSRTIMER
 40
0.0000000116
  9
$USRTIMER
 70
     1
  9
$ANGBASE
 50
0.0
  9
$ANGDIR
 70
     0
  9
$PDMODE
 70
     0
  9
$PDSIZE
 40
-1.0
  9
$PLINEWID
 40
0.0
  9
$COORDS
 70
     1
  9
$SPLFRAME
 70
     0
  9
$SPLINETYPE
 70
     6
  9
$SPLINESEGS
 70
     8
  9
$ATTDIA
 70
     0
  9
$ATTREQ
 70
     1
  9
$HANDLING
 70
     1
  9
$HANDSEED
  5
49C
  9
$SURFTAB1
 70
     6
  9
$SURFTAB2
 70
     6
  9
$SURFTYPE
 70
     6
  9
$SURFU
 70
     6
  9
$SURFV
 70
     6
  9
$UCSNAME
  2

  9
$UCSORG
 10
0.0
 20
0.0
 30
0.0
  9
$UCSXDIR
 10
1.0
 20
0.0
 30
0.0
  9
$UCSYDIR
 10
0.0
 20
1.0
 30
0.0
  9
$PUCSNAME
  2

  9
$PUCSORG
 10
0.0
 20
0.0
 30
0.0
  9
$PUCSXDIR
 10
1.0
 20
0.0
 30
0.0
  9
$PUCSYDIR
 10
0.0
 20
1.0
 30
0.0
  9
$USERI1
 70
     0
  9
$USERI2
 70
     0
  9
$USERI3
 70
     0
  9
$USERI4
 70
     0
  9
$USERI5
 70
     0
  9
$USERR1
 40
0.0
  9
$USERR2
 40
0.0
  9
$USERR3
 40
0.0
  9
$USERR4
 40
0.0
  9
$USERR5
 40
0.0
  9
$WORLDVIEW
 70
     1
  9
$SHADEDGE
 70
     3
  9
$SHADEDIF
 70
    70
  9
$TILEMODE
 70
     1
  9
$MAXACTVP
 70
    64
  9
$PLIMCHECK
 70
     0
  9
$PEXTMIN
 10
1.0000000000E+20
 20
1.0000000000E+20
 30
1.0000000000E+20
  9
$PEXTMAX
 10
-1.0000000000E+20
 20
-1.0000000000E+20
 30
-1.0000000000E+20
  9
$PLIMMIN
 10
0.0
 20
0.0
  9
$PLIMMAX
 10
420.0
 20
297.0
  9
$UNITMODE
 70
     0
  9
$VISRETAIN
 70
     1
  9
$PLINEGEN
 70
     0
  9
$PSLTSCALE
 70
     1
  0
ENDSEC
  0
SECTION
  2
TABLES
  0
TABLE
  2
VPORT
 70
     1
  0
VPORT
  2
*ACTIVE
 70
     0
 10
0.0
 20
0.0
 11
1.0
 21
1.0
 12
420.0
 22
297.0
 13
0.0
 23
0.0
 14
10.0
 24
10.0
 15
10.0
 25
10.0
 16
0.0
 26
0.0
 36
1.0
 17
0.0
 27
0.0
 37
0.0
 40
594.0
 41
1.4141414141
 42
50.0
 43
0.0
 44
0.0
 50
0.0
 51
0.0
 71
     0
 72
  2000
 73
     1
 74
     3
 75
     0
 76
     0
 77
     0
 78
     0
  0
ENDTAB
  0
TABLE
  2
LTYPE
 70
     6
  0
LTYPE
  2
CONTINUOUS
 70
     0
  3
Solid line
 72
    65
 73
     0
 40
0.0
  0
LTYPE
  2
HIDDEN
 70
     0
  3
Hidden __ __ __ __ __ __ __ __ __ __ __ __ __ __
 72
    65
 73
     2
 40
1.905
 49
1.27
 49
-0.635
  0
LTYPE
  2
PHANTOM
 70
     0
  3
Phantom ______  __  __  ______  __  __  ______
 72
    65
 73
     6
 40
12.7
 49
6.35
 49
-1.27
 49
1.27
 49
-1.27
 49
1.27
 49
-1.27
  0
LTYPE
  2
CENTER
 70
     0
  3
Center ____ _ ____ _ ____ _ ____ _ ____ _ ____
 72
    65
 73
     4
 40
10.16
 49
6.35
 49
-1.27
 49
1.27
 49
-1.27
  0
LTYPE
  2
CENTERX2
 70
     0
  3
Center (2x) ________  __  ________  __  _____
 72
    65
 73
     4
 40
20.32
 49
12.7
 49
-2.54
 49
2.54
 49
-2.54
  0
LTYPE
  2
DOT2
 70
     0
  3
Dot (.5x) ........................................
 72
    65
 73
     2
 40
0.635
 49
0.0
 49
-0.635
  0
ENDTAB
  0
TABLE
  2
LAYER
 70
     4
  0
LAYER
  2
0
 70
     0
 62
     7
  6
CONTINUOUS
  0
LAYER
  2
DIM
 70
     0
 62
     7
  6
CONTINUOUS
  0
LAYER
  2
TXT
 70
     0
 62
     7
  6
CONTINUOUS
  0
LAYER
  2
FRAME
 70
     0
 62
     7
  6
CONTINUOUS
  0
ENDTAB
  0
TABLE
  2
STYLE
 70
     1
  0
STYLE
  2
STANDARD
 70
     0
 40
0.0
 41
1.0
 50
0.0
 71
     0
 42
7.0
  3
txt
  4
bigfont
  0
ENDTAB
  0
TABLE
  2
VIEW
 70
     0
  0
ENDTAB
  0
TABLE
  2
UCS
 70
     0
  0
ENDTAB
  0
TABLE
  2
APPID
 70
     1
  0
APPID
  2
ACAD
 70
     0
  0
ENDTAB
  0
TABLE
  2
DIMSTYLE
 70
     5
  0
DIMSTYLE
  2
ISO-25
 70
     0
  3

  4

  5

  6

  7

 40
1.0
 41
2.5
 42
0.625
 43
3.75
 44
1.25
 45
0.0
 46
0.0
 47
0.0
 48
0.0
140
2.5
141
2.5
142
0.0
143
0.0393700787
144
1.0
145
0.0
146
1.0
147
0.625
 71
     0
 72
     0
 73
     0
 74
     0
 75
     0
 76
     0
 77
     1
 78
     8
170
     0
171
     3
172
     1
173
     0
174
     0
175
     0
176
     0
177
     0
178
     0
  0
DIMSTYLE
  2
SLDDIMSTYLE0
 70
     0
  3

  4

  5

  6
OPEN30
  7
OPEN30
 40
1.0
 41
6.0
 42
0.0625
 43
0.38
 44
0.0
 45
0.000000001
 46
0.0
 47
0.0
 48
0.0
140
7.0
141
0.09
142
0.0
143
25.4
144
1.0
145
0.0
146
1.0
147
1.75
 71
     0
 72
     0
 73
     0
 74
     0
 75
     0
 76
     0
 77
     3
 78
    12
170
     0
171
     2
172
     0
173
     1
174
     0
175
     0
176
     0
177
     0
178
     0
  0
DIMSTYLE
  2
SLDDIMSTYLE1
 70
     0
  3

  4

  5

  6
OPEN30
  7
OPEN30
 40
1.0
 41
6.0
 42
0.0625
 43
0.38
 44
0.0
 45
0.000000001
 46
0.0
 47
0.0
 48
0.0
140
7.0
141
0.09
142
0.0
143
25.4
144
1.0
145
0.0
146
1.0
147
1.75
 71
     0
 72
     0
 73
     0
 74
     0
 75
     0
 76
     0
 77
     3
 78
    12
170
     0
171
     2
172
     1
173
     1
174
     0
175
     0
176
     0
177
     0
178
     0
  0
DIMSTYLE
  2
SLDDIMSTYLE2
 70
     0
  3

  4

  5

  6
NONE
  7
OPEN30
 40
1.0
 41
6.0
 42
0.0625
 43
0.38
 44
0.0
 45
0.000000001
 46
0.0
 47
0.018
 48
0.0
140
7.0
141
0.0
142
0.0
143
25.4
144
1.0
145
0.0
146
1.0
147
1.75
 71
     1
 72
     0
 73
     1
 74
     1
 75
     0
 76
     0
 77
     0
 78
    12
170
     0
171
     2
172
     1
173
     1
174
     0
175
     0
176
     0
177
     0
178
     0
  0
DIMSTYLE
  2
SLDDIMSTYLE3
 70
     0
  3

  4

  5

  6
OPEN30
  7
OPEN30
 40
1.0
 41
6.0
 42
0.0625
 43
0.38
 44
0.0
 45
0.000000001
 46
0.0
 47
0.018
 48
0.0
140
7.0
141
0.09
142
0.0
143
25.4
144
1.0
145
0.0
146
1.0
147
1.75
 71
     1
 72
     0
 73
     0
 74
     0
 75
     0
 76
     0
 77
     3
 78
    12
170
     0
171
     2
172
     1
173
     1
174
     0
175
     0
176
     0
177
     0
178
     0
  0
ENDTAB
  0
ENDSEC
  0
SECTION
  2
BLOCKS
  0
BLOCK
  8
0
  2
$MODEL_SPACE
 70
     0
 10
0.0
 20
0.0
 30
0.0
  3
$MODEL_SPACE
  1

  0
ENDBLK
  5
21
  8
0
  0
BLOCK
 67
     1
  8
0
  2
$PAPER_SPACE
 70
     0
 10
0.0
 20
0.0
 30
0.0
  3
$PAPER_SPACE
  1

  0
ENDBLK
  5
1D
 67
     1
  8
0
  0
BLOCK
  8
0
  2
_OPEN30
 70
     0
 10
0.0
 20
0.0
 30
0.0
  3
_OPEN30
  1

  0
LINE
  5
103
  8
0
  6
BYBLOCK
 62
     0
 10
-1.0
 20
0.267949
 30
0.0
 11
0.0
 21
0.0
 31
0.0
  0
LINE
  5
104
  8
0
  6
BYBLOCK
 62
     0
 10
0.0
 20
0.0
 30
0.0
 11
-1.0
 21
-0.267949
 31
0.0
  0
LINE
  5
105
  8
0
  6
BYBLOCK
 62
     0
 10
0.0
 20
0.0
 30
0.0
 11
-1.0
 21
0.0
 31
0.0
  0
ENDBLK
  5
102
  8
0
  0
BLOCK
  8
0
  2
_D
 70
     0
 10
0.0
 20
0.0
 30
0.0
  3
_D
  1

  0
INSERT
  5
109
  8
DIM
  2
_OPEN30
 10
200.8246324543
 20
108.5112028874
 30
-83.4600314154
 41
6.0
 42
6.0
 50
180.0
  0
INSERT
  5
10A
  8
DIM
  2
_OPEN30
 10
280.8246324543
 20
108.5112028874
 30
-83.4600314154
 41
6.0
 42
6.0
 50
0.0
  0
LINE
  5
10B
  8
DIM
 10
200.8246324543
 20
234.2556600975
 30
0.0
 11
200.8246324543
 21
106.5112028874
 31
0.0
  0
LINE
  5
10C
  8
DIM
 10
280.8246324543
 20
234.7244754497
 30
0.0
 11
280.8246324543
 21
106.5112028874
 31
0.0
  0
LINE
  5
10D
  8
DIM
 10
200.8246324543
 20
108.5112028874
 30
0.0
 11
280.8246324543
 21
108.5112028874
 31
0.0
  0
TEXT
  5
10E
  8
DIM
 10
236.7510214593
 20
110.9840228551
 30
-83.4600314154
 40
7.0
  1
80
 41
0.7
 11
236.7510214593
 21
108.5112024217
 31
-83.4600314154
 73
     1
  0
ENDBLK
  5
108
  8
0
  0
BLOCK
  8
0
  2
_D_1
 70
     0
 10
0.0
 20
0.0
 30
0.0
  3
_D_1
  1

  0
INSERT
  5
114
  8
DIM
  2
_OPEN30
 10
321.4065654503
 20
242.9576457968
 30
-83.4600314154
 41
6.0
 42
6.0
 50
90.0
  0
INSERT
  5
115
  8
DIM
  2
_OPEN30
 10
321.4065654503
 20
247.9576457968
 30
-83.4600314154
 41
6.0
 42
6.0
 50
270.0
  0
LINE
  5
116
  8
DIM
 10
312.8446324543
 20
242.9576457968
 30
0.0
 11
323.4065654503
 21
242.9576457968
 31
0.0
  0
LINE
  5
117
  8
DIM
 10
291.3446324543
 20
247.9576457968
 30
0.0
 11
323.4065654503
 21
247.9576457968
 31
0.0
  0
LINE
  5
118
  8
DIM
 10
321.4065654503
 20
242.9576457968
 30
0.0
 11
321.4065654503
 21
230.2576457968
 31
0.0
  0
LINE
  5
119
  8
DIM
 10
321.4065654503
 20
242.9576457968
 30
0.0
 11
321.4065654503
 21
247.9576457968
 31
0.0
  0
LINE
  5
11A
  8
DIM
 10
321.4065654503
 20
247.9576457968
 30
0.0
 11
321.4065654503
 21
260.243774787
 31
0.0
  0
TEXT
  5
11B
  8
DIM
 10
318.9337454825
 20
256.1701637921
 30
-83.4600314154
 40
7.0
  1
5
 50
90.0
 41
0.7
 11
321.406565916
 21
256.1701637921
 31
-83.4600314154
 73
     1
  0
ENDBLK
  5
113
  8
0
  0
BLOCK
  8
0
  2
_D_2
 70
     0
 10
0.0
 20
0.0
 30
0.0
  3
_D_2
  1

  0
INSERT
  5
120
  8
DIM
  2
_OPEN30
 10
337.4523571278
 20
247.9576457968
 30
-83.4600314154
 41
6.0
 42
6.0
 50
270.0
  0
INSERT
  5
121
  8
DIM
  2
_OPEN30
 10
337.4523571278
 20
227.9576457968
 30
-83.4600314154
 41
6.0
 42
6.0
 50
90.0
  0
LINE
  5
122
  8
DIM
 10
291.3446324543
 20
247.9576457968
 30
0.0
 11
339.4523571278
 21
247.9576457968
 31
0.0
  0
LINE
  5
123
  8
DIM
 10
291.3446324543
 20
227.9576457968
 30
0.0
 11
339.4523571278
 21
227.9576457968
 31
0.0
  0
LINE
  5
124
  8
DIM
 10
337.4523571278
 20
247.9576457968
 30
0.0
 11
337.4523571278
 21
260.6576457968
 31
0.0
  0
LINE
  5
125
  8
DIM
 10
337.4523571278
 20
247.9576457968
 30
0.0
 11
337.4523571278
 21
227.9576457968
 31
0.0
  0
LINE
  5
126
  8
DIM
 10
337.4523571278
 20
227.9576457968
 30
0.0
 11
337.4523571278
 21
215.2576457968
 31
0.0
  0
TEXT
  5
127
  8
DIM
 10
334.9795371601
 20
233.8840348018
 30
-83.4600314154
 40
7.0
  1
20
 50
90.0
 41
0.7
 11
337.4523575935
 21
233.8840348018
 31
-83.4600314154
 73
     1
  0
ENDBLK
  5
11F
  8
0
  0
BLOCK
  8
0
  2
_D_3
 70
     0
 10
0.0
 20
0.0
 30
0.0
  3
_D_3
  1

  0
INSERT
  5
12C
  8
DIM
  2
_OPEN30
 10
337.4523571278
 20
287.9576457968
 30
-83.4600314154
 41
6.0
 42
6.0
 50
90.0
  0
INSERT
  5
12D
  8
DIM
  2
_OPEN30
 10
337.4523571278
 20
247.9576457968
 30
-83.4600314154
 41
6.0
 42
6.0
 50
270.0
  0
LINE
  5
12E
  8
DIM
 10
301.3446324543
 20
287.9576457968
 30
0.0
 11
339.4523571278
 21
287.9576457968
 31
0.0
  0
LINE
  5
12F
  8
DIM
 10
291.3446324543
 20
247.9576457968
 30
0.0
 11
339.4523571278
 21
247.9576457968
 31
0.0
  0
LINE
  5
130
  8
DIM
 10
337.4523571278
 20
287.9576457968
 30
0.0
 11
337.4523571278
 21
247.9576457968
 31
0.0
  0
TEXT
  5
131
  8
DIM
 10
334.9795371601
 20
263.8840348018
 30
-83.4600314154
 40
7.0
  1
40
 50
90.0
 41
0.7
 11
337.4523575935
 21
263.8840348018
 31
-83.4600314154
 73
     1
  0
ENDBLK
  5
12B
  8
0
  0
BLOCK
  8
0
  2
_D_4
 70
     0
 10
0.0
 20
0.0
 30
0.0
  3
_D_4
  1

  0
INSERT
  5
136
  8
DIM
  2
_OPEN30
 10
353.9036099142
 20
287.9576457968
 30
-83.4600314154
 41
6.0
 42
6.0
 50
90.0
  0
INSERT
  5
137
  8
DIM
  2
_OPEN30
 10
353.9036099142
 20
197.9576457968
 30
-83.4600314154
 41
6.0
 42
6.0
 50
270.0
  0
LINE
  5
138
  8
DIM
 10
301.3446324543
 20
287.9576457968
 30
0.0
 11
355.9036099142
 21
287.9576457968
 31
0.0
  0
LINE
  5
139
  8
DIM
 10
281.3446324543
 20
197.9576457968
 30
0.0
 11
355.9036099142
 21
197.9576457968
 31
0.0
  0
LINE
  5
13A
  8
DIM
 10
353.9036099142
 20
287.9576457968
 30
0.0
 11
353.9036099142
 21
197.9576457968
 31
0.0
  0
TEXT
  5
13B
  8
DIM
 10
351.4307899464
 20
238.8840348018
 30
-83.4600314154
 40
7.0
  1
90
 50
90.0
 41
0.7
 11
353.9036103798
 21
238.8840348018
 31
-83.4600314154
 73
     1
  0
ENDBLK
  5
135
  8
0
  0
BLOCK
  8
0
  2
_D_5
 70
     0
 10
0.0
 20
0.0
 30
0.0
  3
_D_5
  1

  0
INSERT
  5
140
  8
DIM
  2
_OPEN30
 10
371.6471950757
 20
337.9576457968
 30
-83.4600314154
 41
6.0
 42
6.0
 50
90.0
  0
INSERT
  5
141
  8
DIM
  2
_OPEN30
 10
371.6471950757
 20
147.9576457968
 30
-83.4600314154
 41
6.0
 42
6.0
 50
270.0
  0
LINE
  5
142
  8
DIM
 10
301.3446324543
 20
337.9576457968
 30
0.0
 11
373.6471950757
 21
337.9576457968
 31
0.0
  0
LINE
  5
143
  8
DIM
 10
281.3446324543
 20
147.9576457968
 30
0.0
 11
373.6471950757
 21
147.9576457968
 31
0.0
  0
LINE
  5
144
  8
DIM
 10
371.6471950757
 20
337.9576457968
 30
0.0
 11
371.6471950757
 21
147.9576457968
 31
0.0
  0
TEXT
  5
145
  8
DIM
 10
369.1743751079
 20
236.8472290715
 30
-83.4600314154
 40
7.0
  1
190
 50
90.0
 41
0.7
 11
371.6471955414
 21
236.8472290715
 31
-83.4600314154
 73
     1
  0
ENDBLK
  5
13F
  8
0
  0
BLOCK
  8
0
  2
_D_6
 70
     0
 10
0.0
 20
0.0
 30
0.0
  3
_D_6
  1

  0
INSERT
  5
14A
  8
DIM
  2
_OPEN30
 10
270.8246324543
 20
352.7788452859
 30
-83.4600314154
 41
6.0
 42
6.0
 50
180.0
  0
INSERT
  5
14B
  8
DIM
  2
_OPEN30
 10
290.8246324543
 20
352.7788452859
 30
-83.4600314154
 41
6.0
 42
6.0
 50
0.0
  0
LINE
  5
14C
  8
DIM
 10
270.8246324543
 20
329.2491717176
 30
0.0
 11
270.8246324543
 21
354.7788452859
 31
0.0
  0
LINE
  5
14D
  8
DIM
 10
290.8246324543
 20
329.571285698
 30
0.0
 11
290.8246324543
 21
354.7788452859
 31
0.0
  0
LINE
  5
14E
  8
DIM
 10
270.8246324543
 20
352.7788452859
 30
0.0
 11
290.8246324543
 21
352.7788452859
 31
0.0
  0
LINE
  5
14F
  8
DIM
 10
290.8246324543
 20
352.7788452859
 30
0.0
 11
307.5439890413
 21
352.7788452859
 31
0.0
  0
TEXT
  5
150
  8
DIM
 10
299.3967670514
 20
355.2516652537
 30
-83.4600314154
 40
7.0
  1
20
 41
0.7
 11
299.3967670514
 21
352.7788448203
 31
-83.4600314154
 73
     1
  0
ENDBLK
  5
149
  8
0
  0
BLOCK
  8
0
  2
_D_7
 70
     0
 10
0.0
 20
0.0
 30
0.0
  3
_D_7
  1

  0
INSERT
  5
155
  8
DIM
  2
_OPEN30
 10
190.8246324543
 20
352.7788452859
 30
-83.4600314154
 41
6.0
 42
6.0
 50
180.0
  0
INSERT
  5
156
  8
DIM
  2
_OPEN30
 10
210.8246324543
 20
352.7788452859
 30
-83.4600314154
 41
6.0
 42
6.0
 50
0.0
  0
LINE
  5
157
  8
DIM
 10
190.8246324543
 20
329.582995697
 30
0.0
 11
190.8246324543
 21
354.7788452859
 31
0.0
  0
LINE
  5
158
  8
DIM
 10
210.8246324543
 20
329.7472534789
 30
0.0
 11
210.8246324543
 21
354.7788452859
 31
0.0
  0
LINE
  5
159
  8
DIM
 10
190.8246324543
 20
352.7788452859
 30
0.0
 11
177.139377491
 21
352.7788452859
 31
0.0
  0
LINE
  5
15A
  8
DIM
 10
190.8246324543
 20
352.7788452859
 30
0.0
 11
210.8246324543
 21
352.7788452859
 31
0.0
  0
TEXT
  5
15B
  8
DIM
 10
177.139377491
 20
355.2516652537
 30
-83.4600314154
 40
7.0
  1
20
 41
0.7
 11
177.139377491
 21
352.7788448203
 31
-83.4600314154
 73
     1
  0
ENDBLK
  5
154
  8
0
  0
BLOCK
  8
0
  2
_D_8
 70
     0
 10
0.0
 20
0.0
 30
0.0
  3
_D_8
  1

  0
INSERT
  5
160
  8
DIM
  2
_OPEN30
 10
210.8246324543
 20
119.7693307951
 30
-83.4600314154
 41
6.0
 42
6.0
 50
180.0
  0
INSERT
  5
161
  8
DIM
  2
_OPEN30
 10
270.8246324543
 20
119.7693307951
 30
-83.4600314154
 41
6.0
 42
6.0
 50
0.0
  0
LINE
  5
162
  8
DIM
 10
210.8246324543
 20
137.4376457968
 30
0.0
 11
210.8246324543
 21
117.7693307951
 31
0.0
  0
LINE
  5
163
  8
DIM
 10
270.8246324543
 20
137.4376457968
 30
0.0
 11
270.8246324543
 21
117.7693307951
 31
0.0
  0
LINE
  5
164
  8
DIM
 10
210.8246324543
 20
119.7693307951
 30
0.0
 11
270.8246324543
 21
119.7693307951
 31
0.0
  0
TEXT
  5
165
  8
DIM
 10
236.7510214593
 20
122.2421507629
 30
-83.4600314154
 40
7.0
  1
60
 41
0.7
 11
236.7510214593
 21
119.7693303295
 31
-83.4600314154
 73
     1
  0
ENDBLK
  5
15F
  8
0
  0
BLOCK
  8
0
  2
SW_NOTE_0
 70
     0
 10
0.0
 20
0.0
 30
0.0
  3
SW_NOTE_0
  1

  0
LINE
  5
169
  8
TXT
 62
     0
 10
-137.9388000566
 20
27.2722043524
 30
0.0
 11
-31.7723749652
 21
27.2722043524
 31
0.0
  0
TEXT
  5
16A
  8
TXT
 62
     0
 10
-138.8855797471
 20
29.7698042056
 30
0.0
 40
7.0
  1
16xφ5.5,10深座ぐり深さ5.4
 41
0.7
 11
-138.8855797471
 21
27.2969837722
 31
0.0
 73
     1
  0
LINE
  5
16B
  8
TXT
 62
     0
 10
-31.7723749652
 20
27.2722043524
 30
0.0
 11
0.0
 21
0.0
 31
0.0
  0
INSERT
  5
16C
  8
TXT
 62
     0
  2
_OPEN30
 10
0.0
 20
0.0
 30
-71.4600314154
 41
6.0
 42
6.0
 50
319.3584569049
  0
ENDBLK
  5
168
  8
0
  0
BLOCK
  8
0
  2
SW_CENTERMARKSYMBOL_0
 70
     0
 10
0.0
 20
0.0
 30
0.0
  3
SW_CENTERMARKSYMBOL_0
  1

  0
LINE
  5
171
  8
DIM
 62
     0
 10
0.0
 20
0.0
 30
0.0
 11
0.0
 21
5.0
 31
0.0
  0
LINE
  5
172
  8
DIM
 62
     0
 10
0.0
 20
0.0
 30
0.0
 11
-5.0
 21
0.0
 31
0.0
  0
LINE
  5
173
  8
DIM
 62
     0
 10
0.0
 20
0.0
 30
0.0
 11
0.0
 21
-5.0
 31
0.0
  0
LINE
  5
174
  8
DIM
 62
     0
 10
0.0
 20
0.0
 30
0.0
 11
5.0
 21
0.0
 31
0.0
  0
LINE
  5
175
  8
DIM
 62
     0
 10
0.0
 20
10.0
 30
0.0
 11
0.0
 21
106.8533247393
 31
0.0
  0
LINE
  5
176
  8
DIM
 62
     0
 10
-10.0
 20
0.0
 30
0.0
 11
-10.5
 21
0.0
 31
0.0
  0
LINE
  5
177
  8
DIM
 62
     0
 10
0.0
 20
-10.0
 30
0.0
 11
0.0
 21
-13.6819856993
 31
0.0
  0
LINE
  5
178
  8
DIM
 62
     0
 10
10.0
 20
0.0
 30
0.0
 11
10.5
 21
0.0
 31
0.0
  0
ENDBLK
  5
170
  8
0
  0
BLOCK
  8
0
  2
SW_CENTERMARKSYMBOL_1
 70
     0
 10
0.0
 20
0.0
 30
0.0
  3
SW_CENTERMARKSYMBOL_1
  1

  0
LINE
  5
17D
  8
DIM
 62
     0
 10
0.0
 20
0.0
 30
0.0
 11
0.0
 21
5.0
 31
0.0
  0
LINE
  5
17E
  8
DIM
 62
     0
 10
0.0
 20
0.0
 30
0.0
 11
-5.0
 21
0.0
 31
0.0
  0
LINE
  5
17F
  8
DIM
 62
     0
 10
0.0
 20
0.0
 30
0.0
 11
0.0
 21
-5.0
 31
0.0
  0
LINE
  5
180
  8
DIM
 62
     0
 10
0.0
 20
0.0
 30
0.0
 11
5.0
 21
0.0
 31
0.0
  0
LINE
  5
181
  8
DIM
 62
     0
 10
0.0
 20
10.0
 30
0.0
 11
0.0
 21
14.2930387548
 31
0.0
  0
LINE
  5
182
  8
DIM
 62
     0
 10
-10.0
 20
0.0
 30
0.0
 11
-10.5
 21
0.0
 31
0.0
  0
LINE
  5
183
  8
DIM
 62
     0
 10
0.0
 20
-10.0
 30
0.0
 11
0.0
 21
-95.9036127508
 31
0.0
  0
LINE
  5
184
  8
DIM
 62
     0
 10
10.0
 20
0.0
 30
0.0
 11
10.5
 21
0.0
 31
0.0
  0
ENDBLK
  5
17C
  8
0
  0
BLOCK
  8
0
  2
SW_CENTERMARKSYMBOL_2
 70
     0
 10
0.0
 20
0.0
 30
0.0
  3
SW_CENTERMARKSYMBOL_2
  1

  0
LINE
  5
189
  8
DIM
 62
     0
 10
0.0
 20
0.0
 30
0.0
 11
0.0
 21
5.0
 31
0.0
  0
LINE
  5
18A
  8
DIM
 62
     0
 10
0.0
 20
0.0
 30
0.0
 11
-5.0
 21
0.0
 31
0.0
  0
LINE
  5
18B
  8
DIM
 62
     0
 10
0.0
 20
0.0
 30
0.0
 11
0.0
 21
-5.0
 31
0.0
  0
LINE
  5
18C
  8
DIM
 62
     0
 10
0.0
 20
0.0
 30
0.0
 11
5.0
 21
0.0
 31
0.0
  0
LINE
  5
18D
  8
DIM
 62
     0
 10
0.0
 20
10.0
 30
0.0
 11
0.0
 21
104.1309729041
 31
0.0
  0
LINE
  5
18E
  8
DIM
 62
     0
 10
-10.0
 20
0.0
 30
0.0
 11
-10.5
 21
0.0
 31
0.0
  0
LINE
  5
18F
  8
DIM
 62
     0
 10
0.0
 20
-10.0
 30
0.0
 11
0.0
 21
-13.2131703471
 31
0.0
  0
LINE
  5
190
  8
DIM
 62
     0
 10
10.0
 20
0.0
 30
0.0
 11
10.5
 21
0.0
 31
0.0
  0
ENDBLK
  5
188
  8
0
  0
BLOCK
  8
0
  2
SW_CENTERMARKSYMBOL_3
 70
     0
 10
0.0
 20
0.0
 30
0.0
  3
SW_CENTERMARKSYMBOL_3
  1

  0
LINE
  5
195
  8
DIM
 62
     0
 10
0.0
 20
0.0
 30
0.0
 11
0.0
 21
5.0
 31
0.0
  0
LINE
  5
196
  8
DIM
 62
     0
 10
0.0
 20
0.0
 30
0.0
 11
-5.0
 21
0.0
 31
0.0
  0
LINE
  5
197
  8
DIM
 62
     0
 10
0.0
 20
0.0
 30
0.0
 11
0.0
 21
-5.0
 31
0.0
  0
LINE
  5
198
  8
DIM
 62
     0
 10
0.0
 20
0.0
 30
0.0
 11
5.0
 21
0.0
 31
0.0
  0
LINE
  5
199
  8
DIM
 62
     0
 10
0.0
 20
10.0
 30
0.0
 11
0.0
 21
13.6582350473
 31
0.0
  0
LINE
  5
19A
  8
DIM
 62
     0
 10
-10.0
 20
0.0
 30
0.0
 11
-10.5
 21
0.0
 31
0.0
  0
LINE
  5
19B
  8
DIM
 62
     0
 10
0.0
 20
-10.0
 30
0.0
 11
0.0
 21
-94.547772564
 31
0.0
  0
LINE
  5
19C
  8
DIM
 62
     0
 10
10.0
 20
0.0
 30
0.0
 11
10.5
 21
0.0
 31
0.0
  0
ENDBLK
  5
194
  8
0
  0
BLOCK
  8
0
  2
SW_CENTERMARKSYMBOL_4
 70
     0
 10
0.0
 20
0.0
 30
0.0
  3
SW_CENTERMARKSYMBOL_4
  1

  0
LINE
  5
1A1
  8
DIM
 62
     0
 10
0.0
 20
0.0
 30
0.0
 11
0.0
 21
5.0
 31
0.0
  0
LINE
  5
1A2
  8
DIM
 62
     0
 10
0.0
 20
0.0
 30
0.0
 11
-5.0
 21
0.0
 31
0.0
  0
LINE
  5
1A3
  8
DIM
 62
     0
 10
0.0
 20
0.0
 30
0.0
 11
0.0
 21
-5.0
 31
0.0
  0
LINE
  5
1A4
  8
DIM
 62
     0
 10
0.0
 20
0.0
 30
0.0
 11
5.0
 21
0.0
 31
0.0
  0
LINE
  5
1A5
  8
DIM
 62
     0
 10
0.0
 20
10.0
 30
0.0
 11
0.0
 21
10.5
 31
0.0
  0
LINE
  5
1A6
  8
DIM
 62
     0
 10
-10.0
 20
0.0
 30
0.0
 11
-10.5
 21
0.0
 31
0.0
  0
LINE
  5
1A7
  8
DIM
 62
     0
 10
0.0
 20
-10.0
 30
0.0
 11
0.0
 21
-10.5
 31
0.0
  0
LINE
  5
1A8
  8
DIM
 62
     0
 10
10.0
 20
0.0
 30
0.0
 11
10.5
 21
0.0
 31
0.0
  0
ENDBLK
  5
1A0
  8
0
  0
BLOCK
  8
0
  2
SW_CENTERMARKSYMBOL_5
 70
     0
 10
0.0
 20
0.0
 30
0.0
  3
SW_CENTERMARKSYMBOL_5
  1

  0
LINE
  5
1AD
  8
DIM
 62
     0
 10
0.0
 20
0.0
 30
0.0
 11
0.0
 21
5.0
 31
0.0
  0
LINE
  5
1AE
  8
DIM
 62
     0
 10
0.0
 20
0.0
 30
0.0
 11
-5.0
 21
0.0
 31
0.0
  0
LINE
  5
1AF
  8
DIM
 62
     0
 10
0.0
 20
0.0
 30
0.0
 11
0.0
 21
-5.0
 31
0.0
  0
LINE
  5
1B0
  8
DIM
 62
     0
 10
0.0
 20
0.0
 30
0.0
 11
5.0
 21
0.0
 31
0.0
  0
LINE
  5
1B1
  8
DIM
 62
     0
 10
0.0
 20
10.0
 30
0.0
 11
0.0
 21
10.5
 31
0.0
  0
LINE
  5
1B2
  8
DIM
 62
     0
 10
-10.0
 20
0.0
 30
0.0
 11
-10.5
 21
0.0
 31
0.0
  0
LINE
  5
1B3
  8
DIM
 62
     0
 10
0.0
 20
-10.0
 30
0.0
 11
0.0
 21
-10.5
 31
0.0
  0
LINE
  5
1B4
  8
DIM
 62
     0
 10
10.0
 20
0.0
 30
0.0
 11
10.5
 21
0.0
 31
0.0
  0
ENDBLK
  5
1AC
  8
0
  0
BLOCK
  8
0
  2
SW_CENTERMARKSYMBOL_6
 70
     0
 10
0.0
 20
0.0
 30
0.0
  3
SW_CENTERMARKSYMBOL_6
  1

  0
LINE
  5
1B9
  8
DIM
 62
     0
 10
0.0
 20
0.0
 30
0.0
 11
0.0
 21
5.0
 31
0.0
  0
LINE
  5
1BA
  8
DIM
 62
     0
 10
0.0
 20
0.0
 30
0.0
 11
-5.0
 21
0.0
 31
0.0
  0
LINE
  5
1BB
  8
DIM
 62
     0
 10
0.0
 20
0.0
 30
0.0
 11
0.0
 21
-5.0
 31
0.0
  0
LINE
  5
1BC
  8
DIM
 62
     0
 10
0.0
 20
0.0
 30
0.0
 11
5.0
 21
0.0
 31
0.0
  0
LINE
  5
1BD
  8
DIM
 62
     0
 10
0.0
 20
10.0
 30
0.0
 11
0.0
 21
41.6053499002
 31
0.0
  0
LINE
  5
1BE
  8
DIM
 62
     0
 10
-10.0
 20
0.0
 30
0.0
 11
-10.5
 21
0.0
 31
0.0
  0
LINE
  5
1BF
  8
DIM
 62
     0
 10
0.0
 20
-10.0
 30
0.0
 11
0.0
 21
-10.5
 31
0.0
  0
LINE
  5
1C0
  8
DIM
 62
     0
 10
10.0
 20
0.0
 30
0.0
 11
10.5
 21
0.0
 31
0.0
  0
ENDBLK
  5
1B8
  8
0
  0
BLOCK
  8
0
  2
SW_CENTERMARKSYMBOL_7
 70
     0
 10
0.0
 20
0.0
 30
0.0
  3
SW_CENTERMARKSYMBOL_7
  1

  0
LINE
  5
1C5
  8
DIM
 62
     0
 10
0.0
 20
0.0
 30
0.0
 11
0.0
 21
5.0
 31
0.0
  0
LINE
  5
1C6
  8
DIM
 62
     0
 10
0.0
 20
0.0
 30
0.0
 11
-5.0
 21
0.0
 31
0.0
  0
LINE
  5
1C7
  8
DIM
 62
     0
 10
0.0
 20
0.0
 30
0.0
 11
0.0
 21
-5.0
 31
0.0
  0
LINE
  5
1C8
  8
DIM
 62
     0
 10
0.0
 20
0.0
 30
0.0
 11
5.0
 21
0.0
 31
0.0
  0
LINE
  5
1C9
  8
DIM
 62
     0
 10
0.0
 20
5.0
 30
0.0
 11
0.0
 21
41.7696076821
 31
0.0
  0
LINE
  5
1CA
  8
DIM
 62
     0
 10
-5.0
 20
0.0
 30
0.0
 11
-10.0
 21
0.0
 31
0.0
  0
LINE
  5
1CB
  8
DIM
 62
     0
 10
0.0
 20
-5.0
 30
0.0
 11
0.0
 21
-10.0
 31
0.0
  0
LINE
  5
1CC
  8
DIM
 62
     0
 10
5.0
 20
0.0
 30
0.0
 11
10.0
 21
0.0
 31
0.0
  0
ENDBLK
  5
1C4
  8
0
  0
BLOCK
  8
0
  2
SW_CENTERMARKSYMBOL_8
 70
     0
 10
0.0
 20
0.0
 30
0.0
  3
SW_CENTERMARKSYMBOL_8
  1

  0
LINE
  5
1D1
  8
DIM
 62
     0
 10
0.0
 20
0.0
 30
0.0
 11
0.0
 21
5.0
 31
0.0
  0
LINE
  5
1D2
  8
DIM
 62
     0
 10
0.0
 20
0.0
 30
0.0
 11
-5.0
 21
0.0
 31
0.0
  0
LINE
  5
1D3
  8
DIM
 62
     0
 10
0.0
 20
0.0
 30
0.0
 11
0.0
 21
-5.0
 31
0.0
  0
LINE
  5
1D4
  8
DIM
 62
     0
 10
0.0
 20
0.0
 30
0.0
 11
5.0
 21
0.0
 31
0.0
  0
LINE
  5
1D5
  8
DIM
 62
     0
 10
0.0
 20
10.0
 30
0.0
 11
0.0
 21
10.5
 31
0.0
  0
LINE
  5
1D6
  8
DIM
 62
     0
 10
-10.0
 20
0.0
 30
0.0
 11
-10.5
 21
0.0
 31
0.0
  0
LINE
  5
1D7
  8
DIM
 62
     0
 10
0.0
 20
-10.0
 30
0.0
 11
0.0
 21
-10.5
 31
0.0
  0
LINE
  5
1D8
  8
DIM
 62
     0
 10
10.0
 20
0.0
 30
0.0
 11
10.5
 21
0.0
 31
0.0
  0
ENDBLK
  5
1D0
  8
0
  0
BLOCK
  8
0
  2
SW_CENTERMARKSYMBOL_9
 70
     0
 10
0.0
 20
0.0
 30
0.0
  3
SW_CENTERMARKSYMBOL_9
  1

  0
LINE
  5
1DD
  8
DIM
 62
     0
 10
0.0
 20
0.0
 30
0.0
 11
0.0
 21
5.0
 31
0.0
  0
LINE
  5
1DE
  8
DIM
 62
     0
 10
0.0
 20
0.0
 30
0.0
 11
-5.0
 21
0.0
 31
0.0
  0
LINE
  5
1DF
  8
DIM
 62
     0
 10
0.0
 20
0.0
 30
0.0
 11
0.0
 21
-5.0
 31
0.0
  0
LINE
  5
1E0
  8
DIM
 62
     0
 10
0.0
 20
0.0
 30
0.0
 11
5.0
 21
0.0
 31
0.0
  0
LINE
  5
1E1
  8
DIM
 62
     0
 10
0.0
 20
10.0
 30
0.0
 11
0.0
 21
10.5
 31
0.0
  0
LINE
  5
1E2
  8
DIM
 62
     0
 10
-10.0
 20
0.0
 30
0.0
 11
-10.5
 21
0.0
 31
0.0
  0
LINE
  5
1E3
  8
DIM
 62
     0
 10
0.0
 20
-10.0
 30
0.0
 11
0.0
 21
-10.5
 31
0.0
  0
LINE
  5
1E4
  8
DIM
 62
     0
 10
10.0
 20
0.0
 30
0.0
 11
10.5
 21
0.0
 31
0.0
  0
ENDBLK
  5
1DC
  8
0
  0
BLOCK
  8
0
  2
SW_CENTERMARKSYMBOL_10
 70
     0
 10
0.0
 20
0.0
 30
0.0
  3
SW_CENTERMARKSYMBOL_10
  1

  0
LINE
  5
1E9
  8
DIM
 62
     0
 10
0.0
 20
0.0
 30
0.0
 11
0.0
 21
5.0
 31
0.0
  0
LINE
  5
1EA
  8
DIM
 62
     0
 10
0.0
 20
0.0
 30
0.0
 11
-5.0
 21
0.0
 31
0.0
  0
LINE
  5
1EB
  8
DIM
 62
     0
 10
0.0
 20
0.0
 30
0.0
 11
0.0
 21
-5.0
 31
0.0
  0
LINE
  5
1EC
  8
DIM
 62
     0
 10
0.0
 20
0.0
 30
0.0
 11
5.0
 21
0.0
 31
0.0
  0
LINE
  5
1ED
  8
DIM
 62
     0
 10
0.0
 20
10.0
 30
0.0
 11
0.0
 21
41.2715259208
 31
0.0
  0
LINE
  5
1EE
  8
DIM
 62
     0
 10
-10.0
 20
0.0
 30
0.0
 11
-10.5
 21
0.0
 31
0.0
  0
LINE
  5
1EF
  8
DIM
 62
     0
 10
0.0
 20
-10.0
 30
0.0
 11
0.0
 21
-10.5
 31
0.0
  0
LINE
  5
1F0
  8
DIM
 62
     0
 10
10.0
 20
0.0
 30
0.0
 11
10.5
 21
0.0
 31
0.0
  0
ENDBLK
  5
1E8
  8
0
  0
BLOCK
  8
0
  2
SW_CENTERMARKSYMBOL_11
 70
     0
 10
0.0
 20
0.0
 30
0.0
  3
SW_CENTERMARKSYMBOL_11
  1

  0
LINE
  5
1F5
  8
DIM
 62
     0
 10
0.0
 20
0.0
 30
0.0
 11
0.0
 21
5.0
 31
0.0
  0
LINE
  5
1F6
  8
DIM
 62
     0
 10
0.0
 20
0.0
 30
0.0
 11
-5.0
 21
0.0
 31
0.0
  0
LINE
  5
1F7
  8
DIM
 62
     0
 10
0.0
 20
0.0
 30
0.0
 11
0.0
 21
-5.0
 31
0.0
  0
LINE
  5
1F8
  8
DIM
 62
     0
 10
0.0
 20
0.0
 30
0.0
 11
5.0
 21
0.0
 31
0.0
  0
LINE
  5
1F9
  8
DIM
 62
     0
 10
0.0
 20
10.0
 30
0.0
 11
0.0
 21
41.5936399012
 31
0.0
  0
LINE
  5
1FA
  8
DIM
 62
     0
 10
-10.0
 20
0.0
 30
0.0
 11
-10.5
 21
0.0
 31
0.0
  0
LINE
  5
1FB
  8
DIM
 62
     0
 10
0.0
 20
-10.0
 30
0.0
 11
0.0
 21
-10.5
 31
0.0
  0
LINE
  5
1FC
  8
DIM
 62
     0
 10
10.0
 20
0.0
 30
0.0
 11
10.5
 21
0.0
 31
0.0
  0
ENDBLK
  5
1F4
  8
0
  0
BLOCK
  8
0
  2
SW_CENTERMARKSYMBOL_12
 70
     0
 10
0.0
 20
0.0
 30
0.0
  3
SW_CENTERMARKSYMBOL_12
  1

  0
LINE
  5
201
  8
DIM
 62
     0
 10
0.0
 20
0.0
 30
0.0
 11
0.0
 21
5.0
 31
0.0
  0
LINE
  5
202
  8
DIM
 62
     0
 10
0.0
 20
0.0
 30
0.0
 11
-5.0
 21
0.0
 31
0.0
  0
LINE
  5
203
  8
DIM
 62
     0
 10
0.0
 20
0.0
 30
0.0
 11
0.0
 21
-5.0
 31
0.0
  0
LINE
  5
204
  8
DIM
 62
     0
 10
0.0
 20
0.0
 30
0.0
 11
5.0
 21
0.0
 31
0.0
  0
LINE
  5
205
  8
DIM
 62
     0
 10
0.0
 20
10.0
 30
0.0
 11
0.0
 21
10.5
 31
0.0
  0
LINE
  5
206
  8
DIM
 62
     0
 10
-10.0
 20
0.0
 30
0.0
 11
-10.5
 21
0.0
 31
0.0
  0
LINE
  5
207
  8
DIM
 62
     0
 10
0.0
 20
-10.0
 30
0.0
 11
0.0
 21
-42.0620707142
 31
0.0
  0
LINE
  5
208
  8
DIM
 62
     0
 10
10.0
 20
0.0
 30
0.0
 11
10.5
 21
0.0
 31
0.0
  0
ENDBLK
  5
200
  8
0
  0
BLOCK
  8
0
  2
SW_CENTERMARKSYMBOL_13
 70
     0
 10
0.0
 20
0.0
 30
0.0
  3
SW_CENTERMARKSYMBOL_13
  1

  0
LINE
  5
20D
  8
DIM
 62
     0
 10
0.0
 20
0.0
 30
0.0
 11
0.0
 21
5.0
 31
0.0
  0
LINE
  5
20E
  8
DIM
 62
     0
 10
0.0
 20
0.0
 30
0.0
 11
-5.0
 21
0.0
 31
0.0
  0
LINE
  5
20F
  8
DIM
 62
     0
 10
0.0
 20
0.0
 30
0.0
 11
0.0
 21
-5.0
 31
0.0
  0
LINE
  5
210
  8
DIM
 62
     0
 10
0.0
 20
0.0
 30
0.0
 11
5.0
 21
0.0
 31
0.0
  0
LINE
  5
211
  8
DIM
 62
     0
 10
0.0
 20
10.0
 30
0.0
 11
0.0
 21
10.5
 31
0.0
  0
LINE
  5
212
  8
DIM
 62
     0
 10
-10.0
 20
0.0
 30
0.0
 11
-10.5
 21
0.0
 31
0.0
  0
LINE
  5
213
  8
DIM
 62
     0
 10
0.0
 20
-10.0
 30
0.0
 11
0.0
 21
-10.5
 31
0.0
  0
LINE
  5
214
  8
DIM
 62
     0
 10
10.0
 20
0.0
 30
0.0
 11
10.5
 21
0.0
 31
0.0
  0
ENDBLK
  5
20C
  8
0
  0
BLOCK
  8
0
  2
SW_CENTERMARKSYMBOL_14
 70
     0
 10
0.0
 20
0.0
 30
0.0
  3
SW_CENTERMARKSYMBOL_14
  1

  0
LINE
  5
219
  8
DIM
 62
     0
 10
0.0
 20
0.0
 30
0.0
 11
0.0
 21
5.0
 31
0.0
  0
LINE
  5
21A
  8
DIM
 62
     0
 10
0.0
 20
0.0
 30
0.0
 11
-5.0
 21
0.0
 31
0.0
  0
LINE
  5
21B
  8
DIM
 62
     0
 10
0.0
 20
0.0
 30
0.0
 11
0.0
 21
-5.0
 31
0.0
  0
LINE
  5
21C
  8
DIM
 62
     0
 10
0.0
 20
0.0
 30
0.0
 11
5.0
 21
0.0
 31
0.0
  0
LINE
  5
21D
  8
DIM
 62
     0
 10
0.0
 20
10.0
 30
0.0
 11
0.0
 21
10.5
 31
0.0
  0
LINE
  5
21E
  8
DIM
 62
     0
 10
-10.0
 20
0.0
 30
0.0
 11
-10.5
 21
0.0
 31
0.0
  0
LINE
  5
21F
  8
DIM
 62
     0
 10
0.0
 20
-10.0
 30
0.0
 11
0.0
 21
-10.5
 31
0.0
  0
LINE
  5
220
  8
DIM
 62
     0
 10
10.0
 20
0.0
 30
0.0
 11
10.5
 21
0.0
 31
0.0
  0
ENDBLK
  5
218
  8
0
  0
BLOCK
  8
0
  2
SW_CENTERMARKSYMBOL_15
 70
     0
 10
0.0
 20
0.0
 30
0.0
  3
SW_CENTERMARKSYMBOL_15
  1

  0
LINE
  5
225
  8
DIM
 62
     0
 10
0.0
 20
0.0
 30
0.0
 11
0.0
 21
5.0
 31
0.0
  0
LINE
  5
226
  8
DIM
 62
     0
 10
0.0
 20
0.0
 30
0.0
 11
-5.0
 21
0.0
 31
0.0
  0
LINE
  5
227
  8
DIM
 62
     0
 10
0.0
 20
0.0
 30
0.0
 11
0.0
 21
-5.0
 31
0.0
  0
LINE
  5
228
  8
DIM
 62
     0
 10
0.0
 20
0.0
 30
0.0
 11
5.0
 21
0.0
 31
0.0
  0
LINE
  5
229
  8
DIM
 62
     0
 10
0.0
 20
10.0
 30
0.0
 11
0.0
 21
10.5
 31
0.0
  0
LINE
  5
22A
  8
DIM
 62
     0
 10
-10.0
 20
0.0
 30
0.0
 11
-10.5
 21
0.0
 31
0.0
  0
LINE
  5
22B
  8
DIM
 62
     0
 10
0.0
 20
-10.0
 30
0.0
 11
0.0
 21
-42.269522
 31
0.0
  0
LINE
  5
22C
  8
DIM
 62
     0
 10
10.0
 20
0.0
 30
0.0
 11
10.5
 21
0.0
 31
0.0
  0
ENDBLK
  5
224
  8
0
  0
BLOCK
  8
0
  2
_D_9
 70
     0
 10
0.0
 20
0.0
 30
0.0
  3
_D_9
  1

  0
INSERT
  5
270
  8
DIM
  2
_OPEN30
 10
597.7134241816
 20
140.4576457968
 30
-1.3580128774
 41
6.0
 42
6.0
 50
270.0
  0
INSERT
  5
271
  8
DIM
  2
_OPEN30
 10
597.7134241816
 20
345.4576457968
 30
-1.3580128774
 41
6.0
 42
6.0
 50
90.0
  0
LINE
  5
272
  8
DIM
 10
557.4926299167
 20
140.4576457968
 30
0.0
 11
599.7134241816
 21
140.4576457968
 31
0.0
  0
LINE
  5
273
  8
DIM
 10
557.4926299167
 20
345.4576457968
 30
0.0
 11
599.7134241816
 21
345.4576457968
 31
0.0
  0
LINE
  5
274
  8
DIM
 10
597.7134241816
 20
140.4576457968
 30
0.0
 11
597.7134241816
 21
345.4576457968
 31
0.0
  0
TEXT
  5
275
  8
DIM
 10
595.2406042138
 20
236.8472290715
 30
-1.3580128774
 40
7.0
  1
205
 50
90.0
 41
0.7
 11
597.7134246473
 21
236.8472290715
 31
-1.3580128774
 73
     1
  0
ENDBLK
  5
26F
  8
0
  0
BLOCK
  8
0
  2
_D_10
 70
     0
 10
0.0
 20
0.0
 30
0.0
  3
_D_10
  1

  0
INSERT
  5
27A
  8
DIM
  2
_OPEN30
 10
388.2043920982
 20
345.4576457968
 30
-1.3580128774
 41
6.0
 42
6.0
 50
90.0
  0
INSERT
  5
27B
  8
DIM
  2
_OPEN30
 10
388.2043920982
 20
220.4576457968
 30
-1.3580128774
 41
6.0
 42
6.0
 50
270.0
  0
LINE
  5
27C
  8
DIM
 10
546.4526299167
 20
345.4576457968
 30
0.0
 11
386.2043920982
 21
345.4576457968
 31
0.0
  0
LINE
  5
27D
  8
DIM
 10
410.9526299167
 20
220.4576457968
 30
0.0
 11
386.2043920982
 21
220.4576457968
 31
0.0
  0
LINE
  5
27E
  8
DIM
 10
388.2043920982
 20
345.4576457968
 30
0.0
 11
388.2043920982
 21
220.4576457968
 31
0.0
  0
TEXT
  5
27F
  8
DIM
 10
385.7315721304
 20
276.8472290715
 30
-1.3580128774
 40
7.0
  1
125
 50
90.0
 41
0.7
 11
388.2043925638
 21
276.8472290715
 31
-1.3580128774
 73
     1
  0
ENDBLK
  5
279
  8
0
  0
BLOCK
  8
0
  2
_D_11
 70
     0
 10
0.0
 20
0.0
 30
0.0
  3
_D_11
  1

  0
INSERT
  5
284
  8
DIM
  2
_OPEN30
 10
388.2043920982
 20
220.4576457968
 30
-1.3580128774
 41
6.0
 42
6.0
 50
270.0
  0
INSERT
  5
285
  8
DIM
  2
_OPEN30
 10
388.2043920982
 20
208.4576457968
 30
-1.3580128774
 41
6.0
 42
6.0
 50
90.0
  0
LINE
  5
286
  8
DIM
 10
410.9526299167
 20
220.4576457968
 30
0.0
 11
386.2043920982
 21
220.4576457968
 31
0.0
  0
LINE
  5
287
  8
DIM
 10
410.9526299167
 20
208.4576457968
 30
0.0
 11
386.2043920982
 21
208.4576457968
 31
0.0
  0
LINE
  5
288
  8
DIM
 10
388.2043920982
 20
220.4576457968
 30
0.0
 11
388.2043920982
 21
233.1576457968
 31
0.0
  0
LINE
  5
289
  8
DIM
 10
388.2043920982
 20
220.4576457968
 30
0.0
 11
388.2043920982
 21
208.4576457968
 31
0.0
  0
LINE
  5
28A
  8
DIM
 10
388.2043920982
 20
208.4576457968
 30
0.0
 11
388.2043920982
 21
195.7576457968
 31
0.0
  0
TEXT
  5
28B
  8
DIM
 10
385.7315721304
 20
210.3840348018
 30
-1.3580128774
 40
7.0
  1
12
 50
90.0
 41
0.7
 11
388.2043925638
 21
210.3840348018
 31
-1.3580128774
 73
     1
  0
ENDBLK
  5
283
  8
0
  0
BLOCK
  8
0
  2
_D_12
 70
     0
 10
0.0
 20
0.0
 30
0.0
  3
_D_12
  1

  0
INSERT
  5
290
  8
DIM
  2
_OPEN30
 10
557.9726299167
 20
133.6712267545
 30
-1.3580128774
 41
6.0
 42
6.0
 50
0.0
  0
INSERT
  5
291
  8
DIM
  2
_OPEN30
 10
465.9726299167
 20
133.6712267545
 30
-1.3580128774
 41
6.0
 42
6.0
 50
180.0
  0
LINE
  5
292
  8
DIM
 10
557.9726299167
 20
140.9376457968
 30
0.0
 11
557.9726299167
 21
131.6712267545
 31
0.0
  0
LINE
  5
293
  8
DIM
 10
465.9726299167
 20
183.4376457968
 30
0.0
 11
465.9726299167
 21
131.6712267545
 31
0.0
  0
LINE
  5
294
  8
DIM
 10
557.9726299167
 20
133.6712267545
 30
0.0
 11
465.9726299167
 21
133.6712267545
 31
0.0
  0
TEXT
  5
295
  8
DIM
 10
507.8990189217
 20
136.1440467223
 30
-1.3580128774
 40
7.0
  1
92
 50
0.0
 41
0.7
 11
507.8990189217
 21
133.6712262889
 31
-1.3580128774
 73
     1
  0
ENDBLK
  5
28F
  8
0
  0
BLOCK
  8
0
  2
_D_13
 70
     0
 10
0.0
 20
0.0
 30
0.0
  3
_D_13
  1

  0
INSERT
  5
29A
  8
DIM
  2
_OPEN30
 10
388.2043920982
 20
183.4576457968
 30
-1.3580128774
 41
6.0
 42
6.0
 50
270.0
  0
INSERT
  5
29B
  8
DIM
  2
_OPEN30
 10
388.2043920982
 20
208.4576457968
 30
-1.3580128774
 41
6.0
 42
6.0
 50
90.0
  0
LINE
  5
29C
  8
DIM
 10
465.9526299167
 20
183.4576457968
 30
0.0
 11
386.2043920982
 21
183.4576457968
 31
0.0
  0
LINE
  5
29D
  8
DIM
 10
410.9526299167
 20
208.4576457968
 30
0.0
 11
386.2043920982
 21
208.4576457968
 31
0.0
  0
LINE
  5
29E
  8
DIM
 10
388.2043920982
 20
183.4576457968
 30
0.0
 11
388.2043920982
 21
208.4576457968
 31
0.0
  0
TEXT
  5
29F
  8
DIM
 10
385.7315721304
 20
191.8840348018
 30
-1.3580128774
 40
7.0
  1
25
 50
90.0
 41
0.7
 11
388.2043925638
 21
191.8840348018
 31
-1.3580128774
 73
     1
  0
ENDBLK
  5
299
  8
0
  0
BLOCK
  8
0
  2
_D_14
 70
     0
 10
0.0
 20
0.0
 30
0.0
  3
_D_14
  1

  0
INSERT
  5
301
  8
DIM
  2
_OPEN30
 10
175.8246324543
 20
552.4416326814
 30
-3.1649080437
 41
6.0
 42
6.0
 50
180.0
  0
INSERT
  5
302
  8
DIM
  2
_OPEN30
 10
305.8246324543
 20
552.4416326814
 30
-3.1649080437
 41
6.0
 42
6.0
 50
0.0
  0
LINE
  5
303
  8
DIM
 10
175.8246324543
 20
518.7068528765
 30
0.0
 11
175.8246324543
 21
554.4416326814
 31
0.0
  0
LINE
  5
304
  8
DIM
 10
305.8246324543
 20
518.7068528765
 30
0.0
 11
305.8246324543
 21
554.4416326814
 31
0.0
  0
LINE
  5
305
  8
DIM
 10
175.8246324543
 20
552.4416326814
 30
0.0
 11
305.8246324543
 21
552.4416326814
 31
0.0
  0
TEXT
  5
306
  8
DIM
 10
234.714215729
 20
554.9144526491
 30
-3.1649080437
 40
7.0
  1
130
 41
0.7
 11
234.714215729
 21
552.4416322157
 31
-3.1649080437
 73
     1
  0
ENDBLK
  5
300
  8
0
  0
BLOCK
  8
0
  2
_D_15
 70
     0
 10
0.0
 20
0.0
 30
0.0
  3
_D_15
  1

  0
INSERT
  5
30B
  8
DIM
  2
_OPEN30
 10
352.1519176914
 20
519.1868528765
 30
-3.1649080437
 41
6.0
 42
6.0
 50
90.0
  0
INSERT
  5
30C
  8
DIM
  2
_OPEN30
 10
352.1519176914
 20
362.1868528765
 30
-3.1649080437
 41
6.0
 42
6.0
 50
270.0
  0
LINE
  5
30D
  8
DIM
 10
305.3446324543
 20
519.1868528765
 30
0.0
 11
354.1519176914
 21
519.1868528765
 31
0.0
  0
LINE
  5
30E
  8
DIM
 10
295.8446324542
 20
362.1868528765
 30
0.0
 11
354.1519176914
 21
362.1868528765
 31
0.0
  0
LINE
  5
30F
  8
DIM
 10
352.1519176914
 20
519.1868528765
 30
0.0
 11
352.1519176914
 21
362.1868528765
 31
0.0
  0
TEXT
  5
310
  8
DIM
 10
349.6790977237
 20
434.5764361512
 30
-3.1649080437
 40
7.0
  1
157
 50
90.0
 41
0.7
 11
352.1519181571
 21
434.5764361512
 31
-3.1649080437
 73
     1
  0
ENDBLK
  5
30A
  8
0
  0
BLOCK
  8
0
  2
_D_16
 70
     0
 10
0.0
 20
0.0
 30
0.0
  3
_D_16
  1

  0
INSERT
  5
315
  8
DIM
  2
_OPEN30
 10
185.8246324543
 20
541.0268235561
 30
-3.1649080437
 41
6.0
 42
6.0
 50
180.0
  0
INSERT
  5
316
  8
DIM
  2
_OPEN30
 10
295.8246324543
 20
541.0268235561
 30
-3.1649080437
 41
6.0
 42
6.0
 50
0.0
  0
LINE
  5
317
  8
DIM
 10
185.8246324543
 20
491.1068528765
 30
0.0
 11
185.8246324543
 21
543.0268235561
 31
0.0
  0
LINE
  5
318
  8
DIM
 10
295.8246324543
 20
491.1068528765
 30
0.0
 11
295.8246324543
 21
543.0268235561
 31
0.0
  0
LINE
  5
319
  8
DIM
 10
185.8246324543
 20
541.0268235561
 30
0.0
 11
295.8246324543
 21
541.0268235561
 31
0.0
  0
TEXT
  5
31A
  8
DIM
 10
234.714215729
 20
543.4996435239
 30
-3.1649080437
 40
7.0
  1
110
 41
0.7
 11
234.714215729
 21
541.0268230904
 31
-3.1649080437
 73
     1
  0
ENDBLK
  5
314
  8
0
  0
BLOCK
  8
0
  2
_D_17
 70
     0
 10
0.0
 20
0.0
 30
0.0
  3
_D_17
  1

  0
INSERT
  5
31F
  8
DIM
  2
_OPEN30
 10
337.1093647977
 20
482.1868528765
 30
-3.1649080437
 41
6.0
 42
6.0
 50
90.0
  0
INSERT
  5
320
  8
DIM
  2
_OPEN30
 10
337.1093647977
 20
372.1868528765
 30
-3.1649080437
 41
6.0
 42
6.0
 50
270.0
  0
LINE
  5
321
  8
DIM
 10
304.7446324543
 20
482.1868528765
 30
0.0
 11
339.1093647977
 21
482.1868528765
 31
0.0
  0
LINE
  5
322
  8
DIM
 10
304.7446324542
 20
372.1868528765
 30
0.0
 11
339.1093647977
 21
372.1868528765
 31
0.0
  0
LINE
  5
323
  8
DIM
 10
337.1093647977
 20
482.1868528765
 30
0.0
 11
337.1093647977
 21
372.1868528765
 31
0.0
  0
TEXT
  5
324
  8
DIM
 10
334.6365448299
 20
421.0764361512
 30
-3.1649080437
 40
7.0
  1
110
 50
90.0
 41
0.7
 11
337.1093652633
 21
421.0764361512
 31
-3.1649080437
 73
     1
  0
ENDBLK
  5
31E
  8
0
  0
BLOCK
  8
0
  2
_NONE
 70
     0
 10
0.0
 20
0.0
 30
0.0
  3
_NONE
  1

  0
ENDBLK
  5
329
  8
0
  0
BLOCK
  8
0
  2
_D_18
 70
     0
 10
0.0
 20
0.0
 30
0.0
  3
_D_18
  1

  0
ARC
  5
32D
  8
DIM
 10
139.9557412582
 20
411.8901507136
 30
0.0
 40
12.75242037108494
 50
153.4349488229
 51
206.5650511771
  0
ARC
  5
32E
  8
DIM
 10
134.2526850271
 20
411.8901507136
 30
0.0
 40
12.75242037108494
 50
333.4349488229
 51
26.5650511771
  0
INSERT
  5
32F
  8
DIM
  2
_OPEN30
 10
198.7880864879
 20
388.6368461616
 30
-3.1649080437
 41
6.0
 42
6.0
 50
324.5496462757
  0
LINE
  5
330
  8
DIM
 10
198.7880864879
 20
388.6368461616
 30
0.0
 11
174.6217832566
 21
405.842928416
 31
0.0
  0
LINE
  5
331
  8
DIM
 10
202.8611784206
 20
385.7368595913
 30
0.0
 11
198.7880864879
 21
388.6368461616
 31
0.0
  0
LINE
  5
332
  8
DIM
 10
174.6217832566
 20
405.842928416
 30
0.0
 11
90.9481847406
 21
405.842928416
 31
0.0
  0
TEXT
  5
333
  8
DIM
 10
90.9481847406
 20
408.3157493151
 30
-3.1649080437
 40
7.0
  1
4x
 41
0.7
 11
90.9481847406
 21
405.8429288816
 31
-3.1649080437
 73
     1
  0
TEXT
  5
334
  8
DIM
 10
99.0954067306
 20
408.3157493151
 30
-3.1649080437
 40
7.0
  1
%%c
 41
0.7
 11
99.0954067306
 21
405.8429288816
 31
-3.1649080437
 73
     1
  0
TEXT
  5
335
  8
DIM
 10
106.8352682263
 20
408.3157493151
 30
-3.1649080437
 40
7.0
  1
5
 41
0.7
 11
106.8352682263
 21
405.8429288816
 31
-3.1649080437
 73
     1
  0
TEXT
  5
336
  8
DIM
 10
110.9088787557
 20
408.3157493151
 30
-3.1649080437
 40
7.0
  1
 H8 
 41
0.525
 11
110.9088787557
 21
405.8429288816
 31
-3.1649080437
 73
     1
  0
TEXT
  5
337
  8
DIM
 10
128.5496297273
 20
413.6211251916
 30
-3.1649080437
 40
4.9
  1
+
 41
0.7
 11
128.5496297273
 21
411.8901508882
 31
-3.1649080437
 73
     1
  0
TEXT
  5
338
  8
DIM
 10
128.5496297273
 20
407.9180694262
 30
-3.1649080437
 40
4.9
  1
 
 41
0.7
 11
128.5496297273
 21
406.1870951228
 31
-3.1649080437
 73
     1
  0
TEXT
  5
339
  8
DIM
 10
131.40115761
 20
413.6211251916
 30
-3.1649080437
 40
4.9
  1
0.018
 41
0.7
 11
131.40115761
 21
411.8901508882
 31
-3.1649080437
 73
     1
  0
TEXT
  5
33A
  8
DIM
 10
131.40115761
 20
407.9180694262
 30
-3.1649080437
 40
4.9
  1
0
 41
0.7
 11
131.40115761
 21
406.1870951228
 31
-3.1649080437
 73
     1
  0
TEXT
  5
33B
  8
DIM
 10
147.0051089049
 20
408.3157493151
 30
-3.1649080437
 40
7.0
  1
 深さ4
 41
0.7
 11
147.0051089049
 21
405.8429288816
 31
-3.1649080437
 73
     1
  0
ENDBLK
  5
32C
  8
0
  0
BLOCK
  8
0
  2
_D_19
 70
     0
 10
0.0
 20
0.0
 30
0.0
  3
_D_19
  1

  0
INSERT
  5
340
  8
DIM
  2
_OPEN30
 10
323.8719182511
 20
467.1868528765
 30
-3.1649080437
 41
6.0
 42
6.0
 50
90.0
  0
INSERT
  5
341
  8
DIM
  2
_OPEN30
 10
323.8719182511
 20
387.1868528765
 30
-3.1649080437
 41
6.0
 42
6.0
 50
270.0
  0
LINE
  5
342
  8
DIM
 10
288.8446324543
 20
467.1868528765
 30
0.0
 11
325.8719182511
 21
467.1868528765
 31
0.0
  0
LINE
  5
343
  8
DIM
 10
288.8446324542
 20
387.1868528765
 30
0.0
 11
325.8719182511
 21
387.1868528765
 31
0.0
  0
LINE
  5
344
  8
DIM
 10
323.8719182511
 20
467.1868528765
 30
0.0
 11
323.8719182511
 21
387.1868528765
 31
0.0
  0
TEXT
  5
345
  8
DIM
 10
321.3990982834
 20
423.1132418815
 30
-3.1649080437
 40
7.0
  1
80
 50
90.0
 41
0.7
 11
323.8719187168
 21
423.1132418815
 31
-3.1649080437
 73
     1
  0
ENDBLK
  5
33F
  8
0
  0
BLOCK
  8
0
  2
_D_20
 70
     0
 10
0.0
 20
0.0
 30
0.0
  3
_D_20
  1

  0
INSERT
  5
34A
  8
DIM
  2
_OPEN30
 10
200.8246324543
 20
529.8403106133
 30
-3.1649080437
 41
6.0
 42
6.0
 50
180.0
  0
INSERT
  5
34B
  8
DIM
  2
_OPEN30
 10
280.8246324543
 20
529.8403106133
 30
-3.1649080437
 41
6.0
 42
6.0
 50
0.0
  0
LINE
  5
34C
  8
DIM
 10
200.8246324543
 20
475.2068528765
 30
0.0
 11
200.8246324543
 21
531.8403106133
 31
0.0
  0
LINE
  5
34D
  8
DIM
 10
280.8246324543
 20
475.2068528765
 30
0.0
 11
280.8246324543
 21
531.8403106133
 31
0.0
  0
LINE
  5
34E
  8
DIM
 10
200.8246324543
 20
529.8403106133
 30
0.0
 11
280.8246324543
 21
529.8403106133
 31
0.0
  0
TEXT
  5
34F
  8
DIM
 10
236.7510214593
 20
532.3131305811
 30
-3.1649080437
 40
7.0
  1
80
 41
0.7
 11
236.7510214593
 21
529.8403101477
 31
-3.1649080437
 73
     1
  0
ENDBLK
  5
349
  8
0
  0
BLOCK
  8
0
  2
SW_NOTE_0_1
 70
     0
 10
0.0
 20
0.0
 30
0.0
  3
SW_NOTE_0_1
  1

  0
LINE
  5
353
  8
TXT
 62
     0
 10
-36.8905223739
 20
-13.0111783544
 30
0.0
 11
-20.3435531415
 21
-13.0111783544
 31
0.0
  0
TEXT
  5
354
  8
TXT
 62
     0
 10
-37.761145933
 20
-10.4267790215
 30
0.0
 40
7.0
  1
4xM8
 41
0.7
 11
-37.761145933
 21
-12.8995994549
 31
0.0
 73
     1
  0
LINE
  5
355
  8
TXT
 62
     0
 10
-20.3435531415
 20
-13.0111783544
 30
0.0
 11
0.0
 21
0.0
 31
0.0
  0
INSERT
  5
356
  8
TXT
 62
     0
  2
_OPEN30
 10
0.0
 20
0.0
 30
-25.6649080437
 41
6.0
 42
6.0
 50
32.6018656002
  0
ENDBLK
  5
352
  8
0
  0
BLOCK
  8
0
  2
SW_CENTERMARKSYMBOL_16
 70
     0
 10
0.0
 20
0.0
 30
0.0
  3
SW_CENTERMARKSYMBOL_16
  1

  0
LINE
  5
35B
  8
DIM
 62
     0
 10
0.0
 20
0.0
 30
0.0
 11
0.0
 21
5.0
 31
0.0
  0
LINE
  5
35C
  8
DIM
 62
     0
 10
0.0
 20
0.0
 30
0.0
 11
-5.0
 21
0.0
 31
0.0
  0
LINE
  5
35D
  8
DIM
 62
     0
 10
0.0
 20
0.0
 30
0.0
 11
0.0
 21
-5.0
 31
0.0
  0
LINE
  5
35E
  8
DIM
 62
     0
 10
0.0
 20
0.0
 30
0.0
 11
5.0
 21
0.0
 31
0.0
  0
LINE
  5
35F
  8
DIM
 62
     0
 10
0.0
 20
10.0
 30
0.0
 11
0.0
 21
98.4855291641
 31
0.0
  0
LINE
  5
360
  8
DIM
 62
     0
 10
-10.0
 20
0.0
 30
0.0
 11
-70.8790856939
 21
0.0
 31
0.0
  0
LINE
  5
361
  8
DIM
 62
     0
 10
0.0
 20
-10.0
 30
0.0
 11
0.0
 21
-72.4949405255
 31
0.0
  0
LINE
  5
362
  8
DIM
 62
     0
 10
10.0
 20
0.0
 30
0.0
 11
70.1410600018
 21
0.0
 31
0.0
  0
ENDBLK
  5
35A
  8
0
  0
BLOCK
  8
0
  2
SW_CENTERMARKSYMBOL_17
 70
     0
 10
0.0
 20
0.0
 30
0.0
  3
SW_CENTERMARKSYMBOL_17
  1

  0
LINE
  5
367
  8
DIM
 62
     0
 10
0.0
 20
0.0
 30
0.0
 11
0.0
 21
5.0
 31
0.0
  0
LINE
  5
368
  8
DIM
 62
     0
 10
0.0
 20
0.0
 30
0.0
 11
-5.0
 21
0.0
 31
0.0
  0
LINE
  5
369
  8
DIM
 62
     0
 10
0.0
 20
0.0
 30
0.0
 11
0.0
 21
-5.0
 31
0.0
  0
LINE
  5
36A
  8
DIM
 62
     0
 10
0.0
 20
0.0
 30
0.0
 11
5.0
 21
0.0
 31
0.0
  0
LINE
  5
36B
  8
DIM
 62
     0
 10
0.0
 20
5.0
 30
0.0
 11
0.0
 21
8.9
 31
0.0
  0
LINE
  5
36C
  8
DIM
 62
     0
 10
-5.0
 20
0.0
 30
0.0
 11
-8.9
 21
0.0
 31
0.0
  0
LINE
  5
36D
  8
DIM
 62
     0
 10
0.0
 20
-5.0
 30
0.0
 11
0.0
 21
-8.9
 31
0.0
  0
LINE
  5
36E
  8
DIM
 62
     0
 10
5.0
 20
0.0
 30
0.0
 11
8.9
 21
0.0
 31
0.0
  0
ENDBLK
  5
366
  8
0
  0
BLOCK
  8
0
  2
SW_CENTERMARKSYMBOL_18
 70
     0
 10
0.0
 20
0.0
 30
0.0
  3
SW_CENTERMARKSYMBOL_18
  1

  0
LINE
  5
373
  8
DIM
 62
     0
 10
0.0
 20
0.0
 30
0.0
 11
0.0
 21
5.0
 31
0.0
  0
LINE
  5
374
  8
DIM
 62
     0
 10
0.0
 20
0.0
 30
0.0
 11
-5.0
 21
0.0
 31
0.0
  0
LINE
  5
375
  8
DIM
 62
     0
 10
0.0
 20
0.0
 30
0.0
 11
0.0
 21
-5.0
 31
0.0
  0
LINE
  5
376
  8
DIM
 62
     0
 10
0.0
 20
0.0
 30
0.0
 11
5.0
 21
0.0
 31
0.0
  0
LINE
  5
377
  8
DIM
 62
     0
 10
0.0
 20
5.0
 30
0.0
 11
0.0
 21
8.9
 31
0.0
  0
LINE
  5
378
  8
DIM
 62
     0
 10
-5.0
 20
0.0
 30
0.0
 11
-8.9
 21
0.0
 31
0.0
  0
LINE
  5
379
  8
DIM
 62
     0
 10
0.0
 20
-5.0
 30
0.0
 11
0.0
 21
-8.9
 31
0.0
  0
LINE
  5
37A
  8
DIM
 62
     0
 10
5.0
 20
0.0
 30
0.0
 11
8.9
 21
0.0
 31
0.0
  0
ENDBLK
  5
372
  8
0
  0
BLOCK
  8
0
  2
SW_CENTERMARKSYMBOL_19
 70
     0
 10
0.0
 20
0.0
 30
0.0
  3
SW_CENTERMARKSYMBOL_19
  1

  0
LINE
  5
37F
  8
DIM
 62
     0
 10
0.0
 20
0.0
 30
0.0
 11
0.0
 21
5.0
 31
0.0
  0
LINE
  5
380
  8
DIM
 62
     0
 10
0.0
 20
0.0
 30
0.0
 11
-5.0
 21
0.0
 31
0.0
  0
LINE
  5
381
  8
DIM
 62
     0
 10
0.0
 20
0.0
 30
0.0
 11
0.0
 21
-5.0
 31
0.0
  0
LINE
  5
382
  8
DIM
 62
     0
 10
0.0
 20
0.0
 30
0.0
 11
5.0
 21
0.0
 31
0.0
  0
LINE
  5
383
  8
DIM
 62
     0
 10
0.0
 20
5.0
 30
0.0
 11
0.0
 21
8.0
 31
0.0
  0
LINE
  5
384
  8
DIM
 62
     0
 10
-5.0
 20
0.0
 30
0.0
 11
-8.0
 21
0.0
 31
0.0
  0
LINE
  5
385
  8
DIM
 62
     0
 10
0.0
 20
-5.0
 30
0.0
 11
0.0
 21
-8.0
 31
0.0
  0
LINE
  5
386
  8
DIM
 62
     0
 10
5.0
 20
0.0
 30
0.0
 11
8.0
 21
0.0
 31
0.0
  0
ENDBLK
  5
37E
  8
0
  0
BLOCK
  8
0
  2
SW_CENTERMARKSYMBOL_20
 70
     0
 10
0.0
 20
0.0
 30
0.0
  3
SW_CENTERMARKSYMBOL_20
  1

  0
LINE
  5
38B
  8
DIM
 62
     0
 10
0.0
 20
0.0
 30
0.0
 11
0.0
 21
5.0
 31
0.0
  0
LINE
  5
38C
  8
DIM
 62
     0
 10
0.0
 20
0.0
 30
0.0
 11
-5.0
 21
0.0
 31
0.0
  0
LINE
  5
38D
  8
DIM
 62
     0
 10
0.0
 20
0.0
 30
0.0
 11
0.0
 21
-5.0
 31
0.0
  0
LINE
  5
38E
  8
DIM
 62
     0
 10
0.0
 20
0.0
 30
0.0
 11
5.0
 21
0.0
 31
0.0
  0
LINE
  5
38F
  8
DIM
 62
     0
 10
0.0
 20
5.0
 30
0.0
 11
0.0
 21
8.0
 31
0.0
  0
LINE
  5
390
  8
DIM
 62
     0
 10
-5.0
 20
0.0
 30
0.0
 11
-8.0
 21
0.0
 31
0.0
  0
LINE
  5
391
  8
DIM
 62
     0
 10
0.0
 20
-5.0
 30
0.0
 11
0.0
 21
-8.0
 31
0.0
  0
LINE
  5
392
  8
DIM
 62
     0
 10
5.0
 20
0.0
 30
0.0
 11
8.0
 21
0.0
 31
0.0
  0
ENDBLK
  5
38A
  8
0
  0
BLOCK
  8
0
  2
SW_CENTERMARKSYMBOL_21
 70
     0
 10
0.0
 20
0.0
 30
0.0
  3
SW_CENTERMARKSYMBOL_21
  1

  0
LINE
  5
397
  8
DIM
 62
     0
 10
0.0
 20
0.0
 30
0.0
 11
0.0
 21
5.0
 31
0.0
  0
LINE
  5
398
  8
DIM
 62
     0
 10
0.0
 20
0.0
 30
0.0
 11
-5.0
 21
0.0
 31
0.0
  0
LINE
  5
399
  8
DIM
 62
     0
 10
0.0
 20
0.0
 30
0.0
 11
0.0
 21
-5.0
 31
0.0
  0
LINE
  5
39A
  8
DIM
 62
     0
 10
0.0
 20
0.0
 30
0.0
 11
5.0
 21
0.0
 31
0.0
  0
LINE
  5
39B
  8
DIM
 62
     0
 10
0.0
 20
5.0
 30
0.0
 11
0.0
 21
8.0
 31
0.0
  0
LINE
  5
39C
  8
DIM
 62
     0
 10
-5.0
 20
0.0
 30
0.0
 11
-8.0
 21
0.0
 31
0.0
  0
LINE
  5
39D
  8
DIM
 62
     0
 10
0.0
 20
-5.0
 30
0.0
 11
0.0
 21
-8.0
 31
0.0
  0
LINE
  5
39E
  8
DIM
 62
     0
 10
5.0
 20
0.0
 30
0.0
 11
8.0
 21
0.0
 31
0.0
  0
ENDBLK
  5
396
  8
0
  0
BLOCK
  8
0
  2
SW_CENTERMARKSYMBOL_22
 70
     0
 10
0.0
 20
0.0
 30
0.0
  3
SW_CENTERMARKSYMBOL_22
  1

  0
LINE
  5
3A3
  8
DIM
 62
     0
 10
0.0
 20
0.0
 30
0.0
 11
0.0
 21
5.0
 31
0.0
  0
LINE
  5
3A4
  8
DIM
 62
     0
 10
0.0
 20
0.0
 30
0.0
 11
-5.0
 21
0.0
 31
0.0
  0
LINE
  5
3A5
  8
DIM
 62
     0
 10
0.0
 20
0.0
 30
0.0
 11
0.0
 21
-5.0
 31
0.0
  0
LINE
  5
3A6
  8
DIM
 62
     0
 10
0.0
 20
0.0
 30
0.0
 11
5.0
 21
0.0
 31
0.0
  0
LINE
  5
3A7
  8
DIM
 62
     0
 10
0.0
 20
5.0
 30
0.0
 11
0.0
 21
8.0
 31
0.0
  0
LINE
  5
3A8
  8
DIM
 62
     0
 10
-5.0
 20
0.0
 30
0.0
 11
-8.0
 21
0.0
 31
0.0
  0
LINE
  5
3A9
  8
DIM
 62
     0
 10
0.0
 20
-5.0
 30
0.0
 11
0.0
 21
-8.0
 31
0.0
  0
LINE
  5
3AA
  8
DIM
 62
     0
 10
5.0
 20
0.0
 30
0.0
 11
8.0
 21
0.0
 31
0.0
  0
ENDBLK
  5
3A2
  8
0
  0
BLOCK
  8
0
  2
SW_CENTERMARKSYMBOL_23
 70
     0
 10
0.0
 20
0.0
 30
0.0
  3
SW_CENTERMARKSYMBOL_23
  1

  0
LINE
  5
3AF
  8
DIM
 62
     0
 10
0.0
 20
0.0
 30
0.0
 11
0.0
 21
5.0
 31
0.0
  0
LINE
  5
3B0
  8
DIM
 62
     0
 10
0.0
 20
0.0
 30
0.0
 11
-5.0
 21
0.0
 31
0.0
  0
LINE
  5
3B1
  8
DIM
 62
     0
 10
0.0
 20
0.0
 30
0.0
 11
0.0
 21
-5.0
 31
0.0
  0
LINE
  5
3B2
  8
DIM
 62
     0
 10
0.0
 20
0.0
 30
0.0
 11
5.0
 21
0.0
 31
0.0
  0
LINE
  5
3B3
  8
DIM
 62
     0
 10
0.0
 20
5.0
 30
0.0
 11
0.0
 21
8.9
 31
0.0
  0
LINE
  5
3B4
  8
DIM
 62
     0
 10
-5.0
 20
0.0
 30
0.0
 11
-8.9
 21
0.0
 31
0.0
  0
LINE
  5
3B5
  8
DIM
 62
     0
 10
0.0
 20
-5.0
 30
0.0
 11
0.0
 21
-8.9
 31
0.0
  0
LINE
  5
3B6
  8
DIM
 62
     0
 10
5.0
 20
0.0
 30
0.0
 11
8.9
 21
0.0
 31
0.0
  0
ENDBLK
  5
3AE
  8
0
  0
BLOCK
  8
0
  2
SW_CENTERMARKSYMBOL_24
 70
     0
 10
0.0
 20
0.0
 30
0.0
  3
SW_CENTERMARKSYMBOL_24
  1

  0
LINE
  5
3BB
  8
DIM
 62
     0
 10
0.0
 20
0.0
 30
0.0
 11
0.0
 21
5.0
 31
0.0
  0
LINE
  5
3BC
  8
DIM
 62
     0
 10
0.0
 20
0.0
 30
0.0
 11
-5.0
 21
0.0
 31
0.0
  0
LINE
  5
3BD
  8
DIM
 62
     0
 10
0.0
 20
0.0
 30
0.0
 11
0.0
 21
-5.0
 31
0.0
  0
LINE
  5
3BE
  8
DIM
 62
     0
 10
0.0
 20
0.0
 30
0.0
 11
5.0
 21
0.0
 31
0.0
  0
LINE
  5
3BF
  8
DIM
 62
     0
 10
0.0
 20
5.0
 30
0.0
 11
0.0
 21
8.9
 31
0.0
  0
LINE
  5
3C0
  8
DIM
 62
     0
 10
-5.0
 20
0.0
 30
0.0
 11
-8.9
 21
0.0
 31
0.0
  0
LINE
  5
3C1
  8
DIM
 62
     0
 10
0.0
 20
-5.0
 30
0.0
 11
0.0
 21
-8.9
 31
0.0
  0
LINE
  5
3C2
  8
DIM
 62
     0
 10
5.0
 20
0.0
 30
0.0
 11
8.9
 21
0.0
 31
0.0
  0
ENDBLK
  5
3BA
  8
0
  0
BLOCK
  8
0
  2
_D_21
 70
     0
 10
0.0
 20
0.0
 30
0.0
  3
_D_21
  1

  0
INSERT
  5
44A
  8
DIM
  2
_OPEN30
 10
703.7654471699
 20
130.4831740128
 30
0.0
 41
6.0
 42
6.0
 50
0.0
  0
INSERT
  5
44B
  8
DIM
  2
_OPEN30
 10
663.7654471699
 20
130.4831740128
 30
0.0
 41
6.0
 42
6.0
 50
180.0
  0
LINE
  5
44C
  8
DIM
 10
703.7654471699
 20
133.4376457968
 30
0.0
 11
703.7654471699
 21
128.4831740128
 31
0.0
  0
LINE
  5
44D
  8
DIM
 10
663.7654471699
 20
233.0879901056
 30
0.0
 11
663.7654471699
 21
128.4831740128
 31
0.0
  0
LINE
  5
44E
  8
DIM
 10
703.7654471699
 20
130.4831740128
 30
0.0
 11
663.7654471699
 21
130.4831740128
 31
0.0
  0
TEXT
  5
44F
  8
DIM
 10
679.6918361749
 20
132.9559939805
 30
0.0
 40
7.0
  1
40
 50
0.0
 41
0.7
 11
679.6918361749
 21
130.4831735471
 31
0.0
 73
     1
  0
ENDBLK
  5
449
  8
0
  0
BLOCK
  8
0
  2
_D_22
 70
     0
 10
0.0
 20
0.0
 30
0.0
  3
_D_22
  1

  0
ARC
  5
455
  8
DIM
 10
618.7142483041
 20
193.8341032035
 30
0.0
 40
12.75242037108494
 50
243.4349488229
 51
296.5650511771
  0
ARC
  5
456
  8
DIM
 10
618.7142483041
 20
188.1310469724
 30
0.0
 40
12.75242037108494
 50
63.4349488229
 51
116.5650511771
  0
INSERT
  5
457
  8
DIM
  2
_OPEN30
 10
624.7614696704
 20
235.4576457968
 30
83.4600314154
 41
6.0
 42
6.0
 50
90.0
  0
INSERT
  5
458
  8
DIM
  2
_OPEN30
 10
624.7614696704
 20
240.4576457968
 30
83.4600314154
 41
6.0
 42
6.0
 50
270.0
  0
LINE
  5
459
  8
DIM
 10
663.2454471699
 20
235.4576457968
 30
0.0
 11
622.7614696704
 21
235.4576457968
 31
0.0
  0
LINE
  5
45A
  8
DIM
 10
663.2454471699
 20
240.4576457968
 30
0.0
 11
622.7614696704
 21
240.4576457968
 31
0.0
  0
LINE
  5
45B
  8
DIM
 10
624.7614696704
 20
235.4576457968
 30
0.0
 11
624.7614696704
 21
160.713628309
 31
0.0
  0
LINE
  5
45C
  8
DIM
 10
624.7614696704
 20
235.4576457968
 30
0.0
 11
624.7614696704
 21
240.4576457968
 31
0.0
  0
LINE
  5
45D
  8
DIM
 10
624.7614696704
 20
240.4576457968
 30
0.0
 11
624.7614696704
 21
253.1576457968
 31
0.0
  0
TEXT
  5
45E
  8
DIM
 10
622.2886497026
 20
160.713628309
 30
83.4600314154
 40
7.0
  1
5
 50
90.0
 41
0.7
 11
624.7614701361
 21
160.713628309
 31
83.4600314154
 73
     1
  0
TEXT
  5
45F
  8
DIM
 10
622.2886497026
 20
164.787239304
 30
83.4600314154
 40
7.0
  1
 H8 
 50
90.0
 41
0.525
 11
624.7614701361
 21
164.787239304
 31
83.4600314154
 73
     1
  0
TEXT
  5
460
  8
DIM
 10
616.9832738261
 20
182.4279916726
 30
83.4600314154
 40
4.9
  1
+
 50
90.0
 41
0.7
 11
618.7142481295
 21
182.4279916726
 31
83.4600314154
 73
     1
  0
TEXT
  5
461
  8
DIM
 10
622.6863295915
 20
182.4279916726
 30
83.4600314154
 40
4.9
  1
 
 50
90.0
 41
0.7
 11
624.417303895
 21
182.4279916726
 31
83.4600314154
 73
     1
  0
TEXT
  5
462
  8
DIM
 10
616.9832738261
 20
185.2795195553
 30
83.4600314154
 40
4.9
  1
0.018
 50
90.0
 41
0.7
 11
618.7142481295
 21
185.2795195553
 31
83.4600314154
 73
     1
  0
TEXT
  5
463
  8
DIM
 10
622.6863295915
 20
185.2795195553
 30
83.4600314154
 40
4.9
  1
0
 50
90.0
 41
0.7
 11
624.417303895
 21
185.2795195553
 31
83.4600314154
 73
     1
  0
TEXT
  5
464
  8
DIM
 10
622.2886497026
 20
200.8834671249
 30
83.4600314154
 40
7.0
  1
 深さ5
 50
90.0
 41
0.7
 11
624.7614701361
 21
200.8834671249
 31
83.4600314154
 73
     1
  0
ENDBLK
  5
454
  8
0
  0
BLOCK
  8
0
  2
_D_23
 70
     0
 10
0.0
 20
0.0
 30
0.0
  3
_D_23
  1

  0
INSERT
  5
469
  8
DIM
  2
_OPEN30
 10
703.7654471699
 20
130.4831740128
 30
83.4600314154
 41
6.0
 42
6.0
 50
180.0
  0
INSERT
  5
46A
  8
DIM
  2
_OPEN30
 10
743.7654471699
 20
130.4831740128
 30
83.4600314154
 41
6.0
 42
6.0
 50
0.0
  0
LINE
  5
46B
  8
DIM
 10
703.7654471699
 20
133.4376457968
 30
0.0
 11
703.7654471699
 21
128.4831740128
 31
0.0
  0
LINE
  5
46C
  8
DIM
 10
743.7654471699
 20
229.9376457968
 30
0.0
 11
743.7654471699
 21
128.4831740128
 31
0.0
  0
LINE
  5
46D
  8
DIM
 10
703.7654471699
 20
130.4831740128
 30
0.0
 11
743.7654471699
 21
130.4831740128
 31
0.0
  0
TEXT
  5
46E
  8
DIM
 10
719.6918361749
 20
132.9559939805
 30
83.4600314154
 40
7.0
  1
40
 41
0.7
 11
719.6918361749
 21
130.4831735471
 31
83.4600314154
 73
     1
  0
ENDBLK
  5
468
  8
0
  0
BLOCK
  8
0
  2
_D_24
 70
     0
 10
0.0
 20
0.0
 30
0.0
  3
_D_24
  1

  0
ARC
  5
473
  8
DIM
 10
676.3877537308
 20
366.0864545139
 30
0.0
 40
12.75242037108494
 50
153.4349488229
 51
206.5650511771
  0
ARC
  5
474
  8
DIM
 10
670.6846974997
 20
366.0864545139
 30
0.0
 40
12.75242037108494
 50
333.4349488229
 51
26.5650511771
  0
INSERT
  5
475
  8
DIM
  2
_OPEN30
 10
743.1183995548
 20
240.3724603619
 30
83.4600314154
 41
6.0
 42
6.0
 50
285.0000000546
  0
LINE
  5
476
  8
DIM
 10
743.1183995548
 20
240.3724603619
 30
0.0
 11
711.0537845533
 21
360.0392322163
 31
0.0
  0
LINE
  5
477
  8
DIM
 10
744.4124947849
 20
235.5428312317
 30
0.0
 11
743.1183995548
 21
240.3724603619
 31
0.0
  0
LINE
  5
478
  8
DIM
 10
711.0537845533
 20
360.0392322163
 30
0.0
 11
635.5274182718
 21
360.0392322163
 31
0.0
  0
TEXT
  5
479
  8
DIM
 10
635.5274182718
 20
362.5120531154
 30
83.4600314154
 40
7.0
  1
%%c
 41
0.7
 11
635.5274182718
 21
360.0392326819
 31
83.4600314154
 73
     1
  0
TEXT
  5
47A
  8
DIM
 10
643.2672793019
 20
362.5120531154
 30
83.4600314154
 40
7.0
  1
5
 41
0.7
 11
643.2672793019
 21
360.0392326819
 31
83.4600314154
 73
     1
  0
TEXT
  5
47B
  8
DIM
 10
647.3408902969
 20
362.5120531154
 30
83.4600314154
 40
7.0
  1
 H8 
 41
0.525
 11
647.3408902969
 21
360.0392326819
 31
83.4600314154
 73
     1
  0
TEXT
  5
47C
  8
DIM
 10
664.9816421998
 20
367.8174289919
 30
83.4600314154
 40
4.9
  1
+
 41
0.7
 11
664.9816421998
 21
366.0864546885
 31
83.4600314154
 73
     1
  0
TEXT
  5
47D
  8
DIM
 10
664.9816421998
 20
362.1143732264
 30
83.4600314154
 40
4.9
  1
 
 41
0.7
 11
664.9816421998
 21
360.383398923
 31
83.4600314154
 73
     1
  0
TEXT
  5
47E
  8
DIM
 10
667.8331700826
 20
367.8174289919
 30
83.4600314154
 40
4.9
  1
0.018
 41
0.7
 11
667.8331700826
 21
366.0864546885
 31
83.4600314154
 73
     1
  0
TEXT
  5
47F
  8
DIM
 10
667.8331700826
 20
362.1143732264
 30
83.4600314154
 40
4.9
  1
0
 41
0.7
 11
667.8331700826
 21
360.383398923
 31
83.4600314154
 73
     1
  0
TEXT
  5
480
  8
DIM
 10
683.4371176522
 20
362.5120531154
 30
83.4600314154
 40
7.0
  1
 深さ5
 41
0.7
 11
683.4371176522
 21
360.0392326819
 31
83.4600314154
 73
     1
  0
ENDBLK
  5
472
  8
0
  0
BLOCK
  8
0
  2
_D_25
 70
     0
 10
0.0
 20
0.0
 30
0.0
  3
_D_25
  1

  0
INSERT
  5
485
  8
DIM
  2
_OPEN30
 10
783.5183694751
 20
242.9576457968
 30
83.4600314154
 41
6.0
 42
6.0
 50
270.0
  0
INSERT
  5
486
  8
DIM
  2
_OPEN30
 10
783.5183694751
 20
237.9576457968
 30
83.4600314154
 41
6.0
 42
6.0
 50
90.0
  0
LINE
  5
487
  8
DIM
 10
775.7854471699
 20
242.9576457968
 30
0.0
 11
785.5183694751
 21
242.9576457968
 31
0.0
  0
LINE
  5
488
  8
DIM
 10
751.7854471699
 20
237.9576457968
 30
0.0
 11
785.5183694751
 21
237.9576457968
 31
0.0
  0
LINE
  5
489
  8
DIM
 10
783.5183694751
 20
242.9576457968
 30
0.0
 11
783.5183694751
 21
258.2313804852
 31
0.0
  0
LINE
  5
48A
  8
DIM
 10
783.5183694751
 20
242.9576457968
 30
0.0
 11
783.5183694751
 21
237.9576457968
 31
0.0
  0
LINE
  5
48B
  8
DIM
 10
783.5183694751
 20
237.9576457968
 30
0.0
 11
783.5183694751
 21
225.2576457968
 31
0.0
  0
TEXT
  5
48C
  8
DIM
 10
781.0455495074
 20
254.1577694902
 30
83.4600314154
 40
7.0
  1
5
 50
90.0
 41
0.7
 11
783.5183699408
 21
254.1577694902
 31
83.4600314154
 73
     1
  0
ENDBLK
  5
484
  8
0
  0
BLOCK
  8
0
  2
SW_CENTERMARKSYMBOL_25
 70
     0
 10
0.0
 20
0.0
 30
0.0
  3
SW_CENTERMARKSYMBOL_25
  1

  0
LINE
  5
490
  8
DIM
 62
     0
 10
0.0
 20
0.0
 30
0.0
 11
0.0
 21
5.0
 31
0.0
  0
LINE
  5
491
  8
DIM
 62
     0
 10
0.0
 20
0.0
 30
0.0
 11
-5.0
 21
0.0
 31
0.0
  0
LINE
  5
492
  8
DIM
 62
     0
 10
0.0
 20
0.0
 30
0.0
 11
0.0
 21
-5.0
 31
0.0
  0
LINE
  5
493
  8
DIM
 62
     0
 10
0.0
 20
0.0
 30
0.0
 11
5.0
 21
0.0
 31
0.0
  0
LINE
  5
494
  8
DIM
 62
     0
 10
0.0
 20
5.0
 30
0.0
 11
0.0
 21
8.0
 31
0.0
  0
LINE
  5
495
  8
DIM
 62
     0
 10
-5.0
 20
0.0
 30
0.0
 11
-8.0
 21
0.0
 31
0.0
  0
LINE
  5
496
  8
DIM
 62
     0
 10
0.0
 20
-5.0
 30
0.0
 11
0.0
 21
-8.0
 31
0.0
  0
LINE
  5
497
  8
DIM
 62
     0
 10
5.0
 20
0.0
 30
0.0
 11
8.0
 21
0.0
 31
0.0
  0
ENDBLK
  5
48F
  8
0
  0
ENDSEC
  0
SECTION
  2
ENTITIES
  0
LINE
  5
76
  8
0
  6
CONTINUOUS
 62
     7
 10
176.3246324543
 20
183.4576457968
 30
0.0
 11
176.3246324543
 21
143.4576457968
 31
0.0
  0
LINE
  5
77
  8
0
  6
CONTINUOUS
 62
     7
 10
176.3246324543
 20
143.4576457968
 30
0.0
 11
175.8246324543
 21
143.9576457968
 31
0.0
  0
LINE
  5
78
  8
0
  6
CONTINUOUS
 62
     7
 10
175.8246324543
 20
143.9576457968
 30
0.0
 11
175.8246324543
 21
183.7252376761
 31
0.0
  0
LINE
  5
79
  8
0
  6
CONTINUOUS
 62
     7
 10
175.8246324543
 20
183.7252376761
 30
0.0
 11
176.3246324543
 21
183.4576457968
 31
0.0
  0
LINE
  5
7A
  8
0
  6
CONTINUOUS
 62
     7
 10
175.8246324543
 20
183.7252376761
 30
0.0
 11
175.8246324543
 21
207.9576457968
 31
0.0
  0
LINE
  5
7B
  8
0
  6
CONTINUOUS
 62
     7
 10
175.8246324543
 20
207.9576457968
 30
0.0
 11
176.3246324543
 21
207.9576457968
 31
0.0
  0
LINE
  5
7C
  8
0
  6
CONTINUOUS
 62
     7
 10
176.3246324543
 20
207.9576457968
 30
0.0
 11
176.3246324543
 21
183.4576457968
 31
0.0
  0
LINE
  5
7D
  8
0
  6
CONTINUOUS
 62
     7
 10
190.3246324543
 20
207.9576457968
 30
0.0
 11
176.3246324543
 21
207.9576457968
 31
0.0
  0
LINE
  5
7E
  8
0
  6
CONTINUOUS
 62
     7
 10
190.3246324543
 20
183.4576457968
 30
0.0
 11
190.3246324543
 21
207.9576457968
 31
0.0
  0
LINE
  5
7F
  8
0
  6
CONTINUOUS
 62
     7
 10
176.3246324543
 20
183.4576457968
 30
0.0
 11
190.3246324543
 21
183.4576457968
 31
0.0
  0
LINE
  5
80
  8
0
  6
CONTINUOUS
 62
     7
 10
190.3246324543
 20
208.4576457968
 30
0.0
 11
190.3246324543
 21
207.9576457968
 31
0.0
  0
LINE
  5
81
  8
0
  6
CONTINUOUS
 62
     7
 10
176.3246324543
 20
208.4576457968
 30
0.0
 11
176.3246324543
 21
207.9576457968
 31
0.0
  0
LINE
  5
82
  8
0
  6
CONTINUOUS
 62
     7
 10
190.3246324543
 20
143.4576457968
 30
0.0
 11
190.3246324543
 21
183.4576457968
 31
0.0
  0
LINE
  5
83
  8
0
  6
CONTINUOUS
 62
     7
 10
176.3246324543
 20
143.4576457968
 30
0.0
 11
190.3246324543
 21
143.4576457968
 31
0.0
  0
LINE
  5
84
  8
0
  6
CONTINUOUS
 62
     7
 10
176.3246324543
 20
208.4576457968
 30
0.0
 11
175.8246324543
 21
207.9576457968
 31
0.0
  0
LINE
  5
85
  8
0
  6
CONTINUOUS
 62
     7
 10
190.8246324543
 20
207.9576457968
 30
0.0
 11
190.3246324543
 21
207.9576457968
 31
0.0
  0
LINE
  5
86
  8
0
  6
CONTINUOUS
 62
     7
 10
190.8246324543
 20
207.9576457968
 30
0.0
 11
190.3246324543
 21
208.4576457968
 31
0.0
  0
LINE
  5
87
  8
0
  6
CONTINUOUS
 62
     7
 10
190.8246324543
 20
207.9576457968
 30
0.0
 11
190.8246324543
 21
183.7252376761
 31
0.0
  0
LINE
  5
88
  8
0
  6
CONTINUOUS
 62
     7
 10
190.8246324543
 20
183.7252376761
 30
0.0
 11
190.3246324543
 21
183.4576457968
 31
0.0
  0
LINE
  5
89
  8
0
  6
CONTINUOUS
 62
     7
 10
190.8246324543
 20
183.7252376761
 30
0.0
 11
190.8246324543
 21
143.9576457968
 31
0.0
  0
LINE
  5
8A
  8
0
  6
CONTINUOUS
 62
     7
 10
190.3246324543
 20
143.4576457968
 30
0.0
 11
190.8246324543
 21
143.9576457968
 31
0.0
  0
LINE
  5
8B
  8
0
  6
CONTINUOUS
 62
     7
 10
305.3246324543
 20
208.4576457968
 30
0.0
 11
305.3246324543
 21
207.9576457968
 31
0.0
  0
LINE
  5
8C
  8
0
  6
CONTINUOUS
 62
     7
 10
305.3246324543
 20
207.9576457968
 30
0.0
 11
291.3246324543
 21
207.9576457968
 31
0.0
  0
LINE
  5
8D
  8
0
  6
CONTINUOUS
 62
     7
 10
291.3246324543
 20
208.4576457968
 30
0.0
 11
291.3246324543
 21
207.9576457968
 31
0.0
  0
LINE
  5
8E
  8
0
  6
CONTINUOUS
 62
     7
 10
291.3246324543
 20
183.4576457968
 30
0.0
 11
291.3246324543
 21
143.4576457968
 31
0.0
  0
LINE
  5
8F
  8
0
  6
CONTINUOUS
 62
     7
 10
291.3246324543
 20
143.4576457968
 30
0.0
 11
290.8246324543
 21
143.9576457968
 31
0.0
  0
LINE
  5
90
  8
0
  6
CONTINUOUS
 62
     7
 10
290.8246324543
 20
143.9576457968
 30
0.0
 11
290.8246324543
 21
183.7252376761
 31
0.0
  0
LINE
  5
91
  8
0
  6
CONTINUOUS
 62
     7
 10
290.8246324543
 20
183.7252376761
 30
0.0
 11
291.3246324543
 21
183.4576457968
 31
0.0
  0
LINE
  5
92
  8
0
  6
CONTINUOUS
 62
     7
 10
290.8246324543
 20
207.9576457968
 30
0.0
 11
291.3246324543
 21
207.9576457968
 31
0.0
  0
LINE
  5
93
  8
0
  6
CONTINUOUS
 62
     7
 10
291.3246324543
 20
208.4576457968
 30
0.0
 11
290.8246324543
 21
207.9576457968
 31
0.0
  0
LINE
  5
94
  8
0
  6
CONTINUOUS
 62
     7
 10
290.8246324543
 20
183.7252376761
 30
0.0
 11
290.8246324543
 21
207.9576457968
 31
0.0
  0
LINE
  5
95
  8
0
  6
CONTINUOUS
 62
     7
 10
291.3246324543
 20
207.9576457968
 30
0.0
 11
291.3246324543
 21
183.4576457968
 31
0.0
  0
LINE
  5
96
  8
0
  6
CONTINUOUS
 62
     7
 10
305.3246324543
 20
183.4576457968
 30
0.0
 11
305.3246324543
 21
207.9576457968
 31
0.0
  0
LINE
  5
97
  8
0
  6
CONTINUOUS
 62
     7
 10
291.3246324543
 20
183.4576457968
 30
0.0
 11
305.3246324543
 21
183.4576457968
 31
0.0
  0
LINE
  5
98
  8
0
  6
CONTINUOUS
 62
     7
 10
305.3246324543
 20
143.4576457968
 30
0.0
 11
305.3246324543
 21
183.4576457968
 31
0.0
  0
LINE
  5
99
  8
0
  6
CONTINUOUS
 62
     7
 10
291.3246324543
 20
143.4576457968
 30
0.0
 11
305.3246324543
 21
143.4576457968
 31
0.0
  0
LINE
  5
9A
  8
0
  6
CONTINUOUS
 62
     7
 10
305.8246324543
 20
207.9576457968
 30
0.0
 11
305.8246324543
 21
183.7252376761
 31
0.0
  0
LINE
  5
9B
  8
0
  6
CONTINUOUS
 62
     7
 10
305.8246324543
 20
183.7252376761
 30
0.0
 11
305.3246324543
 21
183.4576457968
 31
0.0
  0
LINE
  5
9C
  8
0
  6
CONTINUOUS
 62
     7
 10
305.8246324543
 20
207.9576457968
 30
0.0
 11
305.3246324543
 21
207.9576457968
 31
0.0
  0
LINE
  5
9D
  8
0
  6
CONTINUOUS
 62
     7
 10
305.8246324543
 20
207.9576457968
 30
0.0
 11
305.3246324543
 21
208.4576457968
 31
0.0
  0
LINE
  5
9E
  8
0
  6
CONTINUOUS
 62
     7
 10
305.8246324543
 20
183.7252376761
 30
0.0
 11
305.8246324543
 21
143.9576457968
 31
0.0
  0
LINE
  5
9F
  8
0
  6
CONTINUOUS
 62
     7
 10
305.3246324543
 20
143.4576457968
 30
0.0
 11
305.8246324543
 21
143.9576457968
 31
0.0
  0
LINE
  5
A0
  8
0
  6
CONTINUOUS
 62
     7
 10
305.8246324542
 20
219.9576457968
 30
0.0
 11
295.8246324542
 21
219.9576457968
 31
0.0
  0
LINE
  5
A1
  8
0
  6
CONTINUOUS
 62
     7
 10
305.8246324542
 20
219.9576457968
 30
0.0
 11
305.8246324542
 21
208.9576457968
 31
0.0
  0
LINE
  5
A2
  8
0
  6
CONTINUOUS
 62
     7
 10
295.8246324542
 20
208.9576457968
 30
0.0
 11
305.8246324542
 21
208.9576457968
 31
0.0
  0
LINE
  5
A3
  8
0
  6
CONTINUOUS
 62
     7
 10
305.3246324542
 20
208.4576457968
 30
0.0
 11
295.8246324542
 21
208.4576457968
 31
0.0
  0
LINE
  5
A4
  8
0
  6
CONTINUOUS
 62
     7
 10
305.3246324542
 20
208.4576457968
 30
0.0
 11
305.8246324542
 21
208.9576457968
 31
0.0
  0
LINE
  5
A5
  8
0
  6
CONTINUOUS
 62
     7
 10
295.8246324542
 20
220.4576457968
 30
0.0
 11
305.3246324542
 21
220.4576457968
 31
0.0
  0
LINE
  5
A6
  8
0
  6
CONTINUOUS
 62
     7
 10
305.3246324542
 20
220.4576457968
 30
0.0
 11
305.8246324542
 21
219.9576457968
 31
0.0
  0
LINE
  5
A7
  8
0
  6
CONTINUOUS
 62
     7
 10
295.8246324542
 20
219.9576457968
 30
0.0
 11
185.8246324542
 21
219.9576457968
 31
0.0
  0
LINE
  5
A8
  8
0
  6
CONTINUOUS
 62
     7
 10
185.8246324542
 20
208.9576457968
 30
0.0
 11
295.8246324542
 21
208.9576457968
 31
0.0
  0
LINE
  5
A9
  8
0
  6
CONTINUOUS
 62
     7
 10
295.8246324542
 20
208.4576457968
 30
0.0
 11
185.8246324542
 21
208.4576457968
 31
0.0
  0
LINE
  5
AA
  8
0
  6
CONTINUOUS
 62
     7
 10
185.8246324542
 20
220.4576457968
 30
0.0
 11
295.8246324542
 21
220.4576457968
 31
0.0
  0
LINE
  5
AB
  8
0
  6
CONTINUOUS
 62
     7
 10
175.8246324542
 20
208.9576457968
 30
0.0
 11
185.8246324542
 21
208.9576457968
 31
0.0
  0
LINE
  5
AC
  8
0
  6
CONTINUOUS
 62
     7
 10
185.8246324542
 20
208.4576457968
 30
0.0
 11
176.3246324542
 21
208.4576457968
 31
0.0
  0
LINE
  5
AD
  8
0
  6
CONTINUOUS
 62
     7
 10
175.8246324542
 20
208.9576457968
 30
0.0
 11
176.3246324542
 21
208.4576457968
 31
0.0
  0
LINE
  5
AE
  8
0
  6
CONTINUOUS
 62
     7
 10
185.8246324542
 20
219.9576457968
 30
0.0
 11
175.8246324542
 21
219.9576457968
 31
0.0
  0
LINE
  5
AF
  8
0
  6
CONTINUOUS
 62
     7
 10
175.8246324542
 20
208.9576457968
 30
0.0
 11
175.8246324542
 21
219.9576457968
 31
0.0
  0
LINE
  5
B0
  8
0
  6
CONTINUOUS
 62
     7
 10
175.8246324542
 20
219.9576457968
 30
0.0
 11
176.3246324542
 21
220.4576457968
 31
0.0
  0
LINE
  5
B1
  8
0
  6
CONTINUOUS
 62
     7
 10
176.3246324542
 20
220.4576457968
 30
0.0
 11
185.8246324542
 21
220.4576457968
 31
0.0
  0
CIRCLE
  5
B2
  8
0
  6
CONTINUOUS
 62
     7
 10
210.8246324543
 20
337.9576457968
 30
0.0
 40
5.0
  0
CIRCLE
  5
B3
  8
0
  6
CONTINUOUS
 62
     7
 10
210.8246324543
 20
337.9576457968
 30
0.0
 40
5.499999999999972
  0
LINE
  5
B4
  8
0
  6
CONTINUOUS
 62
     7
 10
178.8246324543
 20
140.4576457968
 30
0.0
 11
175.8246324543
 21
143.4576457968
 31
0.0
  0
LINE
  5
B5
  8
0
  6
CONTINUOUS
 62
     7
 10
175.8246324543
 20
143.4576457968
 30
0.0
 11
176.1781858448
 21
143.6040924062
 31
0.0
  0
LINE
  5
B6
  8
0
  6
CONTINUOUS
 62
     7
 10
176.5317392354
 20
143.4576457968
 30
0.0
 11
179.0317392354
 21
140.9576457968
 31
0.0
  0
LINE
  5
B7
  8
0
  6
CONTINUOUS
 62
     7
 10
178.8246324543
 20
140.4576457968
 30
0.0
 11
179.0317392354
 21
140.9576457968
 31
0.0
  0
LINE
  5
B8
  8
0
  6
CONTINUOUS
 62
     7
 10
302.6175256731
 20
344.9576457968
 30
0.0
 11
179.0317392354
 21
344.9576457968
 31
0.0
  0
LINE
  5
B9
  8
0
  6
CONTINUOUS
 62
     7
 10
179.0317392354
 20
344.9576457968
 30
0.0
 11
178.8246324543
 21
345.4576457968
 31
0.0
  0
LINE
  5
BA
  8
0
  6
CONTINUOUS
 62
     7
 10
178.8246324543
 20
345.4576457968
 30
0.0
 11
302.8246324543
 21
345.4576457968
 31
0.0
  0
LINE
  5
BB
  8
0
  6
CONTINUOUS
 62
     7
 10
302.6175256731
 20
344.9576457968
 30
0.0
 11
302.8246324543
 21
345.4576457968
 31
0.0
  0
CIRCLE
  5
BC
  8
0
  6
CONTINUOUS
 62
     7
 10
190.8246324543
 20
337.9576457968
 30
0.0
 40
5.0
  0
CIRCLE
  5
BD
  8
0
  6
CONTINUOUS
 62
     7
 10
190.8246324543
 20
337.9576457968
 30
0.0
 40
5.5
  0
CIRCLE
  5
BE
  8
0
  6
CONTINUOUS
 62
     7
 10
270.8246324543
 20
197.9576457968
 30
0.0
 40
5.0
  0
CIRCLE
  5
BF
  8
0
  6
CONTINUOUS
 62
     7
 10
270.8246324543
 20
197.9576457968
 30
0.0
 40
5.499999999999943
  0
CIRCLE
  5
C0
  8
0
  6
CONTINUOUS
 62
     7
 10
270.8246324543
 20
337.9576457968
 30
0.0
 40
5.0
  0
CIRCLE
  5
C1
  8
0
  6
CONTINUOUS
 62
     7
 10
270.8246324543
 20
337.9576457968
 30
0.0
 40
5.499999999999943
  0
CIRCLE
  5
C2
  8
0
  6
CONTINUOUS
 62
     7
 10
200.8246324543
 20
227.9576457968
 30
0.0
 40
5.0
  0
CIRCLE
  5
C3
  8
0
  6
CONTINUOUS
 62
     7
 10
200.8246324543
 20
227.9576457968
 30
0.0
 40
5.499999999999972
  0
CIRCLE
  5
C4
  8
0
  6
CONTINUOUS
 62
     7
 10
290.8246324543
 20
337.9576457968
 30
0.0
 40
5.0
  0
CIRCLE
  5
C5
  8
0
  6
CONTINUOUS
 62
     7
 10
290.8246324543
 20
337.9576457968
 30
0.0
 40
5.499999999999943
  0
CIRCLE
  5
C6
  8
0
  6
CONTINUOUS
 62
     7
 10
210.8246324543
 20
147.9576457968
 30
0.0
 40
5.0
  0
CIRCLE
  5
C7
  8
0
  6
CONTINUOUS
 62
     7
 10
210.8246324543
 20
147.9576457968
 30
0.0
 40
5.499999999999972
  0
CIRCLE
  5
C8
  8
0
  6
CONTINUOUS
 62
     7
 10
270.8246324543
 20
147.9576457968
 30
0.0
 40
5.0
  0
CIRCLE
  5
C9
  8
0
  6
CONTINUOUS
 62
     7
 10
270.8246324543
 20
147.9576457968
 30
0.0
 40
5.499999999999943
  0
CIRCLE
  5
CA
  8
0
  6
CONTINUOUS
 62
     7
 10
280.8246324543
 20
227.9576457968
 30
0.0
 40
5.0
  0
CIRCLE
  5
CB
  8
0
  6
CONTINUOUS
 62
     7
 10
280.8246324543
 20
227.9576457968
 30
0.0
 40
5.499999999999943
  0
CIRCLE
  5
CC
  8
0
  6
CONTINUOUS
 62
     7
 10
280.8246324543
 20
247.9576457968
 30
0.0
 40
5.0
  0
CIRCLE
  5
CD
  8
0
  6
CONTINUOUS
 62
     7
 10
280.8246324543
 20
247.9576457968
 30
0.0
 40
5.499999999999943
  0
LINE
  5
CE
  8
0
  6
CONTINUOUS
 62
     7
 10
302.6175256731
 20
140.9576457968
 30
0.0
 11
305.1175256731
 21
143.4576457968
 31
0.0
  0
LINE
  5
CF
  8
0
  6
CONTINUOUS
 62
     7
 10
305.4710790637
 20
143.6040924062
 30
0.0
 11
305.8246324543
 21
143.4576457968
 31
0.0
  0
LINE
  5
D0
  8
0
  6
CONTINUOUS
 62
     7
 10
305.8246324543
 20
143.4576457968
 30
0.0
 11
302.8246324543
 21
140.4576457968
 31
0.0
  0
LINE
  5
D1
  8
0
  6
CONTINUOUS
 62
     7
 10
302.8246324543
 20
140.4576457968
 30
0.0
 11
302.6175256731
 21
140.9576457968
 31
0.0
  0
LINE
  5
D2
  8
0
  6
CONTINUOUS
 62
     7
 10
179.0317392354
 20
344.9576457968
 30
0.0
 11
176.3246324543
 21
342.2505390156
 31
0.0
  0
LINE
  5
D3
  8
0
  6
CONTINUOUS
 62
     7
 10
175.8246324543
 20
342.4576457968
 30
0.0
 11
176.3246324543
 21
342.2505390156
 31
0.0
  0
LINE
  5
D4
  8
0
  6
CONTINUOUS
 62
     7
 10
175.8246324543
 20
342.4576457968
 30
0.0
 11
178.8246324543
 21
345.4576457968
 31
0.0
  0
CIRCLE
  5
D5
  8
0
  6
CONTINUOUS
 62
     7
 10
210.8246324543
 20
197.9576457968
 30
0.0
 40
5.0
  0
CIRCLE
  5
D6
  8
0
  6
CONTINUOUS
 62
     7
 10
210.8246324543
 20
197.9576457968
 30
0.0
 40
5.499999999999943
  0
CIRCLE
  5
D7
  8
0
  6
CONTINUOUS
 62
     7
 10
190.8246324543
 20
287.9576457968
 30
0.0
 40
5.0
  0
CIRCLE
  5
D8
  8
0
  6
CONTINUOUS
 62
     7
 10
190.8246324543
 20
287.9576457968
 30
0.0
 40
5.499999999999972
  0
CIRCLE
  5
D9
  8
0
  6
CONTINUOUS
 62
     7
 10
200.8246324543
 20
247.9576457968
 30
0.0
 40
5.0
  0
CIRCLE
  5
DA
  8
0
  6
CONTINUOUS
 62
     7
 10
200.8246324543
 20
247.9576457968
 30
0.0
 40
5.499999999999972
  0
CIRCLE
  5
DB
  8
0
  6
CONTINUOUS
 62
     7
 10
210.8246324543
 20
287.9576457968
 30
0.0
 40
5.0
  0
CIRCLE
  5
DC
  8
0
  6
CONTINUOUS
 62
     7
 10
210.8246324543
 20
287.9576457968
 30
0.0
 40
5.499999999999943
  0
LINE
  5
DD
  8
0
  6
CONTINUOUS
 62
     7
 10
305.3246324543
 20
342.2505390156
 30
0.0
 11
302.6175256731
 21
344.9576457968
 31
0.0
  0
LINE
  5
DE
  8
0
  6
CONTINUOUS
 62
     7
 10
302.8246324543
 20
345.4576457968
 30
0.0
 11
305.8246324543
 21
342.4576457968
 31
0.0
  0
LINE
  5
DF
  8
0
  6
CONTINUOUS
 62
     7
 10
305.3246324543
 20
342.2505390156
 30
0.0
 11
305.8246324543
 21
342.4576457968
 31
0.0
  0
LINE
  5
E0
  8
0
  6
CONTINUOUS
 62
     7
 10
302.8246324543
 20
140.4576457968
 30
0.0
 11
178.8246324543
 21
140.4576457968
 31
0.0
  0
LINE
  5
E1
  8
0
  6
CONTINUOUS
 62
     7
 10
179.0317392354
 20
140.9576457968
 30
0.0
 11
302.6175256731
 21
140.9576457968
 31
0.0
  0
LINE
  5
E2
  8
0
  6
CONTINUOUS
 62
     7
 10
175.8246324543
 20
143.4576457968
 30
0.0
 11
175.8246324543
 21
143.9576457968
 31
0.0
  0
LINE
  5
E3
  8
0
  6
CONTINUOUS
 62
     7
 10
175.8246324543
 20
207.9576457968
 30
0.0
 11
175.8246324543
 21
208.9576457968
 31
0.0
  0
LINE
  5
E4
  8
0
  6
CONTINUOUS
 62
     7
 10
175.8246324543
 20
219.9576457968
 30
0.0
 11
175.8246324543
 21
342.4576457968
 31
0.0
  0
LINE
  5
E5
  8
0
  6
CONTINUOUS
 62
     7
 10
176.3246324543
 20
342.2505390156
 30
0.0
 11
176.3246324543
 21
220.4576457968
 31
0.0
  0
CIRCLE
  5
E6
  8
0
  6
CONTINUOUS
 62
     7
 10
270.8246324543
 20
287.9576457968
 30
0.0
 40
5.0
  0
CIRCLE
  5
E7
  8
0
  6
CONTINUOUS
 62
     7
 10
270.8246324543
 20
287.9576457968
 30
0.0
 40
5.499999999999943
  0
LINE
  5
E8
  8
0
  6
CONTINUOUS
 62
     7
 10
305.3246324543
 20
220.4576457968
 30
0.0
 11
305.3246324543
 21
342.2505390156
 31
0.0
  0
LINE
  5
E9
  8
0
  6
CONTINUOUS
 62
     7
 10
305.8246324543
 20
342.4576457968
 30
0.0
 11
305.8246324543
 21
219.9576457968
 31
0.0
  0
LINE
  5
EA
  8
0
  6
CONTINUOUS
 62
     7
 10
305.8246324543
 20
208.9576457968
 30
0.0
 11
305.8246324543
 21
207.9576457968
 31
0.0
  0
LINE
  5
EB
  8
0
  6
CONTINUOUS
 62
     7
 10
305.8246324543
 20
143.9576457968
 30
0.0
 11
305.8246324543
 21
143.4576457968
 31
0.0
  0
CIRCLE
  5
EC
  8
0
  6
CONTINUOUS
 62
     7
 10
290.8246324543
 20
287.9576457968
 30
0.0
 40
5.499999999999943
  0
CIRCLE
  5
ED
  8
0
  6
CONTINUOUS
 62
     7
 10
290.8246324543
 20
287.9576457968
 30
0.0
 40
5.0
  0
CIRCLE
  5
EE
  8
0
  6
CONTINUOUS
 62
     7
 10
270.8246324543
 20
147.9576457968
 30
0.0
 40
2.75
  0
CIRCLE
  5
EF
  8
0
  6
CONTINUOUS
 62
     7
 10
190.8246324543
 20
337.9576457968
 30
0.0
 40
2.749999999999972
  0
CIRCLE
  5
F0
  8
0
  6
CONTINUOUS
 62
     7
 10
280.8246324543
 20
227.9576457968
 30
0.0
 40
2.75
  0
CIRCLE
  5
F1
  8
0
  6
CONTINUOUS
 62
     7
 10
200.8246324543
 20
247.9576457968
 30
0.0
 40
2.75
  0
CIRCLE
  5
F2
  8
0
  6
CONTINUOUS
 62
     7
 10
190.8246324543
 20
287.9576457968
 30
0.0
 40
2.75
  0
CIRCLE
  5
F3
  8
0
  6
CONTINUOUS
 62
     7
 10
270.8246324543
 20
287.9576457968
 30
0.0
 40
2.75
  0
CIRCLE
  5
F4
  8
0
  6
CONTINUOUS
 62
     7
 10
290.8246324543
 20
337.9576457968
 30
0.0
 40
2.750000000000057
  0
CIRCLE
  5
F5
  8
0
  6
CONTINUOUS
 62
     7
 10
270.8246324543
 20
197.9576457968
 30
0.0
 40
2.75
  0
CIRCLE
  5
F6
  8
0
  6
CONTINUOUS
 62
     7
 10
210.8246324543
 20
147.9576457968
 30
0.0
 40
2.75
  0
CIRCLE
  5
F7
  8
0
  6
CONTINUOUS
 62
     7
 10
210.8246324543
 20
287.9576457968
 30
0.0
 40
2.749999999999972
  0
CIRCLE
  5
F8
  8
0
  6
CONTINUOUS
 62
     7
 10
200.8246324543
 20
227.9576457968
 30
0.0
 40
2.75
  0
CIRCLE
  5
F9
  8
0
  6
CONTINUOUS
 62
     7
 10
280.8246324543
 20
247.9576457968
 30
0.0
 40
2.75
  0
CIRCLE
  5
FA
  8
0
  6
CONTINUOUS
 62
     7
 10
290.8246324543
 20
287.9576457968
 30
0.0
 40
2.750000000000057
  0
CIRCLE
  5
FB
  8
0
  6
CONTINUOUS
 62
     7
 10
270.8246324543
 20
337.9576457968
 30
0.0
 40
2.75
  0
CIRCLE
  5
FC
  8
0
  6
CONTINUOUS
 62
     7
 10
210.8246324543
 20
197.9576457968
 30
0.0
 40
2.749999999999972
  0
CIRCLE
  5
FD
  8
0
  6
CONTINUOUS
 62
     7
 10
210.8246324543
 20
337.9576457968
 30
0.0
 40
2.75
  0
DIMENSION
  5
FE
  8
DIM
  2
_D
 10
280.8246324543
 20
108.5112028874
 30
0.0
 11
240.8246324543
 21
108.5112028874
 31
0.0
 70
   160
  1
<>
  3
SLDDIMSTYLE0
 13
200.8246324543
 23
234.2756600975
 33
0.0
 14
280.8246324543
 24
234.7444754497
 34
0.0
  0
DIMENSION
  5
10F
  8
DIM
  2
_D_1
 10
321.4065654503
 20
247.9576457968
 30
0.0
 11
321.4065654503
 21
258.2069692895
 31
0.0
 70
   160
  1
<>
  3
SLDDIMSTYLE1
 13
312.8246324543
 23
242.9576457968
 33
0.0
 14
291.3246324543
 24
247.9576457968
 34
0.0
 50
90.0
  0
DIMENSION
  5
11C
  8
DIM
  2
_D_2
 10
337.4523571278
 20
227.9576457968
 30
0.0
 11
337.4523571278
 21
237.9576457968
 31
0.0
 70
   160
  1
<>
  3
SLDDIMSTYLE1
 13
291.3246324543
 23
247.9576457968
 33
0.0
 14
291.3246324543
 24
227.9576457968
 34
0.0
 50
90.0
  0
DIMENSION
  5
128
  8
DIM
  2
_D_3
 10
337.4523571278
 20
247.9576457968
 30
0.0
 11
337.4523571278
 21
267.9576457968
 31
0.0
 70
   160
  1
<>
  3
SLDDIMSTYLE0
 13
301.3246324543
 23
287.9576457968
 33
0.0
 14
291.3246324543
 24
247.9576457968
 34
0.0
 50
90.0
  0
DIMENSION
  5
132
  8
DIM
  2
_D_4
 10
353.9036099142
 20
197.9576457968
 30
0.0
 11
353.9036099142
 21
242.9576457968
 31
0.0
 70
   160
  1
<>
  3
SLDDIMSTYLE0
 13
301.3246324543
 23
287.9576457968
 33
0.0
 14
281.3246324543
 24
197.9576457968
 34
0.0
 50
90.0
  0
DIMENSION
  5
13C
  8
DIM
  2
_D_5
 10
371.6471950757
 20
147.9576457968
 30
0.0
 11
371.6471950757
 21
242.9576457968
 31
0.0
 70
   160
  1
<>
  3
SLDDIMSTYLE0
 13
301.3246324543
 23
337.9576457968
 33
0.0
 14
281.3246324543
 24
147.9576457968
 34
0.0
 50
90.0
  0
DIMENSION
  5
146
  8
DIM
  2
_D_6
 10
290.8246324543
 20
352.7788452859
 30
0.0
 11
303.4703780464
 21
352.7788452859
 31
0.0
 70
   160
  1
<>
  3
SLDDIMSTYLE0
 13
270.8246324543
 23
329.2291717176
 33
0.0
 14
290.8246324543
 24
329.551285698
 34
0.0
  0
DIMENSION
  5
151
  8
DIM
  2
_D_7
 10
210.8246324543
 20
352.7788452859
 30
0.0
 11
181.2129884859
 21
352.7788452859
 31
0.0
 70
   160
  1
<>
  3
SLDDIMSTYLE0
 13
190.8246324543
 23
329.562995697
 33
0.0
 14
210.8246324543
 24
329.7272534789
 34
0.0
  0
DIMENSION
  5
15C
  8
DIM
  2
_D_8
 10
270.8246324543
 20
119.7693307951
 30
0.0
 11
240.8246324543
 21
119.7693307951
 31
0.0
 70
   160
  1
<>
  3
SLDDIMSTYLE0
 13
210.8246324543
 23
137.4576457968
 33
0.0
 14
270.8246324543
 24
137.4576457968
 34
0.0
  0
INSERT
  5
16D
  8
TXT
  2
SW_NOTE_0
 10
196.5145576324
 20
251.3742603536
 30
0.0
  0
INSERT
  5
179
  8
DIM
  2
SW_CENTERMARKSYMBOL_0
 10
200.8246324543
 20
247.9576457968
 30
0.0
  0
INSERT
  5
185
  8
DIM
  2
SW_CENTERMARKSYMBOL_1
 10
200.8246324543
 20
227.9576457968
 30
0.0
  0
INSERT
  5
191
  8
DIM
  2
SW_CENTERMARKSYMBOL_2
 10
280.8246324543
 20
247.9576457968
 30
0.0
  0
INSERT
  5
19D
  8
DIM
  2
SW_CENTERMARKSYMBOL_3
 10
280.8246324543
 20
227.9576457968
 30
0.0
  0
INSERT
  5
1A9
  8
DIM
  2
SW_CENTERMARKSYMBOL_4
 10
190.8246324543
 20
337.9576457968
 30
0.0
  0
INSERT
  5
1B5
  8
DIM
  2
SW_CENTERMARKSYMBOL_5
 10
210.8246324543
 20
337.9576457968
 30
0.0
  0
INSERT
  5
1C1
  8
DIM
  2
SW_CENTERMARKSYMBOL_6
 10
190.8246324543
 20
287.9576457968
 30
0.0
  0
INSERT
  5
1CD
  8
DIM
  2
SW_CENTERMARKSYMBOL_7
 10
210.8246324543
 20
287.9576457968
 30
0.0
  0
INSERT
  5
1D9
  8
DIM
  2
SW_CENTERMARKSYMBOL_8
 10
270.8246324543
 20
337.9576457968
 30
0.0
  0
INSERT
  5
1E5
  8
DIM
  2
SW_CENTERMARKSYMBOL_9
 10
290.8246324543
 20
337.9576457968
 30
0.0
  0
INSERT
  5
1F1
  8
DIM
  2
SW_CENTERMARKSYMBOL_10
 10
270.8246324543
 20
287.9576457968
 30
0.0
  0
INSERT
  5
1FD
  8
DIM
  2
SW_CENTERMARKSYMBOL_11
 10
290.8246324543
 20
287.9576457968
 30
0.0
  0
INSERT
  5
209
  8
DIM
  2
SW_CENTERMARKSYMBOL_12
 10
210.8246324543
 20
197.9576457968
 30
0.0
  0
INSERT
  5
215
  8
DIM
  2
SW_CENTERMARKSYMBOL_13
 10
210.8246324543
 20
147.9576457968
 30
0.0
  0
INSERT
  5
221
  8
DIM
  2
SW_CENTERMARKSYMBOL_14
 10
270.8246324543
 20
147.9576457968
 30
0.0
  0
INSERT
  5
22D
  8
DIM
  2
SW_CENTERMARKSYMBOL_15
 10
270.8246324543
 20
197.9576457968
 30
0.0
  0
LINE
  5
22E
  8
DIM
  6
CENTERX2
 10
240.8246324543
 20
352.4576457968
 30
0.0
 11
240.8246324543
 21
133.4576457968
 31
0.0
  0
LINE
  5
22F
  8
DIM
  6
CENTERX2
 10
312.8246324543
 20
242.9576457968
 30
0.0
 11
168.8246324543
 21
242.9576457968
 31
0.0
  0
LINE
  5
230
  8
0
  6
CONTINUOUS
 62
     7
 10
525.9726299167
 20
143.4576457968
 30
0.0
 11
465.9726299167
 21
183.4576457968
 31
0.0
  0
LINE
  5
231
  8
0
  6
CONTINUOUS
 62
     7
 10
466.4726299167
 20
183.7252376761
 30
0.0
 11
465.9726299167
 21
183.4576457968
 31
0.0
  0
LINE
  5
232
  8
0
  6
CONTINUOUS
 62
     7
 10
466.4726299167
 20
183.7252376761
 30
0.0
 11
526.1240177356
 21
143.9576457968
 31
0.0
  0
LINE
  5
233
  8
0
  6
CONTINUOUS
 62
     7
 10
525.9726299167
 20
143.4576457968
 30
0.0
 11
526.1240177356
 21
143.9576457968
 31
0.0
  0
LINE
  5
234
  8
0
  6
CONTINUOUS
 62
     7
 10
545.4726299167
 20
207.9576457968
 30
0.0
 11
466.4726299167
 21
207.9576457968
 31
0.0
  0
LINE
  5
235
  8
0
  6
CONTINUOUS
 62
     7
 10
545.4726299167
 20
143.9576457968
 30
0.0
 11
545.4726299167
 21
207.9576457968
 31
0.0
  0
LINE
  5
236
  8
0
  6
CONTINUOUS
 62
     7
 10
526.1240177356
 20
143.9576457968
 30
0.0
 11
545.4726299167
 21
143.9576457968
 31
0.0
  0
LINE
  5
237
  8
0
  6
CONTINUOUS
 62
     7
 10
466.4726299167
 20
207.9576457968
 30
0.0
 11
466.4726299167
 21
183.7252376761
 31
0.0
  0
LINE
  5
238
  8
0
  6
CONTINUOUS
 62
     7
 10
545.4726299167
 20
143.4576457968
 30
0.0
 11
525.9726299167
 21
143.4576457968
 31
0.0
  0
LINE
  5
239
  8
0
  6
CONTINUOUS
 62
     7
 10
545.4726299167
 20
143.4576457968
 30
0.0
 11
545.4726299167
 21
143.9576457968
 31
0.0
  0
LINE
  5
23A
  8
0
  6
CONTINUOUS
 62
     7
 10
465.9726299167
 20
183.4576457968
 30
0.0
 11
465.9726299167
 21
207.9576457968
 31
0.0
  0
LINE
  5
23B
  8
0
  6
CONTINUOUS
 62
     7
 10
466.4726299167
 20
207.9576457968
 30
0.0
 11
465.9726299167
 21
207.9576457968
 31
0.0
  0
LINE
  5
23C
  8
0
  6
CONTINUOUS
 62
     7
 10
545.9726299167
 20
143.9576457968
 30
0.0
 11
545.4726299167
 21
143.9576457968
 31
0.0
  0
LINE
  5
23D
  8
0
  6
CONTINUOUS
 62
     7
 10
545.4726299167
 20
143.4576457968
 30
0.0
 11
545.9726299167
 21
143.9576457968
 31
0.0
  0
LINE
  5
23E
  8
0
  6
CONTINUOUS
 62
     7
 10
545.9726299167
 20
207.9576457968
 30
0.0
 11
545.9726299167
 21
143.9576457968
 31
0.0
  0
LINE
  5
23F
  8
0
  6
CONTINUOUS
 62
     7
 10
545.9726299167
 20
207.9576457968
 30
0.0
 11
545.4726299167
 21
207.9576457968
 31
0.0
  0
LINE
  5
240
  8
0
  6
CONTINUOUS
 62
     7
 10
466.4726299167
 20
208.4576457968
 30
0.0
 11
465.9726299167
 21
207.9576457968
 31
0.0
  0
LINE
  5
241
  8
0
  6
CONTINUOUS
 62
     7
 10
466.4726299167
 20
207.9576457968
 30
0.0
 11
466.4726299167
 21
208.4576457968
 31
0.0
  0
LINE
  5
242
  8
0
  6
CONTINUOUS
 62
     7
 10
466.4726299167
 20
208.4576457968
 30
0.0
 11
545.4726299167
 21
208.4576457968
 31
0.0
  0
LINE
  5
243
  8
0
  6
CONTINUOUS
 62
     7
 10
545.4726299167
 20
207.9576457968
 30
0.0
 11
545.4726299167
 21
208.4576457968
 31
0.0
  0
LINE
  5
244
  8
0
  6
CONTINUOUS
 62
     7
 10
545.9726299167
 20
207.9576457968
 30
0.0
 11
545.4726299167
 21
208.4576457968
 31
0.0
  0
LINE
  5
245
  8
0
  6
CONTINUOUS
 62
     7
 10
545.9726299167
 20
219.9576457968
 30
0.0
 11
410.9726299167
 21
219.9576457968
 31
0.0
  0
LINE
  5
246
  8
0
  6
CONTINUOUS
 62
     7
 10
410.9726299167
 20
208.9576457968
 30
0.0
 11
545.9726299167
 21
208.9576457968
 31
0.0
  0
LINE
  5
247
  8
0
  6
CONTINUOUS
 62
     7
 10
545.9726299167
 20
219.9576457968
 30
0.0
 11
545.9726299167
 21
208.9576457968
 31
0.0
  0
LINE
  5
248
  8
0
  6
CONTINUOUS
 62
     7
 10
545.4726299167
 20
208.4576457968
 30
0.0
 11
410.9726299167
 21
208.4576457968
 31
0.0
  0
LINE
  5
249
  8
0
  6
CONTINUOUS
 62
     7
 10
545.4726299167
 20
208.4576457968
 30
0.0
 11
545.9726299167
 21
208.9576457968
 31
0.0
  0
LINE
  5
24A
  8
0
  6
CONTINUOUS
 62
     7
 10
410.9726299167
 20
220.4576457968
 30
0.0
 11
545.4726299167
 21
220.4576457968
 31
0.0
  0
LINE
  5
24B
  8
0
  6
CONTINUOUS
 62
     7
 10
545.4726299167
 20
220.4576457968
 30
0.0
 11
545.9726299167
 21
219.9576457968
 31
0.0
  0
LINE
  5
24C
  8
0
  6
CONTINUOUS
 62
     7
 10
410.9726299167
 20
208.4576457968
 30
0.0
 11
401.4726299167
 21
208.4576457968
 31
0.0
  0
LINE
  5
24D
  8
0
  6
CONTINUOUS
 62
     7
 10
400.9726299167
 20
208.9576457968
 30
0.0
 11
401.4726299167
 21
208.4576457968
 31
0.0
  0
LINE
  5
24E
  8
0
  6
CONTINUOUS
 62
     7
 10
400.9726299167
 20
208.9576457968
 30
0.0
 11
410.9726299167
 21
208.9576457968
 31
0.0
  0
LINE
  5
24F
  8
0
  6
CONTINUOUS
 62
     7
 10
410.9726299167
 20
219.9576457968
 30
0.0
 11
400.9726299167
 21
219.9576457968
 31
0.0
  0
LINE
  5
250
  8
0
  6
CONTINUOUS
 62
     7
 10
400.9726299167
 20
208.9576457968
 30
0.0
 11
400.9726299167
 21
219.9576457968
 31
0.0
  0
LINE
  5
251
  8
0
  6
CONTINUOUS
 62
     7
 10
401.4726299167
 20
220.4576457968
 30
0.0
 11
410.9726299167
 21
220.4576457968
 31
0.0
  0
LINE
  5
252
  8
0
  6
CONTINUOUS
 62
     7
 10
401.4726299167
 20
220.4576457968
 30
0.0
 11
400.9726299167
 21
219.9576457968
 31
0.0
  0
LINE
  5
253
  8
0
  6
CONTINUOUS
 62
     7
 10
557.9726299167
 20
344.9576457968
 30
0.0
 11
557.9726299167
 21
342.2505390156
 31
0.0
  0
LINE
  5
254
  8
0
  6
CONTINUOUS
 62
     7
 10
557.9726299167
 20
342.2505390156
 30
0.0
 11
557.4726299167
 21
342.4576457968
 31
0.0
  0
LINE
  5
255
  8
0
  6
CONTINUOUS
 62
     7
 10
557.4726299167
 20
342.4576457968
 30
0.0
 11
557.4726299167
 21
345.4576457968
 31
0.0
  0
LINE
  5
256
  8
0
  6
CONTINUOUS
 62
     7
 10
557.9726299167
 20
344.9576457968
 30
0.0
 11
557.4726299167
 21
345.4576457968
 31
0.0
  0
LINE
  5
257
  8
0
  6
CONTINUOUS
 62
     7
 10
557.9726299167
 20
342.2505390156
 30
0.0
 11
557.9726299167
 21
143.664752578
 31
0.0
  0
LINE
  5
258
  8
0
  6
CONTINUOUS
 62
     7
 10
557.9726299167
 20
143.664752578
 30
0.0
 11
557.4726299167
 21
143.4576457968
 31
0.0
  0
LINE
  5
259
  8
0
  6
CONTINUOUS
 62
     7
 10
557.4726299167
 20
143.4576457968
 30
0.0
 11
557.4726299167
 21
342.4576457968
 31
0.0
  0
LINE
  5
25A
  8
0
  6
CONTINUOUS
 62
     7
 10
546.4726299167
 20
342.4576457968
 30
0.0
 11
546.4726299167
 21
143.4576457968
 31
0.0
  0
LINE
  5
25B
  8
0
  6
CONTINUOUS
 62
     7
 10
557.4726299167
 20
342.4576457968
 30
0.0
 11
546.4726299167
 21
342.4576457968
 31
0.0
  0
LINE
  5
25C
  8
0
  6
CONTINUOUS
 62
     7
 10
546.4726299167
 20
143.4576457968
 30
0.0
 11
557.4726299167
 21
143.4576457968
 31
0.0
  0
LINE
  5
25D
  8
0
  6
CONTINUOUS
 62
     7
 10
546.4726299167
 20
143.4576457968
 30
0.0
 11
546.4726299167
 21
140.4576457968
 31
0.0
  0
LINE
  5
25E
  8
0
  6
CONTINUOUS
 62
     7
 10
557.4726299167
 20
140.4576457968
 30
0.0
 11
557.4726299167
 21
143.4576457968
 31
0.0
  0
LINE
  5
25F
  8
0
  6
CONTINUOUS
 62
     7
 10
557.4726299167
 20
140.4576457968
 30
0.0
 11
546.4726299167
 21
140.4576457968
 31
0.0
  0
LINE
  5
260
  8
0
  6
CONTINUOUS
 62
     7
 10
557.9726299167
 20
143.664752578
 30
0.0
 11
557.9726299167
 21
140.9576457968
 31
0.0
  0
LINE
  5
261
  8
0
  6
CONTINUOUS
 62
     7
 10
557.4726299167
 20
140.4576457968
 30
0.0
 11
557.9726299167
 21
140.9576457968
 31
0.0
  0
LINE
  5
262
  8
0
  6
CONTINUOUS
 62
     7
 10
546.4726299167
 20
345.4576457968
 30
0.0
 11
546.4726299167
 21
342.4576457968
 31
0.0
  0
LINE
  5
263
  8
0
  6
CONTINUOUS
 62
     7
 10
546.4726299167
 20
345.4576457968
 30
0.0
 11
557.4726299167
 21
345.4576457968
 31
0.0
  0
LINE
  5
264
  8
0
  6
CONTINUOUS
 62
     7
 10
545.9726299167
 20
143.664752578
 30
0.0
 11
545.9726299167
 21
208.9576457968
 31
0.0
  0
LINE
  5
265
  8
0
  6
CONTINUOUS
 62
     7
 10
545.9726299167
 20
219.9576457968
 30
0.0
 11
545.9726299167
 21
342.2505390156
 31
0.0
  0
LINE
  5
266
  8
0
  6
CONTINUOUS
 62
     7
 10
545.9726299167
 20
342.2505390156
 30
0.0
 11
546.4726299167
 21
342.4576457968
 31
0.0
  0
LINE
  5
267
  8
0
  6
CONTINUOUS
 62
     7
 10
545.9726299167
 20
143.664752578
 30
0.0
 11
546.4726299167
 21
143.4576457968
 31
0.0
  0
LINE
  5
268
  8
0
  6
CONTINUOUS
 62
     7
 10
545.9726299167
 20
140.9576457968
 30
0.0
 11
545.9726299167
 21
143.664752578
 31
0.0
  0
LINE
  5
269
  8
0
  6
CONTINUOUS
 62
     7
 10
546.4726299167
 20
140.4576457968
 30
0.0
 11
545.9726299167
 21
140.9576457968
 31
0.0
  0
LINE
  5
26A
  8
0
  6
CONTINUOUS
 62
     7
 10
545.9726299167
 20
342.2505390156
 30
0.0
 11
545.9726299167
 21
344.9576457968
 31
0.0
  0
LINE
  5
26B
  8
0
  6
CONTINUOUS
 62
     7
 10
545.9726299167
 20
344.9576457968
 30
0.0
 11
546.4726299167
 21
345.4576457968
 31
0.0
  0
DIMENSION
  5
26C
  8
DIM
  2
_D_9
 10
597.7134241816
 20
345.4576457968
 30
0.0
 11
597.7134241816
 21
242.9576457968
 31
0.0
 70
   160
  1
<>
  3
SLDDIMSTYLE0
 13
557.4726299167
 23
140.4576457968
 33
0.0
 14
557.4726299167
 24
345.4576457968
 34
0.0
 50
90.0
  0
DIMENSION
  5
276
  8
DIM
  2
_D_10
 10
388.2043920982
 20
220.4576457968
 30
0.0
 11
388.2043920982
 21
282.9576457968
 31
0.0
 70
   160
  1
<>
  3
SLDDIMSTYLE0
 13
546.4726299167
 23
345.4576457968
 33
0.0
 14
410.9726299167
 24
220.4576457968
 34
0.0
 50
90.0
  0
DIMENSION
  5
280
  8
DIM
  2
_D_11
 10
388.2043920982
 20
208.4576457968
 30
0.0
 11
388.2043920982
 21
214.4576457968
 31
0.0
 70
   160
  1
<>
  3
SLDDIMSTYLE1
 13
410.9726299167
 23
220.4576457968
 33
0.0
 14
410.9726299167
 24
208.4576457968
 34
0.0
 50
90.0
  0
DIMENSION
  5
28C
  8
DIM
  2
_D_12
 10
465.9726299167
 20
133.6712267545
 30
0.0
 11
511.9726299167
 21
133.6712267545
 31
0.0
 70
   160
  1
<>
  3
SLDDIMSTYLE0
 13
557.9726299167
 23
140.9576457968
 33
0.0
 14
465.9726299167
 24
183.4576457968
 34
0.0
  0
DIMENSION
  5
296
  8
DIM
  2
_D_13
 10
388.2043920982
 20
208.4576457968
 30
0.0
 11
388.2043920982
 21
195.9576457968
 31
0.0
 70
   160
  1
<>
  3
SLDDIMSTYLE0
 13
465.9726299167
 23
183.4576457968
 33
0.0
 14
410.9726299167
 24
208.4576457968
 34
0.0
 50
90.0
  0
CIRCLE
  5
2A0
  8
0
  6
CONTINUOUS
 62
     7
 10
183.3246324543
 20
467.1868528765
 30
0.0
 40
4.25
  0
LINE
  5
2A1
  8
0
  6
CONTINUOUS
 62
     7
 10
185.3246324543
 20
466.0321523381
 30
0.0
 11
185.3246324543
 21
468.3415534148
 31
0.0
  0
LINE
  5
2A2
  8
0
  6
CONTINUOUS
 62
     7
 10
185.3246324543
 20
468.3415534148
 30
0.0
 11
183.3246324543
 21
469.4962539532
 31
0.0
  0
LINE
  5
2A3
  8
0
  6
CONTINUOUS
 62
     7
 10
183.3246324543
 20
469.4962539532
 30
0.0
 11
181.3246324543
 21
468.3415534148
 31
0.0
  0
LINE
  5
2A4
  8
0
  6
CONTINUOUS
 62
     7
 10
181.3246324543
 20
468.3415534148
 30
0.0
 11
181.3246324543
 21
466.0321523381
 31
0.0
  0
LINE
  5
2A5
  8
0
  6
CONTINUOUS
 62
     7
 10
181.3246324543
 20
466.0321523381
 30
0.0
 11
183.3246324543
 21
464.8774517997
 31
0.0
  0
LINE
  5
2A6
  8
0
  6
CONTINUOUS
 62
     7
 10
183.3246324543
 20
464.8774517997
 30
0.0
 11
185.3246324543
 21
466.0321523381
 31
0.0
  0
CIRCLE
  5
2A7
  8
0
  6
CONTINUOUS
 62
     7
 10
298.3246324543
 20
467.1868528765
 30
0.0
 40
4.250000000000057
  0
LINE
  5
2A8
  8
0
  6
CONTINUOUS
 62
     7
 10
300.3246324543
 20
466.0321523381
 30
0.0
 11
300.3246324543
 21
468.3415534148
 31
0.0
  0
LINE
  5
2A9
  8
0
  6
CONTINUOUS
 62
     7
 10
300.3246324543
 20
468.3415534148
 30
0.0
 11
298.3246324543
 21
469.4962539532
 31
0.0
  0
LINE
  5
2AA
  8
0
  6
CONTINUOUS
 62
     7
 10
298.3246324543
 20
469.4962539532
 30
0.0
 11
296.3246324543
 21
468.3415534148
 31
0.0
  0
LINE
  5
2AB
  8
0
  6
CONTINUOUS
 62
     7
 10
296.3246324543
 20
468.3415534148
 30
0.0
 11
296.3246324543
 21
466.0321523381
 31
0.0
  0
LINE
  5
2AC
  8
0
  6
CONTINUOUS
 62
     7
 10
296.3246324543
 20
466.0321523381
 30
0.0
 11
298.3246324543
 21
464.8774517997
 31
0.0
  0
LINE
  5
2AD
  8
0
  6
CONTINUOUS
 62
     7
 10
298.3246324543
 20
464.8774517997
 30
0.0
 11
300.3246324543
 21
466.0321523381
 31
0.0
  0
CIRCLE
  5
2AE
  8
0
  6
CONTINUOUS
 62
     7
 10
298.3246324542
 20
447.1868528765
 30
0.0
 40
4.25
  0
LINE
  5
2AF
  8
0
  6
CONTINUOUS
 62
     7
 10
300.3246324542
 20
446.0321523381
 30
0.0
 11
300.3246324542
 21
448.3415534148
 31
0.0
  0
LINE
  5
2B0
  8
0
  6
CONTINUOUS
 62
     7
 10
300.3246324542
 20
448.3415534148
 30
0.0
 11
298.3246324542
 21
449.4962539532
 31
0.0
  0
LINE
  5
2B1
  8
0
  6
CONTINUOUS
 62
     7
 10
298.3246324542
 20
449.4962539532
 30
0.0
 11
296.3246324542
 21
448.3415534148
 31
0.0
  0
LINE
  5
2B2
  8
0
  6
CONTINUOUS
 62
     7
 10
296.3246324542
 20
448.3415534148
 30
0.0
 11
296.3246324542
 21
446.0321523381
 31
0.0
  0
LINE
  5
2B3
  8
0
  6
CONTINUOUS
 62
     7
 10
296.3246324542
 20
446.0321523381
 30
0.0
 11
298.3246324542
 21
444.8774517997
 31
0.0
  0
LINE
  5
2B4
  8
0
  6
CONTINUOUS
 62
     7
 10
298.3246324542
 20
444.8774517997
 30
0.0
 11
300.3246324542
 21
446.0321523381
 31
0.0
  0
CIRCLE
  5
2B5
  8
0
  6
CONTINUOUS
 62
     7
 10
183.3246324542
 20
447.1868528765
 30
0.0
 40
4.25
  0
LINE
  5
2B6
  8
0
  6
CONTINUOUS
 62
     7
 10
185.3246324542
 20
446.0321523381
 30
0.0
 11
185.3246324542
 21
448.3415534148
 31
0.0
  0
LINE
  5
2B7
  8
0
  6
CONTINUOUS
 62
     7
 10
185.3246324542
 20
448.3415534148
 30
0.0
 11
183.3246324542
 21
449.4962539532
 31
0.0
  0
LINE
  5
2B8
  8
0
  6
CONTINUOUS
 62
     7
 10
183.3246324542
 20
449.4962539532
 30
0.0
 11
181.3246324542
 21
448.3415534148
 31
0.0
  0
LINE
  5
2B9
  8
0
  6
CONTINUOUS
 62
     7
 10
181.3246324542
 20
448.3415534148
 30
0.0
 11
181.3246324542
 21
446.0321523381
 31
0.0
  0
LINE
  5
2BA
  8
0
  6
CONTINUOUS
 62
     7
 10
181.3246324542
 20
446.0321523381
 30
0.0
 11
183.3246324543
 21
444.8774517997
 31
0.0
  0
LINE
  5
2BB
  8
0
  6
CONTINUOUS
 62
     7
 10
183.3246324543
 20
444.8774517997
 30
0.0
 11
185.3246324542
 21
446.0321523381
 31
0.0
  0
LINE
  5
2BC
  8
0
  6
CONTINUOUS
 62
     7
 10
305.3246324543
 20
506.6868528765
 30
0.0
 11
176.3246324543
 21
506.6868528765
 31
0.0
  0
LINE
  5
2BD
  8
0
  6
CONTINUOUS
 62
     7
 10
175.8246324543
 20
507.1868528765
 30
0.0
 11
176.3246324543
 21
506.6868528765
 31
0.0
  0
LINE
  5
2BE
  8
0
  6
CONTINUOUS
 62
     7
 10
175.8246324543
 20
507.1868528765
 30
0.0
 11
176.3246324543
 21
507.1868528765
 31
0.0
  0
LINE
  5
2BF
  8
0
  6
CONTINUOUS
 62
     7
 10
305.3246324543
 20
507.1868528765
 30
0.0
 11
305.8246324543
 21
507.1868528765
 31
0.0
  0
LINE
  5
2C0
  8
0
  6
CONTINUOUS
 62
     7
 10
305.3246324543
 20
506.6868528765
 30
0.0
 11
305.8246324543
 21
507.1868528765
 31
0.0
  0
ARC
  5
2C1
  8
0
  6
CONTINUOUS
 62
     7
 10
295.8246324542
 20
372.1868528765
 30
0.0
 40
9.500000000000057
 50
270.0
 51
360.0
  0
ARC
  5
2C2
  8
0
  6
CONTINUOUS
 62
     7
 10
295.8246324542
 20
372.1868528765
 30
0.0
 40
10.00000000000006
 50
270.0
 51
360.0
  0
LINE
  5
2C3
  8
0
  6
CONTINUOUS
 62
     7
 10
305.3246324542
 20
372.1868528765
 30
0.0
 11
305.3246324543
 21
506.6868528765
 31
0.0
  0
LINE
  5
2C4
  8
0
  6
CONTINUOUS
 62
     7
 10
305.8246324543
 20
507.1868528765
 30
0.0
 11
305.8246324542
 21
372.1868528765
 31
0.0
  0
CIRCLE
  5
2C5
  8
0
  6
CONTINUOUS
 62
     7
 10
298.3246324542
 20
447.1868528765
 30
0.0
 40
5.500000000000057
  0
CIRCLE
  5
2C6
  8
0
  6
CONTINUOUS
 62
     7
 10
298.3246324543
 20
467.1868528765
 30
0.0
 40
5.500000000000057
  0
CIRCLE
  5
2C7
  8
0
  6
CONTINUOUS
 62
     7
 10
183.3246324542
 20
447.1868528765
 30
0.0
 40
5.500000000000028
  0
CIRCLE
  5
2C8
  8
0
  6
CONTINUOUS
 62
     7
 10
183.3246324543
 20
467.1868528765
 30
0.0
 40
5.500000000000028
  0
CIRCLE
  5
2C9
  8
0
  6
CONTINUOUS
 62
     7
 10
280.8246324542
 20
387.1868528765
 30
0.0
 40
3.0
  0
CIRCLE
  5
2CA
  8
0
  6
CONTINUOUS
 62
     7
 10
200.8246324543
 20
467.1868528765
 30
0.0
 40
3.000000000000028
  0
CIRCLE
  5
2CB
  8
0
  6
CONTINUOUS
 62
     7
 10
280.8246324543
 20
467.1868528765
 30
0.0
 40
3.0
  0
CIRCLE
  5
2CC
  8
0
  6
CONTINUOUS
 62
     7
 10
200.8246324542
 20
387.1868528765
 30
0.0
 40
3.0
  0
CIRCLE
  5
2CD
  8
0
  6
CONTINUOUS
 62
     7
 10
295.8246324542
 20
372.1868528765
 30
0.0
 40
3.900000000000034
  0
CIRCLE
  5
2CE
  8
0
  6
CONTINUOUS
 62
     7
 10
185.8246324543
 20
482.1868528765
 30
0.0
 40
3.899999999999977
  0
CIRCLE
  5
2CF
  8
0
  6
CONTINUOUS
 62
     7
 10
295.8246324543
 20
482.1868528765
 30
0.0
 40
3.899999999999977
  0
LINE
  5
2D0
  8
0
  6
CONTINUOUS
 62
     7
 10
185.8246324542
 20
362.6868528765
 30
0.0
 11
295.8246324542
 21
362.6868528765
 31
0.0
  0
ARC
  5
2D1
  8
0
  6
CONTINUOUS
 62
     7
 10
185.8246324542
 20
372.1868528765
 30
0.0
 40
9.499999999999972
 50
180.0
 51
270.0
  0
LINE
  5
2D2
  8
0
  6
CONTINUOUS
 62
     7
 10
176.3246324543
 20
506.6868528765
 30
0.0
 11
176.3246324542
 21
372.1868528765
 31
0.0
  0
CIRCLE
  5
2D3
  8
0
  6
CONTINUOUS
 62
     7
 10
240.8246324542
 20
427.1868528765
 30
0.0
 40
31.5
  0
CIRCLE
  5
2D4
  8
0
  6
CONTINUOUS
 62
     7
 10
185.8246324542
 20
372.1868528765
 30
0.0
 40
3.900000000000034
  0
CIRCLE
  5
2D5
  8
0
  6
CONTINUOUS
 62
     7
 10
298.3246324542
 20
447.1868528765
 30
0.0
 40
5.000000000000057
  0
CIRCLE
  5
2D6
  8
0
  6
CONTINUOUS
 62
     7
 10
298.3246324543
 20
467.1868528765
 30
0.0
 40
5.0
  0
CIRCLE
  5
2D7
  8
0
  6
CONTINUOUS
 62
     7
 10
295.8246324543
 20
482.1868528765
 30
0.0
 40
3.399999999999977
  0
CIRCLE
  5
2D8
  8
0
  6
CONTINUOUS
 62
     7
 10
295.8246324542
 20
372.1868528765
 30
0.0
 40
3.400000000000034
  0
LINE
  5
2D9
  8
0
  6
CONTINUOUS
 62
     7
 10
295.8246324542
 20
362.1868528765
 30
0.0
 11
185.8246324542
 21
362.1868528765
 31
0.0
  0
CIRCLE
  5
2DA
  8
0
  6
CONTINUOUS
 62
     7
 10
280.8246324543
 20
467.1868528765
 30
0.0
 40
2.499999999999943
  0
CIRCLE
  5
2DB
  8
0
  6
CONTINUOUS
 62
     7
 10
280.8246324542
 20
387.1868528765
 30
0.0
 40
2.499999999999943
  0
CIRCLE
  5
2DC
  8
0
  6
CONTINUOUS
 62
     7
 10
240.8246324542
 20
427.1868528765
 30
0.0
 40
31.0
  0
CIRCLE
  5
2DD
  8
0
  6
CONTINUOUS
 62
     7
 10
200.8246324542
 20
387.1868528765
 30
0.0
 40
2.5
  0
CIRCLE
  5
2DE
  8
0
  6
CONTINUOUS
 62
     7
 10
200.8246324543
 20
467.1868528765
 30
0.0
 40
2.5
  0
CIRCLE
  5
2DF
  8
0
  6
CONTINUOUS
 62
     7
 10
185.8246324542
 20
372.1868528765
 30
0.0
 40
3.400000000000006
  0
CIRCLE
  5
2E0
  8
0
  6
CONTINUOUS
 62
     7
 10
185.8246324543
 20
482.1868528765
 30
0.0
 40
3.399999999999977
  0
CIRCLE
  5
2E1
  8
0
  6
CONTINUOUS
 62
     7
 10
183.3246324542
 20
447.1868528765
 30
0.0
 40
5.0
  0
CIRCLE
  5
2E2
  8
0
  6
CONTINUOUS
 62
     7
 10
183.3246324543
 20
467.1868528765
 30
0.0
 40
4.999999999999972
  0
ARC
  5
2E3
  8
0
  6
CONTINUOUS
 62
     7
 10
185.8246324542
 20
372.1868528765
 30
0.0
 40
10.0
 50
180.0
 51
270.0
  0
LINE
  5
2E4
  8
0
  6
CONTINUOUS
 62
     7
 10
175.8246324542
 20
372.1868528765
 30
0.0
 11
175.8246324543
 21
507.1868528765
 31
0.0
  0
LINE
  5
2E5
  8
0
  6
CONTINUOUS
 62
     7
 10
178.8246324543
 20
507.6868528765
 30
0.0
 11
302.8246324543
 21
507.6868528765
 31
0.0
  0
LINE
  5
2E6
  8
0
  6
CONTINUOUS
 62
     7
 10
178.8246324543
 20
518.6868528765
 30
0.0
 11
178.8246324543
 21
507.6868528765
 31
0.0
  0
LINE
  5
2E7
  8
0
  6
CONTINUOUS
 62
     7
 10
302.8246324543
 20
518.6868528765
 30
0.0
 11
178.8246324543
 21
518.6868528765
 31
0.0
  0
LINE
  5
2E8
  8
0
  6
CONTINUOUS
 62
     7
 10
302.8246324543
 20
507.6868528765
 30
0.0
 11
302.8246324543
 21
518.6868528765
 31
0.0
  0
LINE
  5
2E9
  8
0
  6
CONTINUOUS
 62
     7
 10
176.3246324543
 20
519.1868528765
 30
0.0
 11
179.0317392354
 21
519.1868528765
 31
0.0
  0
LINE
  5
2EA
  8
0
  6
CONTINUOUS
 62
     7
 10
179.0317392354
 20
519.1868528765
 30
0.0
 11
178.8246324543
 21
518.6868528765
 31
0.0
  0
LINE
  5
2EB
  8
0
  6
CONTINUOUS
 62
     7
 10
178.8246324543
 20
518.6868528765
 30
0.0
 11
175.8246324543
 21
518.6868528765
 31
0.0
  0
LINE
  5
2EC
  8
0
  6
CONTINUOUS
 62
     7
 10
175.8246324543
 20
518.6868528765
 30
0.0
 11
176.3246324543
 21
519.1868528765
 31
0.0
  0
LINE
  5
2ED
  8
0
  6
CONTINUOUS
 62
     7
 10
179.0317392354
 20
519.1868528765
 30
0.0
 11
302.6175256731
 21
519.1868528765
 31
0.0
  0
LINE
  5
2EE
  8
0
  6
CONTINUOUS
 62
     7
 10
302.6175256731
 20
519.1868528765
 30
0.0
 11
302.8246324543
 21
518.6868528765
 31
0.0
  0
LINE
  5
2EF
  8
0
  6
CONTINUOUS
 62
     7
 10
175.8246324543
 20
507.6868528765
 30
0.0
 11
178.8246324543
 21
507.6868528765
 31
0.0
  0
LINE
  5
2F0
  8
0
  6
CONTINUOUS
 62
     7
 10
175.8246324543
 20
507.6868528765
 30
0.0
 11
175.8246324543
 21
518.6868528765
 31
0.0
  0
LINE
  5
2F1
  8
0
  6
CONTINUOUS
 62
     7
 10
302.6175256731
 20
519.1868528765
 30
0.0
 11
305.3246324543
 21
519.1868528765
 31
0.0
  0
LINE
  5
2F2
  8
0
  6
CONTINUOUS
 62
     7
 10
305.3246324543
 20
519.1868528765
 30
0.0
 11
305.8246324543
 21
518.6868528765
 31
0.0
  0
LINE
  5
2F3
  8
0
  6
CONTINUOUS
 62
     7
 10
305.8246324543
 20
518.6868528765
 30
0.0
 11
302.8246324543
 21
518.6868528765
 31
0.0
  0
LINE
  5
2F4
  8
0
  6
CONTINUOUS
 62
     7
 10
302.8246324543
 20
507.6868528765
 30
0.0
 11
305.8246324543
 21
507.6868528765
 31
0.0
  0
LINE
  5
2F5
  8
0
  6
CONTINUOUS
 62
     7
 10
305.8246324543
 20
518.6868528765
 30
0.0
 11
305.8246324543
 21
507.6868528765
 31
0.0
  0
LINE
  5
2F6
  8
0
  6
CONTINUOUS
 62
     7
 10
179.0317392354
 20
507.1868528765
 30
0.0
 11
176.3246324543
 21
507.1868528765
 31
0.0
  0
LINE
  5
2F7
  8
0
  6
CONTINUOUS
 62
     7
 10
175.8246324543
 20
507.6868528765
 30
0.0
 11
176.3246324543
 21
507.1868528765
 31
0.0
  0
LINE
  5
2F8
  8
0
  6
CONTINUOUS
 62
     7
 10
179.0317392354
 20
507.1868528765
 30
0.0
 11
178.8246324543
 21
507.6868528765
 31
0.0
  0
LINE
  5
2F9
  8
0
  6
CONTINUOUS
 62
     7
 10
305.3246324543
 20
507.1868528765
 30
0.0
 11
302.6175256731
 21
507.1868528765
 31
0.0
  0
LINE
  5
2FA
  8
0
  6
CONTINUOUS
 62
     7
 10
302.6175256731
 20
507.1868528765
 30
0.0
 11
302.8246324543
 21
507.6868528765
 31
0.0
  0
LINE
  5
2FB
  8
0
  6
CONTINUOUS
 62
     7
 10
305.3246324543
 20
507.1868528765
 30
0.0
 11
305.8246324543
 21
507.6868528765
 31
0.0
  0
LINE
  5
2FC
  8
0
  6
CONTINUOUS
 62
     7
 10
302.6175256731
 20
507.1868528765
 30
0.0
 11
179.0317392354
 21
507.1868528765
 31
0.0
  0
DIMENSION
  5
2FD
  8
DIM
  2
_D_14
 10
305.8246324543
 20
552.4416326814
 30
0.0
 11
240.8246324543
 21
552.4416326814
 31
0.0
 70
   160
  1
<>
  3
SLDDIMSTYLE0
 13
175.8246324543
 23
518.6868528765
 33
0.0
 14
305.8246324543
 24
518.6868528765
 34
0.0
  0
DIMENSION
  5
307
  8
DIM
  2
_D_15
 10
352.1519176914
 20
362.1868528765
 30
0.0
 11
352.1519176914
 21
440.6868528765
 31
0.0
 70
   160
  1
<>
  3
SLDDIMSTYLE0
 13
305.3246324543
 23
519.1868528765
 33
0.0
 14
295.8246324542
 24
362.1868528765
 34
0.0
 50
90.0
  0
DIMENSION
  5
311
  8
DIM
  2
_D_16
 10
295.8246324543
 20
541.0268235561
 30
0.0
 11
240.8246324543
 21
541.0268235561
 31
0.0
 70
   160
  1
<>
  3
SLDDIMSTYLE0
 13
185.8246324543
 23
491.0868528765
 33
0.0
 14
295.8246324543
 24
491.0868528765
 34
0.0
  0
DIMENSION
  5
31B
  8
DIM
  2
_D_17
 10
337.1093647977
 20
372.1868528765
 30
0.0
 11
337.1093647977
 21
427.1868528765
 31
0.0
 70
   160
  1
<>
  3
SLDDIMSTYLE0
 13
304.7246324543
 23
482.1868528765
 33
0.0
 14
304.7246324542
 24
372.1868528765
 34
0.0
 50
90.0
  0
DIMENSION
  5
325
  8
DIM
  2
_D_18
 10
202.8611784206
 20
385.7368595913
 30
0.0
 11
131.1974839986
 21
412.0745083456
 31
0.0
 70
   163
  1
4x<>H8 深さ4
  3
SLDDIMSTYLE2
 15
198.7880864879
 25
388.6368461616
 35
0.0
 40
0.0
  0
DIMENSION
  5
33C
  8
DIM
  2
_D_19
 10
323.8719182511
 20
387.1868528765
 30
0.0
 11
323.8719182511
 21
427.1868528765
 31
0.0
 70
   160
  1
<>
  3
SLDDIMSTYLE0
 13
288.8246324543
 23
467.1868528765
 33
0.0
 14
288.8246324542
 24
387.1868528765
 34
0.0
 50
90.0
  0
DIMENSION
  5
346
  8
DIM
  2
_D_20
 10
280.8246324543
 20
529.8403106133
 30
0.0
 11
240.8246324543
 21
529.8403106133
 31
0.0
 70
   160
  1
<>
  3
SLDDIMSTYLE0
 13
200.8246324543
 23
475.1868528765
 33
0.0
 14
280.8246324543
 24
475.1868528765
 34
0.0
  0
INSERT
  5
357
  8
TXT
  2
SW_NOTE_0_1
 10
182.3349668183
 20
370.4455218483
 30
0.0
  0
INSERT
  5
363
  8
DIM
  2
SW_CENTERMARKSYMBOL_16
 10
240.8246324542
 20
427.1868528765
 30
0.0
  0
INSERT
  5
36F
  8
DIM
  2
SW_CENTERMARKSYMBOL_17
 10
185.8246324543
 20
482.1868528765
 30
0.0
  0
INSERT
  5
37B
  8
DIM
  2
SW_CENTERMARKSYMBOL_18
 10
295.8246324543
 20
482.1868528765
 30
0.0
  0
INSERT
  5
387
  8
DIM
  2
SW_CENTERMARKSYMBOL_19
 10
280.8246324543
 20
467.1868528765
 30
0.0
  0
INSERT
  5
393
  8
DIM
  2
SW_CENTERMARKSYMBOL_20
 10
200.8246324543
 20
467.1868528765
 30
0.0
  0
INSERT
  5
39F
  8
DIM
  2
SW_CENTERMARKSYMBOL_21
 10
200.8246324542
 20
387.1868528765
 30
0.0
  0
INSERT
  5
3AB
  8
DIM
  2
SW_CENTERMARKSYMBOL_22
 10
280.8246324542
 20
387.1868528765
 30
0.0
  0
INSERT
  5
3B7
  8
DIM
  2
SW_CENTERMARKSYMBOL_23
 10
185.8246324542
 20
372.1868528765
 30
0.0
  0
INSERT
  5
3C3
  8
DIM
  2
SW_CENTERMARKSYMBOL_24
 10
295.8246324542
 20
372.1868528765
 30
0.0
  0
LINE
  5
3C4
  8
0
  6
CONTINUOUS
 62
     7
 10
740.7179471699
 20
216.2171207422
 30
0.0
 11
740.7179471699
 21
212.6981708515
 31
0.0
  0
LINE
  5
3C5
  8
0
  6
CONTINUOUS
 62
     7
 10
740.7179471699
 20
212.6981708515
 30
0.0
 11
743.7654471699
 21
210.9386959061
 31
0.0
  0
LINE
  5
3C6
  8
0
  6
CONTINUOUS
 62
     7
 10
743.7654471699
 20
210.9386959061
 30
0.0
 11
746.8129471699
 21
212.6981708515
 31
0.0
  0
LINE
  5
3C7
  8
0
  6
CONTINUOUS
 62
     7
 10
746.8129471699
 20
212.6981708515
 30
0.0
 11
746.8129471699
 21
216.2171207422
 31
0.0
  0
LINE
  5
3C8
  8
0
  6
CONTINUOUS
 62
     7
 10
746.8129471699
 20
216.2171207422
 30
0.0
 11
743.7654471699
 21
217.9765956875
 31
0.0
  0
LINE
  5
3C9
  8
0
  6
CONTINUOUS
 62
     7
 10
743.7654471699
 20
217.9765956875
 30
0.0
 11
740.7179471699
 21
216.2171207422
 31
0.0
  0
CIRCLE
  5
3CA
  8
0
  6
CONTINUOUS
 62
     7
 10
743.7654471699
 20
214.4576457968
 30
0.0
 40
6.5
  0
LINE
  5
3CB
  8
0
  6
CONTINUOUS
 62
     7
 10
660.7179471699
 20
216.2171207422
 30
0.0
 11
660.7179471699
 21
212.6981708515
 31
0.0
  0
LINE
  5
3CC
  8
0
  6
CONTINUOUS
 62
     7
 10
660.7179471699
 20
212.6981708515
 30
0.0
 11
663.7654471699
 21
210.9386959061
 31
0.0
  0
LINE
  5
3CD
  8
0
  6
CONTINUOUS
 62
     7
 10
663.7654471699
 20
210.9386959061
 30
0.0
 11
666.8129471699
 21
212.6981708515
 31
0.0
  0
LINE
  5
3CE
  8
0
  6
CONTINUOUS
 62
     7
 10
666.8129471699
 20
212.6981708515
 30
0.0
 11
666.8129471699
 21
216.2171207422
 31
0.0
  0
LINE
  5
3CF
  8
0
  6
CONTINUOUS
 62
     7
 10
666.8129471699
 20
216.2171207422
 30
0.0
 11
663.7654471699
 21
217.9765956875
 31
0.0
  0
LINE
  5
3D0
  8
0
  6
CONTINUOUS
 62
     7
 10
663.7654471699
 20
217.9765956875
 30
0.0
 11
660.7179471699
 21
216.2171207422
 31
0.0
  0
CIRCLE
  5
3D1
  8
0
  6
CONTINUOUS
 62
     7
 10
663.7654471699
 20
214.4576457968
 30
0.0
 40
6.5
  0
LINE
  5
3D2
  8
0
  6
CONTINUOUS
 62
     7
 10
700.7179471699
 20
216.2171207422
 30
0.0
 11
700.7179471699
 21
212.6981708515
 31
0.0
  0
LINE
  5
3D3
  8
0
  6
CONTINUOUS
 62
     7
 10
700.7179471699
 20
212.6981708515
 30
0.0
 11
703.7654471699
 21
210.9386959061
 31
0.0
  0
LINE
  5
3D4
  8
0
  6
CONTINUOUS
 62
     7
 10
703.7654471699
 20
210.9386959061
 30
0.0
 11
706.8129471699
 21
212.6981708515
 31
0.0
  0
LINE
  5
3D5
  8
0
  6
CONTINUOUS
 62
     7
 10
706.8129471699
 20
212.6981708515
 30
0.0
 11
706.8129471699
 21
216.2171207422
 31
0.0
  0
LINE
  5
3D6
  8
0
  6
CONTINUOUS
 62
     7
 10
706.8129471699
 20
216.2171207422
 30
0.0
 11
703.7654471699
 21
217.9765956875
 31
0.0
  0
LINE
  5
3D7
  8
0
  6
CONTINUOUS
 62
     7
 10
703.7654471699
 20
217.9765956875
 30
0.0
 11
700.7179471699
 21
216.2171207422
 31
0.0
  0
CIRCLE
  5
3D8
  8
0
  6
CONTINUOUS
 62
     7
 10
703.7654471699
 20
214.4576457968
 30
0.0
 40
6.5
  0
LINE
  5
3D9
  8
0
  6
CONTINUOUS
 62
     7
 10
644.2654471699
 20
159.6123463352
 30
0.0
 11
644.2654471699
 21
157.3029452584
 31
0.0
  0
LINE
  5
3DA
  8
0
  6
CONTINUOUS
 62
     7
 10
644.2654471699
 20
157.3029452584
 30
0.0
 11
646.2654471699
 21
156.1482447201
 31
0.0
  0
LINE
  5
3DB
  8
0
  6
CONTINUOUS
 62
     7
 10
646.2654471699
 20
156.1482447201
 30
0.0
 11
648.2654471699
 21
157.3029452584
 31
0.0
  0
LINE
  5
3DC
  8
0
  6
CONTINUOUS
 62
     7
 10
648.2654471699
 20
157.3029452584
 30
0.0
 11
648.2654471699
 21
159.6123463352
 31
0.0
  0
LINE
  5
3DD
  8
0
  6
CONTINUOUS
 62
     7
 10
648.2654471699
 20
159.6123463352
 30
0.0
 11
646.2654471699
 21
160.7670468736
 31
0.0
  0
LINE
  5
3DE
  8
0
  6
CONTINUOUS
 62
     7
 10
646.2654471699
 20
160.7670468736
 30
0.0
 11
644.2654471699
 21
159.6123463352
 31
0.0
  0
CIRCLE
  5
3DF
  8
0
  6
CONTINUOUS
 62
     7
 10
646.2654471699
 20
158.4576457968
 30
0.0
 40
4.25
  0
LINE
  5
3E0
  8
0
  6
CONTINUOUS
 62
     7
 10
644.2654471699
 20
184.6123463352
 30
0.0
 11
644.2654471699
 21
182.3029452584
 31
0.0
  0
LINE
  5
3E1
  8
0
  6
CONTINUOUS
 62
     7
 10
644.2654471699
 20
182.3029452584
 30
0.0
 11
646.2654471699
 21
181.1482447201
 31
0.0
  0
LINE
  5
3E2
  8
0
  6
CONTINUOUS
 62
     7
 10
646.2654471699
 20
181.1482447201
 30
0.0
 11
648.2654471699
 21
182.3029452584
 31
0.0
  0
LINE
  5
3E3
  8
0
  6
CONTINUOUS
 62
     7
 10
648.2654471699
 20
182.3029452584
 30
0.0
 11
648.2654471699
 21
184.6123463352
 31
0.0
  0
LINE
  5
3E4
  8
0
  6
CONTINUOUS
 62
     7
 10
648.2654471699
 20
184.6123463352
 30
0.0
 11
646.2654471699
 21
185.7670468736
 31
0.0
  0
LINE
  5
3E5
  8
0
  6
CONTINUOUS
 62
     7
 10
646.2654471699
 20
185.7670468736
 30
0.0
 11
644.2654471699
 21
184.6123463352
 31
0.0
  0
CIRCLE
  5
3E6
  8
0
  6
CONTINUOUS
 62
     7
 10
646.2654471699
 20
183.4576457968
 30
0.0
 40
4.249999999999886
  0
LINE
  5
3E7
  8
0
  6
CONTINUOUS
 62
     7
 10
759.2654471699
 20
159.6123463352
 30
0.0
 11
759.2654471699
 21
157.3029452584
 31
0.0
  0
LINE
  5
3E8
  8
0
  6
CONTINUOUS
 62
     7
 10
759.2654471699
 20
157.3029452584
 30
0.0
 11
761.2654471699
 21
156.1482447201
 31
0.0
  0
LINE
  5
3E9
  8
0
  6
CONTINUOUS
 62
     7
 10
761.2654471699
 20
156.1482447201
 30
0.0
 11
763.2654471699
 21
157.3029452584
 31
0.0
  0
LINE
  5
3EA
  8
0
  6
CONTINUOUS
 62
     7
 10
763.2654471699
 20
157.3029452584
 30
0.0
 11
763.2654471699
 21
159.6123463352
 31
0.0
  0
LINE
  5
3EB
  8
0
  6
CONTINUOUS
 62
     7
 10
763.2654471699
 20
159.6123463352
 30
0.0
 11
761.2654471699
 21
160.7670468736
 31
0.0
  0
LINE
  5
3EC
  8
0
  6
CONTINUOUS
 62
     7
 10
761.2654471699
 20
160.7670468736
 30
0.0
 11
759.2654471699
 21
159.6123463352
 31
0.0
  0
CIRCLE
  5
3ED
  8
0
  6
CONTINUOUS
 62
     7
 10
761.2654471699
 20
158.4576457968
 30
0.0
 40
4.249999999999886
  0
LINE
  5
3EE
  8
0
  6
CONTINUOUS
 62
     7
 10
759.2654471699
 20
184.6123463352
 30
0.0
 11
759.2654471699
 21
182.3029452584
 31
0.0
  0
LINE
  5
3EF
  8
0
  6
CONTINUOUS
 62
     7
 10
759.2654471699
 20
182.3029452584
 30
0.0
 11
761.2654471699
 21
181.1482447201
 31
0.0
  0
LINE
  5
3F0
  8
0
  6
CONTINUOUS
 62
     7
 10
761.2654471699
 20
181.1482447201
 30
0.0
 11
763.2654471699
 21
182.3029452584
 31
0.0
  0
LINE
  5
3F1
  8
0
  6
CONTINUOUS
 62
     7
 10
763.2654471699
 20
182.3029452584
 30
0.0
 11
763.2654471699
 21
184.6123463352
 31
0.0
  0
LINE
  5
3F2
  8
0
  6
CONTINUOUS
 62
     7
 10
763.2654471699
 20
184.6123463352
 30
0.0
 11
761.2654471699
 21
185.7670468736
 31
0.0
  0
LINE
  5
3F3
  8
0
  6
CONTINUOUS
 62
     7
 10
761.2654471699
 20
185.7670468736
 30
0.0
 11
759.2654471699
 21
184.6123463352
 31
0.0
  0
CIRCLE
  5
3F4
  8
0
  6
CONTINUOUS
 62
     7
 10
761.2654471699
 20
183.4576457968
 30
0.0
 40
4.249999999999886
  0
LINE
  5
3F5
  8
0
  6
CONTINUOUS
 62
     7
 10
768.7654471699
 20
342.4576457968
 30
0.0
 11
768.7654471699
 21
143.4576457968
 31
0.0
  0
LINE
  5
3F6
  8
0
  6
CONTINUOUS
 62
     7
 10
768.7654471699
 20
143.4576457968
 30
0.0
 11
768.2654471699
 21
143.664752578
 31
0.0
  0
LINE
  5
3F7
  8
0
  6
CONTINUOUS
 62
     7
 10
768.2654471699
 20
143.664752578
 30
0.0
 11
768.2654471699
 21
342.2505390156
 31
0.0
  0
LINE
  5
3F8
  8
0
  6
CONTINUOUS
 62
     7
 10
768.7654471699
 20
342.4576457968
 30
0.0
 11
768.2654471699
 21
342.2505390156
 31
0.0
  0
LINE
  5
3F9
  8
0
  6
CONTINUOUS
 62
     7
 10
768.2654471699
 20
342.2505390156
 30
0.0
 11
765.5583403887
 21
344.9576457968
 31
0.0
  0
LINE
  5
3FA
  8
0
  6
CONTINUOUS
 62
     7
 10
765.5583403887
 20
344.9576457968
 30
0.0
 11
765.7654471699
 21
345.4576457968
 31
0.0
  0
LINE
  5
3FB
  8
0
  6
CONTINUOUS
 62
     7
 10
765.7654471699
 20
345.4576457968
 30
0.0
 11
768.7654471699
 21
342.4576457968
 31
0.0
  0
LINE
  5
3FC
  8
0
  6
CONTINUOUS
 62
     7
 10
768.7654471699
 20
143.4576457968
 30
0.0
 11
765.7654471699
 21
140.4576457968
 31
0.0
  0
LINE
  5
3FD
  8
0
  6
CONTINUOUS
 62
     7
 10
765.7654471699
 20
140.4576457968
 30
0.0
 11
765.5583403887
 21
140.9576457968
 31
0.0
  0
LINE
  5
3FE
  8
0
  6
CONTINUOUS
 62
     7
 10
765.5583403887
 20
140.9576457968
 30
0.0
 11
768.2654471699
 21
143.664752578
 31
0.0
  0
ARC
  5
3FF
  8
0
  6
CONTINUOUS
 62
     7
 10
663.2654471699
 20
237.9576457968
 30
0.0
 40
3.0
 50
90.0
 51
270.0
  0
LINE
  5
400
  8
0
  6
CONTINUOUS
 62
     7
 10
664.2654471699
 20
234.9576457968
 30
0.0
 11
663.2654471699
 21
234.9576457968
 31
0.0
  0
ARC
  5
401
  8
0
  6
CONTINUOUS
 62
     7
 10
664.2654471699
 20
237.9576457968
 30
0.0
 40
3.0
 50
270.0
 51
90.0
  0
LINE
  5
402
  8
0
  6
CONTINUOUS
 62
     7
 10
663.2654471699
 20
240.9576457968
 30
0.0
 11
664.2654471699
 21
240.9576457968
 31
0.0
  0
LINE
  5
403
  8
0
  6
CONTINUOUS
 62
     7
 10
641.9725539511
 20
344.9576457968
 30
0.0
 11
639.2654471699
 21
342.2505390156
 31
0.0
  0
LINE
  5
404
  8
0
  6
CONTINUOUS
 62
     7
 10
765.5583403887
 20
344.9576457968
 30
0.0
 11
641.9725539511
 21
344.9576457968
 31
0.0
  0
LINE
  5
405
  8
0
  6
CONTINUOUS
 62
     7
 10
641.9725539511
 20
140.9576457968
 30
0.0
 11
765.5583403887
 21
140.9576457968
 31
0.0
  0
LINE
  5
406
  8
0
  6
CONTINUOUS
 62
     7
 10
639.2654471699
 20
143.664752578
 30
0.0
 11
641.9725539511
 21
140.9576457968
 31
0.0
  0
LINE
  5
407
  8
0
  6
CONTINUOUS
 62
     7
 10
639.2654471699
 20
342.2505390156
 30
0.0
 11
639.2654471699
 21
143.664752578
 31
0.0
  0
CIRCLE
  5
408
  8
0
  6
CONTINUOUS
 62
     7
 10
733.7654471699
 20
147.9576457968
 30
0.0
 40
3.249999999999886
  0
CIRCLE
  5
409
  8
0
  6
CONTINUOUS
 62
     7
 10
673.7654471699
 20
147.9576457968
 30
0.0
 40
3.250000000000114
  0
CIRCLE
  5
40A
  8
0
  6
CONTINUOUS
 62
     7
 10
653.7654471699
 20
337.9576457968
 30
0.0
 40
3.25
  0
CIRCLE
  5
40B
  8
0
  6
CONTINUOUS
 62
     7
 10
673.7654471699
 20
337.9576457968
 30
0.0
 40
3.250000000000114
  0
CIRCLE
  5
40C
  8
0
  6
CONTINUOUS
 62
     7
 10
733.7654471699
 20
337.9576457968
 30
0.0
 40
3.249999999999886
  0
CIRCLE
  5
40D
  8
0
  6
CONTINUOUS
 62
     7
 10
753.7654471699
 20
337.9576457968
 30
0.0
 40
3.25
  0
CIRCLE
  5
40E
  8
0
  6
CONTINUOUS
 62
     7
 10
673.7654471699
 20
197.9576457968
 30
0.0
 40
3.250000000000114
  0
CIRCLE
  5
40F
  8
0
  6
CONTINUOUS
 62
     7
 10
733.7654471699
 20
197.9576457968
 30
0.0
 40
3.249999999999886
  0
CIRCLE
  5
410
  8
0
  6
CONTINUOUS
 62
     7
 10
663.7654471699
 20
247.9576457968
 30
0.0
 40
3.25
  0
CIRCLE
  5
411
  8
0
  6
CONTINUOUS
 62
     7
 10
663.7654471699
 20
227.9576457968
 30
0.0
 40
3.25
  0
CIRCLE
  5
412
  8
0
  6
CONTINUOUS
 62
     7
 10
743.7654471699
 20
227.9576457968
 30
0.0
 40
3.25
  0
CIRCLE
  5
413
  8
0
  6
CONTINUOUS
 62
     7
 10
743.7654471699
 20
247.9576457968
 30
0.0
 40
3.249999999999886
  0
CIRCLE
  5
414
  8
0
  6
CONTINUOUS
 62
     7
 10
653.7654471699
 20
287.9576457968
 30
0.0
 40
3.25
  0
CIRCLE
  5
415
  8
0
  6
CONTINUOUS
 62
     7
 10
673.7654471699
 20
287.9576457968
 30
0.0
 40
3.250000000000114
  0
CIRCLE
  5
416
  8
0
  6
CONTINUOUS
 62
     7
 10
733.7654471699
 20
287.9576457968
 30
0.0
 40
3.249999999999886
  0
CIRCLE
  5
417
  8
0
  6
CONTINUOUS
 62
     7
 10
753.7654471699
 20
287.9576457968
 30
0.0
 40
3.25
  0
CIRCLE
  5
418
  8
0
  6
CONTINUOUS
 62
     7
 10
743.7654471699
 20
214.4576457968
 30
0.0
 40
8.0
  0
CIRCLE
  5
419
  8
0
  6
CONTINUOUS
 62
     7
 10
703.7654471699
 20
214.4576457968
 30
0.0
 40
7.999999999999886
  0
CIRCLE
  5
41A
  8
0
  6
CONTINUOUS
 62
     7
 10
663.7654471699
 20
214.4576457968
 30
0.0
 40
8.0
  0
CIRCLE
  5
41B
  8
0
  6
CONTINUOUS
 62
     7
 10
761.2654471699
 20
158.4576457968
 30
0.0
 40
5.5
  0
CIRCLE
  5
41C
  8
0
  6
CONTINUOUS
 62
     7
 10
761.2654471699
 20
183.4576457968
 30
0.0
 40
5.5
  0
CIRCLE
  5
41D
  8
0
  6
CONTINUOUS
 62
     7
 10
646.2654471699
 20
158.4576457968
 30
0.0
 40
5.5
  0
CIRCLE
  5
41E
  8
0
  6
CONTINUOUS
 62
     7
 10
646.2654471699
 20
183.4576457968
 30
0.0
 40
5.5
  0
CIRCLE
  5
41F
  8
0
  6
CONTINUOUS
 62
     7
 10
743.7654471699
 20
237.9576457968
 30
0.0
 40
3.0
  0
CIRCLE
  5
420
  8
0
  6
CONTINUOUS
 62
     7
 10
761.2654471699
 20
158.4576457968
 30
0.0
 40
5.0
  0
CIRCLE
  5
421
  8
0
  6
CONTINUOUS
 62
     7
 10
761.2654471699
 20
183.4576457968
 30
0.0
 40
5.0
  0
LINE
  5
422
  8
0
  6
CONTINUOUS
 62
     7
 10
641.9725539511
 20
344.9576457968
 30
0.0
 11
641.7654471699
 21
345.4576457968
 31
0.0
  0
LINE
  5
423
  8
0
  6
CONTINUOUS
 62
     7
 10
641.7654471699
 20
345.4576457968
 30
0.0
 11
765.7654471699
 21
345.4576457968
 31
0.0
  0
LINE
  5
424
  8
0
  6
CONTINUOUS
 62
     7
 10
765.7654471699
 20
140.4576457968
 30
0.0
 11
641.7654471699
 21
140.4576457968
 31
0.0
  0
LINE
  5
425
  8
0
  6
CONTINUOUS
 62
     7
 10
641.7654471699
 20
140.4576457968
 30
0.0
 11
641.9725539511
 21
140.9576457968
 31
0.0
  0
CIRCLE
  5
426
  8
0
  6
CONTINUOUS
 62
     7
 10
753.7654471699
 20
337.9576457968
 30
0.0
 40
2.749999999999886
  0
CIRCLE
  5
427
  8
0
  6
CONTINUOUS
 62
     7
 10
753.7654471699
 20
287.9576457968
 30
0.0
 40
2.749999999999886
  0
CIRCLE
  5
428
  8
0
  6
CONTINUOUS
 62
     7
 10
743.7654471699
 20
214.4576457968
 30
0.0
 40
7.5
  0
CIRCLE
  5
429
  8
0
  6
CONTINUOUS
 62
     7
 10
743.7654471699
 20
227.9576457968
 30
0.0
 40
2.75
  0
CIRCLE
  5
42A
  8
0
  6
CONTINUOUS
 62
     7
 10
743.7654471699
 20
247.9576457968
 30
0.0
 40
2.749999999999886
  0
CIRCLE
  5
42B
  8
0
  6
CONTINUOUS
 62
     7
 10
743.7654471699
 20
237.9576457968
 30
0.0
 40
2.499999999999886
  0
CIRCLE
  5
42C
  8
0
  6
CONTINUOUS
 62
     7
 10
733.7654471699
 20
147.9576457968
 30
0.0
 40
2.749999999999886
  0
CIRCLE
  5
42D
  8
0
  6
CONTINUOUS
 62
     7
 10
733.7654471699
 20
337.9576457968
 30
0.0
 40
2.749999999999886
  0
CIRCLE
  5
42E
  8
0
  6
CONTINUOUS
 62
     7
 10
733.7654471699
 20
287.9576457968
 30
0.0
 40
2.749999999999886
  0
CIRCLE
  5
42F
  8
0
  6
CONTINUOUS
 62
     7
 10
733.7654471699
 20
197.9576457968
 30
0.0
 40
2.749999999999886
  0
CIRCLE
  5
430
  8
0
  6
CONTINUOUS
 62
     7
 10
703.7654471699
 20
214.4576457968
 30
0.0
 40
7.5
  0
CIRCLE
  5
431
  8
0
  6
CONTINUOUS
 62
     7
 10
673.7654471699
 20
197.9576457968
 30
0.0
 40
2.75
  0
CIRCLE
  5
432
  8
0
  6
CONTINUOUS
 62
     7
 10
673.7654471699
 20
147.9576457968
 30
0.0
 40
2.75
  0
CIRCLE
  5
433
  8
0
  6
CONTINUOUS
 62
     7
 10
673.7654471699
 20
337.9576457968
 30
0.0
 40
2.75
  0
CIRCLE
  5
434
  8
0
  6
CONTINUOUS
 62
     7
 10
673.7654471699
 20
287.9576457968
 30
0.0
 40
2.75
  0
CIRCLE
  5
435
  8
0
  6
CONTINUOUS
 62
     7
 10
663.7654471699
 20
214.4576457968
 30
0.0
 40
7.5
  0
ARC
  5
436
  8
0
  6
CONTINUOUS
 62
     7
 10
664.2654471699
 20
237.9576457968
 30
0.0
 40
2.500000000000028
 50
270.0
 51
90.0
  0
CIRCLE
  5
437
  8
0
  6
CONTINUOUS
 62
     7
 10
663.7654471699
 20
247.9576457968
 30
0.0
 40
2.75
  0
CIRCLE
  5
438
  8
0
  6
CONTINUOUS
 62
     7
 10
663.7654471699
 20
227.9576457968
 30
0.0
 40
2.749999999999886
  0
LINE
  5
439
  8
0
  6
CONTINUOUS
 62
     7
 10
663.2654471699
 20
235.4576457968
 30
0.0
 11
664.2654471699
 21
235.4576457968
 31
0.0
  0
LINE
  5
43A
  8
0
  6
CONTINUOUS
 62
     7
 10
664.2654471699
 20
240.4576457968
 30
0.0
 11
663.2654471699
 21
240.4576457968
 31
0.0
  0
ARC
  5
43B
  8
0
  6
CONTINUOUS
 62
     7
 10
663.2654471699
 20
237.9576457968
 30
0.0
 40
2.500000000000028
 50
90.0
 51
270.0
  0
CIRCLE
  5
43C
  8
0
  6
CONTINUOUS
 62
     7
 10
653.7654471699
 20
287.9576457968
 30
0.0
 40
2.75
  0
CIRCLE
  5
43D
  8
0
  6
CONTINUOUS
 62
     7
 10
653.7654471699
 20
337.9576457968
 30
0.0
 40
2.75
  0
CIRCLE
  5
43E
  8
0
  6
CONTINUOUS
 62
     7
 10
646.2654471699
 20
158.4576457968
 30
0.0
 40
5.0
  0
CIRCLE
  5
43F
  8
0
  6
CONTINUOUS
 62
     7
 10
646.2654471699
 20
183.4576457968
 30
0.0
 40
5.0
  0
LINE
  5
440
  8
0
  6
CONTINUOUS
 62
     7
 10
641.7654471699
 20
140.4576457968
 30
0.0
 11
638.7654471699
 21
143.4576457968
 31
0.0
  0
LINE
  5
441
  8
0
  6
CONTINUOUS
 62
     7
 10
639.2654471699
 20
143.664752578
 30
0.0
 11
638.7654471699
 21
143.4576457968
 31
0.0
  0
LINE
  5
442
  8
0
  6
CONTINUOUS
 62
     7
 10
639.2654471699
 20
342.2505390156
 30
0.0
 11
638.7654471699
 21
342.4576457968
 31
0.0
  0
LINE
  5
443
  8
0
  6
CONTINUOUS
 62
     7
 10
638.7654471699
 20
342.4576457968
 30
0.0
 11
641.7654471699
 21
345.4576457968
 31
0.0
  0
LINE
  5
444
  8
0
  6
CONTINUOUS
 62
     7
 10
638.7654471699
 20
143.4576457968
 30
0.0
 11
638.7654471699
 21
342.4576457968
 31
0.0
  0
LINE
  5
445
  8
0
  6
CENTERX2
 62
     7
 10
663.7654471699
 20
246.527320092
 30
0.0
 11
663.7654471699
 21
233.1079901056
 31
0.0
  0
DIMENSION
  5
446
  8
DIM
  2
_D_21
 10
663.7654471699
 20
130.4831740128
 30
0.0
 11
683.7654471699
 21
130.4831740128
 31
0.0
 70
   160
  1
<>
  3
SLDDIMSTYLE0
 13
703.7654471699
 23
133.4576457968
 33
0.0
 14
663.7654471699
 24
233.1079901056
 34
0.0
  0
DIMENSION
  5
450
  8
DIM
  2
_D_22
 10
624.7614696704
 20
240.4576457968
 30
0.0
 11
624.7614696704
 21
193.0193793049
 31
0.0
 70
   160
  1
<>H8 深さ5
  3
SLDDIMSTYLE3
 13
663.2654471699
 23
235.4576457968
 33
0.0
 14
663.2654471699
 24
240.4576457968
 34
0.0
 50
90.0
  0
DIMENSION
  5
465
  8
DIM
  2
_D_23
 10
743.7654471699
 20
130.4831740128
 30
0.0
 11
723.7654471699
 21
130.4831740128
 31
0.0
 70
   160
  1
<>
  3
SLDDIMSTYLE0
 13
703.7654471699
 23
133.4576457968
 33
0.0
 14
743.7654471699
 24
229.9576457968
 34
0.0
  0
DIMENSION
  5
46F
  8
DIM
  2
_D_24
 10
744.4124947849
 20
235.5428312317
 30
0.0
 11
671.7031014126
 21
366.2708121459
 31
0.0
 70
   163
  1
<>H8 深さ5
  3
SLDDIMSTYLE2
 15
743.1183995548
 25
240.3724603619
 35
0.0
 40
0.0
  0
DIMENSION
  5
481
  8
DIM
  2
_D_25
 10
783.5183694751
 20
237.9576457968
 30
0.0
 11
783.5183694751
 21
256.1945749877
 31
0.0
 70
   160
  1
<>
  3
SLDDIMSTYLE1
 13
775.7654471699
 23
242.9576457968
 33
0.0
 14
751.7654471699
 24
237.9576457968
 34
0.0
 50
90.0
  0
INSERT
  5
498
  8
DIM
  2
SW_CENTERMARKSYMBOL_25
 10
743.7654471699
 20
237.9576457968
 30
0.0
  0
LINE
  5
499
  8
DIM
  6
CENTERX2
 10
653.2654471699
 20
237.9576457968
 30
0.0
 11
674.2654471699
 21
237.9576457968
 31
0.0
  0
LINE
  5
49A
  8
DIM
  6
CENTERX2
 10
703.7654471699
 20
352.4576457968
 30
0.0
 11
703.7654471699
 21
133.4576457968
 31
0.0
  0
LINE
  5
49B
  8
DIM
  6
CENTERX2
 10
775.7654471699
 20
242.9576457968
 30
0.0
 11
631.7654471699
 21
242.9576457968
 31
0.0
  0
ENDSEC
  0
EOF
