  0
SECTION
  2
HEADER
  9
$ACADVER
  1
AC1015
  9
$ACADMAINTVER
 70
     6
  9
$DWGCODEPAGE
  3
DOS932
  9
$INSBASE
 10
0.0
 20
0.0
 30
0.0
  9
$EXTMIN
 10
0.0
 20
0.0
 30
0.0
  9
$EXTMAX
 10
594.0
 20
420.0
 30
0.0
  9
$LIMMIN
 10
0.0
 20
0.0
  9
$LIMMAX
 10
594.0
 20
420.0
  9
$ORTHOMODE
 70
     0
  9
$REGENMODE
 70
     1
  9
$FILLMODE
 70
     1
  9
$QTEXTMODE
 70
     0
  9
$MIRRTEXT
 70
     1
  9
$LTSCALE
 40
2.0
  9
$ATTMODE
 70
     1
  9
$TEXTSIZE
 40
7.0
  9
$TRACEWID
 40
1.0
  9
$TEXTSTYLE
  7
Standard
  9
$CLAYER
  8
0
  9
$CELTYPE
  6
ByLayer
  9
$CECOLOR
 62
   256
  9
$CELTSCALE
 40
1.0
  9
$DISPSILH
 70
     0
  9
$DIMSCALE
 40
1.0
  9
$DIMASZ
 40
7.112
  9
$DIMEXO
 40
2.0
  9
$DIMDLI
 40
3.75
  9
$DIMRND
 40
0.0
  9
$DIMDLE
 40
0.0
  9
$DIMEXE
 40
2.0
  9
$DIMTP
 40
0.0
  9
$DIMTM
 40
0.0
  9
$DIMTXT
 40
7.0
  9
$DIMCEN
 40
2.5
  9
$DIMTSZ
 40
0.0
  9
$DIMTOL
 70
     0
  9
$DIMLIM
 70
     0
  9
$DIMTIH
 70
     1
  9
$DIMTOH
 70
     1
  9
$DIMSE1
 70
     0
  9
$DIMSE2
 70
     0
  9
$DIMTAD
 70
     1
  9
$DIMZIN
 70
     1
  9
$DIMBLK
  1

  9
$DIMASO
 70
     1
  9
$DIMSHO
 70
     1
  9
$DIMPOST
  1

  9
$DIMAPOST
  1

  9
$DIMALT
 70
     0
  9
$DIMALTD
 70
     3
  9
$DIMALTF
 40
0.0393700787
  9
$DIMLFAC
 40
1.0
  9
$DIMTOFL
 70
     1
  9
$DIMTVP
 40
0.0
  9
$DIMTIX
 70
     0
  9
$DIMSOXD
 70
     0
  9
$DIMSAH
 70
     0
  9
$DIMBLK1
  1

  9
$DIMBLK2
  1

  9
$DIMSTYLE
  2
ISO-25
  9
$DIMCLRD
 70
     0
  9
$DIMCLRE
 70
     0
  9
$DIMCLRT
 70
     0
  9
$DIMTFAC
 40
1.0
  9
$DIMGAP
 40
3.048
  9
$DIMJUST
 70
     0
  9
$DIMSD1
 70
     0
  9
$DIMSD2
 70
     0
  9
$DIMTOLJ
 70
     0
  9
$DIMTZIN
 70
     1
  9
$DIMALTZ
 70
     0
  9
$DIMALTTZ
 70
     0
  9
$DIMUPT
 70
     0
  9
$DIMDEC
 70
     0
  9
$DIMTDEC
 70
     0
  9
$DIMALTU
 70
     2
  9
$DIMALTTD
 70
     3
  9
$DIMTXSTY
  7
Standard
  9
$DIMAUNIT
 70
     0
  9
$DIMADEC
 70
     1
  9
$DIMALTRND
 40
0.0
  9
$DIMAZIN
 70
     0
  9
$DIMDSEP
 70
    44
  9
$DIMATFIT
 70
     3
  9
$DIMFRAC
 70
     0
  9
$DIMLDRBLK
  1

  9
$DIMLUNIT
 70
     2
  9
$DIMLWD
 70
    -2
  9
$DIMLWE
 70
    -2
  9
$DIMTMOVE
 70
     0
  9
$LUNITS
 70
     2
  9
$LUPREC
 70
     0
  9
$SKETCHINC
 40
1.0
  9
$FILLETRAD
 40
10.0
  9
$AUNITS
 70
     0
  9
$AUPREC
 70
     1
  9
$MENU
  1
.
  9
$ELEVATION
 40
0.0
  9
$PELEVATION
 40
0.0
  9
$THICKNESS
 40
0.0
  9
$LIMCHECK
 70
     0
  9
$CHAMFERA
 40
0.0
  9
$CHAMFERB
 40
0.0
  9
$CHAMFERC
 40
0.0
  9
$CHAMFERD
 40
0.0
  9
$SKPOLY
 70
     0
  9
$TDCREATE
 40
2459780.611878935
  9
$TDUCREATE
 40
2459780.236878935
  9
$TDUPDATE
 40
2459780.611882025
  9
$TDUUPDATE
 40
2459780.236882025
  9
$TDINDWG
 40
0.0000000116
  9
$TDUSRTIMER
 40
0.0000000116
  9
$USRTIMER
 70
     1
  9
$ANGBASE
 50
0.0
  9
$ANGDIR
 70
     0
  9
$PDMODE
 70
     0
  9
$PDSIZE
 40
-1.0
  9
$PLINEWID
 40
0.0
  9
$SPLFRAME
 70
     0
  9
$SPLINETYPE
 70
     6
  9
$SPLINESEGS
 70
     8
  9
$HANDSEED
  5
44F
  9
$SURFTAB1
 70
     6
  9
$SURFTAB2
 70
     6
  9
$SURFTYPE
 70
     6
  9
$SURFU
 70
     6
  9
$SURFV
 70
     6
  9
$UCSBASE
  2

  9
$UCSNAME
  2

  9
$UCSORG
 10
0.0
 20
0.0
 30
0.0
  9
$UCSXDIR
 10
1.0
 20
0.0
 30
0.0
  9
$UCSYDIR
 10
0.0
 20
1.0
 30
0.0
  9
$UCSORTHOREF
  2

  9
$UCSORTHOVIEW
 70
     0
  9
$UCSORGTOP
 10
0.0
 20
0.0
 30
0.0
  9
$UCSORGBOTTOM
 10
0.0
 20
0.0
 30
0.0
  9
$UCSORGLEFT
 10
0.0
 20
0.0
 30
0.0
  9
$UCSORGRIGHT
 10
0.0
 20
0.0
 30
0.0
  9
$UCSORGFRONT
 10
0.0
 20
0.0
 30
0.0
  9
$UCSORGBACK
 10
0.0
 20
0.0
 30
0.0
  9
$PUCSBASE
  2

  9
$PUCSNAME
  2

  9
$PUCSORG
 10
0.0
 20
0.0
 30
0.0
  9
$PUCSXDIR
 10
1.0
 20
0.0
 30
0.0
  9
$PUCSYDIR
 10
0.0
 20
1.0
 30
0.0
  9
$PUCSORTHOREF
  2

  9
$PUCSORTHOVIEW
 70
     0
  9
$PUCSORGTOP
 10
0.0
 20
0.0
 30
0.0
  9
$PUCSORGBOTTOM
 10
0.0
 20
0.0
 30
0.0
  9
$PUCSORGLEFT
 10
0.0
 20
0.0
 30
0.0
  9
$PUCSORGRIGHT
 10
0.0
 20
0.0
 30
0.0
  9
$PUCSORGFRONT
 10
0.0
 20
0.0
 30
0.0
  9
$PUCSORGBACK
 10
0.0
 20
0.0
 30
0.0
  9
$USERI1
 70
     0
  9
$USERI2
 70
     0
  9
$USERI3
 70
     0
  9
$USERI4
 70
     0
  9
$USERI5
 70
     0
  9
$USERR1
 40
0.0
  9
$USERR2
 40
0.0
  9
$USERR3
 40
0.0
  9
$USERR4
 40
0.0
  9
$USERR5
 40
0.0
  9
$WORLDVIEW
 70
     1
  9
$SHADEDGE
 70
     3
  9
$SHADEDIF
 70
    70
  9
$TILEMODE
 70
     1
  9
$MAXACTVP
 70
    64
  9
$PINSBASE
 10
0.0
 20
0.0
 30
0.0
  9
$PLIMCHECK
 70
     0
  9
$PEXTMIN
 10
1.0000000000E+20
 20
1.0000000000E+20
 30
1.0000000000E+20
  9
$PEXTMAX
 10
-1.0000000000E+20
 20
-1.0000000000E+20
 30
-1.0000000000E+20
  9
$PLIMMIN
 10
0.0
 20
0.0
  9
$PLIMMAX
 10
420.0
 20
297.0
  9
$UNITMODE
 70
     0
  9
$VISRETAIN
 70
     1
  9
$PLINEGEN
 70
     0
  9
$PSLTSCALE
 70
     1
  9
$TREEDEPTH
 70
  3020
  9
$CMLSTYLE
  2
Standard
  9
$CMLJUST
 70
     0
  9
$CMLSCALE
 40
20.0
  9
$PROXYGRAPHICS
 70
     1
  9
$MEASUREMENT
 70
     1
  9
$CELWEIGHT
370
    -1
  9
$ENDCAPS
280
     0
  9
$JOINSTYLE
280
     0
  9
$LWDISPLAY
290
     1
  9
$INSUNITS
 70
     4
  9
$HYPERLINKBASE
  1

  9
$STYLESHEET
  1

  9
$XEDIT
290
     1
  9
$CEPSNTYPE
380
     0
  9
$PSTYLEMODE
290
     1
  9
$FINGERPRINTGUID
  2
{fe7c418f-c189-46b3-9b06-483d22c1700a}
  9
$VERSIONGUID
  2
{FAEB1C32-E019-11D5-929B-00C0DF256EC4}
  9
$EXTNAMES
290
     1
  9
$PSVPSCALE
 40
0.0
  9
$OLESTARTUP
290
     0
  0
ENDSEC
  0
SECTION
  2
CLASSES
  0
CLASS
  1
ACDBDICTIONARYWDFLT
  2
AcDbDictionaryWithDefault
  3
ObjectDBX Classes
 90
        0
280
     0
281
     0
  0
CLASS
  1
VISUALSTYLE
  2
AcDbVisualStyle
  3
ObjectDBX Classes
 90
     4095
280
     0
281
     0
  0
CLASS
  1
MATERIAL
  2
AcDbMaterial
  3
ObjectDBX Classes
 90
     1153
280
     0
281
     0
  0
CLASS
  1
SCALE
  2
AcDbScale
  3
ObjectDBX Classes
 90
     1153
280
     0
281
     0
  0
CLASS
  1
TABLESTYLE
  2
AcDbTableStyle
  3
ObjectDBX Classes
 90
     4095
280
     0
281
     0
  0
CLASS
  1
MLEADERSTYLE
  2
AcDbMLeaderStyle
  3
ACDB_MLEADERSTYLE_CLASS
 90
     4095
280
     0
281
     0
  0
CLASS
  1
SUN
  2
AcDbSun
  3
SCENEOE
 90
     1153
280
     0
281
     0
  0
CLASS
  1
ACDBPLACEHOLDER
  2
AcDbPlaceHolder
  3
ObjectDBX Classes
 90
        0
280
     0
281
     0
  0
CLASS
  1
LAYOUT
  2
AcDbLayout
  3
ObjectDBX Classes
 90
        0
280
     0
281
     0
  0
ENDSEC
  0
SECTION
  2
TABLES
  0
TABLE
  2
VPORT
  5
8
330
0
100
AcDbSymbolTable
 70
     1
  0
VPORT
  5
29
330
8
100
AcDbSymbolTableRecord
100
AcDbViewportTableRecord
  2
*Active
 70
     0
 10
0.0
 20
0.0
 11
1.0
 21
1.0
 12
297.0
 22
210.0
 13
0.0
 23
0.0
 14
10.0
 24
10.0
 15
10.0
 25
10.0
 16
0.0
 26
0.0
 36
1.0
 17
0.0
 27
0.0
 37
0.0
 40
420.0
 41
1.4142857143
 42
50.0
 43
0.0
 44
0.0
 50
0.0
 51
0.0
 71
     0
 72
  2000
 73
     1
 74
     3
 75
     0
 76
     0
 77
     0
 78
     0
281
     0
 65
     1
110
0.0
120
0.0
130
0.0
111
1.0
121
0.0
131
0.0
112
0.0
122
1.0
132
0.0
 79
     0
146
0.0
  0
ENDTAB
  0
TABLE
  2
LTYPE
  5
5
330
0
100
AcDbSymbolTable
 70
     6
  0
LTYPE
  5
14
330
5
100
AcDbSymbolTableRecord
100
AcDbLinetypeTableRecord
  2
ByBlock
 70
     0
  3

 72
    65
 73
     0
 40
0.0
  0
LTYPE
  5
15
330
5
100
AcDbSymbolTableRecord
100
AcDbLinetypeTableRecord
  2
ByLayer
 70
     0
  3

 72
    65
 73
     0
 40
0.0
  0
LTYPE
  5
16
330
5
100
AcDbSymbolTableRecord
100
AcDbLinetypeTableRecord
  2
Continuous
 70
     0
  3
Solid line
 72
    65
 73
     0
 40
0.0
  0
LTYPE
  5
6E
330
5
100
AcDbSymbolTableRecord
100
AcDbLinetypeTableRecord
  2
HIDDEN
 70
     0
  3
Hidden __ __ __ __ __ __ __ __ __ __ __ __ __ __
 72
    65
 73
     2
 40
1.905
 49
1.27
 74
     0
 49
-0.635
 74
     0
  0
LTYPE
  5
6F
330
5
100
AcDbSymbolTableRecord
100
AcDbLinetypeTableRecord
  2
PHANTOM
 70
     0
  3
Phantom ______  __  __  ______  __  __  ______
 72
    65
 73
     6
 40
12.7
 49
6.35
 74
     0
 49
-1.27
 74
     0
 49
1.27
 74
     0
 49
-1.27
 74
     0
 49
1.27
 74
     0
 49
-1.27
 74
     0
  0
LTYPE
  5
70
330
5
100
AcDbSymbolTableRecord
100
AcDbLinetypeTableRecord
  2
CENTER
 70
     0
  3
Center ____ _ ____ _ ____ _ ____ _ ____ _ ____
 72
    65
 73
     4
 40
10.16
 49
6.35
 74
     0
 49
-1.27
 74
     0
 49
1.27
 74
     0
 49
-1.27
 74
     0
  0
LTYPE
  5
71
330
5
100
AcDbSymbolTableRecord
100
AcDbLinetypeTableRecord
  2
CENTERX2
 70
     0
  3
Center (2x) ________  __  ________  __  _____
 72
    65
 73
     4
 40
20.32
 49
12.7
 74
     0
 49
-2.54
 74
     0
 49
2.54
 74
     0
 49
-2.54
 74
     0
  0
LTYPE
  5
72
330
5
100
AcDbSymbolTableRecord
100
AcDbLinetypeTableRecord
  2
DOT2
 70
     0
  3
Dot (.5x) ........................................
 72
    65
 73
     2
 40
0.635
 49
0.0
 74
     0
 49
-0.635
 74
     0
  0
ENDTAB
  0
TABLE
  2
LAYER
  5
2
330
0
100
AcDbSymbolTable
 70
     1
  0
LAYER
  5
10
330
2
100
AcDbSymbolTableRecord
100
AcDbLayerTableRecord
  2
0
 70
     0
 62
     7
  6
Continuous
370
    -3
390
F
  0
ENDTAB
  0
TABLE
  2
STYLE
  5
3
330
0
100
AcDbSymbolTable
 70
     2
  0
STYLE
  5
11
330
3
100
AcDbSymbolTableRecord
100
AcDbTextStyleTableRecord
  2
Standard
 70
     0
 40
0.0
 41
1.0
 50
0.0
 71
     0
 42
7.0
  3
txt
  4
bigfont
  0
STYLE
  5
11C
330
3
100
AcDbSymbolTableRecord
100
AcDbTextStyleTableRecord
  2
SLDTEXTSTYLE0
 70
     0
 40
0.0
 41
0.75
 50
0.0
 71
     0
 42
7.0
  3
TXT
  4
bigfont
  0
ENDTAB
  0
TABLE
  2
VIEW
  5
6
330
0
100
AcDbSymbolTable
 70
     0
  0
ENDTAB
  0
TABLE
  2
UCS
  5
7
330
0
100
AcDbSymbolTable
 70
     0
  0
ENDTAB
  0
TABLE
  2
APPID
  5
9
330
0
100
AcDbSymbolTable
 70
     1
  0
APPID
  5
12
330
9
100
AcDbSymbolTableRecord
100
AcDbRegAppTableRecord
  2
ACAD
 70
     0
  0
ENDTAB
  0
TABLE
  2
DIMSTYLE
  5
A
330
0
100
AcDbSymbolTable
 70
     4
100
AcDbDimStyleTable
  0
DIMSTYLE
105
27
330
A
100
AcDbSymbolTableRecord
100
AcDbDimStyleTableRecord
  2
ISO-25
 70
     0
 41
2.5
 42
0.625
 43
3.75
 44
1.25
 73
     0
 74
     0
 77
     1
 78
     8
140
2.5
141
2.5
143
0.0393700787
147
0.625
171
     3
172
     1
178
     0
271
     2
272
     2
274
     3
278
    44
283
     0
284
     8
340
11
  0
DIMSTYLE
105
11D
102
{ACAD_REACTORS
330
11B
330
18B
330
395
102
}
330
A
100
AcDbSymbolTableRecord
100
AcDbDimStyleTableRecord
  2
SLDDIMSTYLE0
 70
     0
 41
7.112
 44
0.0
 45
0.000000001
 73
     0
 74
     0
 77
     1
 78
    12
 79
     3
140
7.0
147
1.75
173
     1
178
     0
271
     0
272
     0
276
     2
284
    12
340
11C
341
11E
343
11E
344
11E
  0
DIMSTYLE
105
12F
102
{ACAD_REACTORS
330
12E
330
143
330
295
330
2A0
330
3F9
102
}
330
A
100
AcDbSymbolTableRecord
100
AcDbDimStyleTableRecord
  2
SLDDIMSTYLE1
 70
     0
  3
<>
 41
7.112
 44
0.0
 45
0.000000001
 78
    12
 79
     3
140
7.0
141
0.0
147
1.75
173
     1
178
     0
271
     0
272
     0
276
     2
284
    12
340
11C
341
11E
343
11E
344
11E
  0
DIMSTYLE
105
14F
102
{ACAD_REACTORS
330
14E
330
15B
330
167
330
173
330
17F
330
195
330
265
330
271
330
27D
330
289
330
39F
330
3AB
330
3B7
330
3C1
330
3CD
330
3D9
330
3ED
330
406
330
412
330
41E
330
42A
330
436
330
442
102
}
330
A
100
AcDbSymbolTableRecord
100
AcDbDimStyleTableRecord
  2
SLDDIMSTYLE2
 70
     0
 41
7.112
 44
0.0
 45
0.000000001
 73
     0
 74
     0
 77
     1
 78
    12
 79
     3
140
7.0
147
1.75
172
     1
173
     1
178
     0
271
     0
272
     0
276
     2
284
    12
289
     0
340
11C
341
11E
343
11E
344
11E
  0
ENDTAB
  0
TABLE
  2
BLOCK_RECORD
  5
1
330
0
100
AcDbSymbolTable
 70
    35
  0
BLOCK_RECORD
  5
1F
330
1
100
AcDbSymbolTableRecord
100
AcDbBlockTableRecord
  2
*Model_Space
340
22
  0
BLOCK_RECORD
  5
1B
330
1
100
AcDbSymbolTableRecord
100
AcDbBlockTableRecord
  2
*Paper_Space
340
1E
  0
BLOCK_RECORD
  5
23
330
1
100
AcDbSymbolTableRecord
100
AcDbBlockTableRecord
  2
*Paper_Space0
340
26
  0
BLOCK_RECORD
  5
11E
330
1
100
AcDbSymbolTableRecord
100
AcDbBlockTableRecord
  2
_Closed
340
0
102
{BLKREFS
331
128
331
129
331
133
331
147
331
153
331
154
331
15F
331
160
331
16B
331
16C
331
177
331
178
331
183
331
184
331
18F
331
190
331
199
331
19A
331
269
331
26A
331
275
331
276
331
281
331
282
331
28D
331
28E
331
299
331
2A4
331
399
331
39A
331
3A3
331
3A4
331
3AF
331
3B0
331
3BB
331
3BC
331
3C5
331
3C6
331
3D1
331
3D2
331
3DD
331
3DE
331
3F1
331
3F2
331
3FD
331
40A
331
40B
331
416
331
417
331
422
331
423
331
42E
331
42F
331
43A
331
43B
331
446
331
447
102
}
  0
BLOCK_RECORD
  5
125
330
1
100
AcDbSymbolTableRecord
100
AcDbBlockTableRecord
  2
_D
340
0
  0
BLOCK_RECORD
  5
130
330
1
100
AcDbSymbolTableRecord
100
AcDbBlockTableRecord
  2
_D_1
340
0
  0
BLOCK_RECORD
  5
13A
330
1
100
AcDbSymbolTableRecord
100
AcDbBlockTableRecord
  2
SW_SYMBOL_HOLE_DEPTH
340
0
102
{BLKREFS
331
141
331
14C
331
29E
331
2AB
331
404
102
}
  0
BLOCK_RECORD
  5
144
330
1
100
AcDbSymbolTableRecord
100
AcDbBlockTableRecord
  2
_D_2
340
0
  0
BLOCK_RECORD
  5
150
330
1
100
AcDbSymbolTableRecord
100
AcDbBlockTableRecord
  2
_D_3
340
0
  0
BLOCK_RECORD
  5
15C
330
1
100
AcDbSymbolTableRecord
100
AcDbBlockTableRecord
  2
_D_4
340
0
  0
BLOCK_RECORD
  5
168
330
1
100
AcDbSymbolTableRecord
100
AcDbBlockTableRecord
  2
_D_5
340
0
  0
BLOCK_RECORD
  5
174
330
1
100
AcDbSymbolTableRecord
100
AcDbBlockTableRecord
  2
_D_6
340
0
  0
BLOCK_RECORD
  5
180
330
1
100
AcDbSymbolTableRecord
100
AcDbBlockTableRecord
  2
_D_7
340
0
  0
BLOCK_RECORD
  5
18C
330
1
100
AcDbSymbolTableRecord
100
AcDbBlockTableRecord
  2
_D_8
340
0
  0
BLOCK_RECORD
  5
196
330
1
100
AcDbSymbolTableRecord
100
AcDbBlockTableRecord
  2
_D_9
340
0
  0
BLOCK_RECORD
  5
266
330
1
100
AcDbSymbolTableRecord
100
AcDbBlockTableRecord
  2
_D_10
340
0
  0
BLOCK_RECORD
  5
272
330
1
100
AcDbSymbolTableRecord
100
AcDbBlockTableRecord
  2
_D_11
340
0
  0
BLOCK_RECORD
  5
27E
330
1
100
AcDbSymbolTableRecord
100
AcDbBlockTableRecord
  2
_D_12
340
0
  0
BLOCK_RECORD
  5
28A
330
1
100
AcDbSymbolTableRecord
100
AcDbBlockTableRecord
  2
_D_13
340
0
  0
BLOCK_RECORD
  5
296
330
1
100
AcDbSymbolTableRecord
100
AcDbBlockTableRecord
  2
_D_14
340
0
  0
BLOCK_RECORD
  5
2A1
330
1
100
AcDbSymbolTableRecord
100
AcDbBlockTableRecord
  2
_D_15
340
0
  0
BLOCK_RECORD
  5
396
330
1
100
AcDbSymbolTableRecord
100
AcDbBlockTableRecord
  2
_D_16
340
0
  0
BLOCK_RECORD
  5
3A0
330
1
100
AcDbSymbolTableRecord
100
AcDbBlockTableRecord
  2
_D_17
340
0
  0
BLOCK_RECORD
  5
3AC
330
1
100
AcDbSymbolTableRecord
100
AcDbBlockTableRecord
  2
_D_18
340
0
  0
BLOCK_RECORD
  5
3B8
330
1
100
AcDbSymbolTableRecord
100
AcDbBlockTableRecord
  2
_D_19
340
0
  0
BLOCK_RECORD
  5
3C2
330
1
100
AcDbSymbolTableRecord
100
AcDbBlockTableRecord
  2
_D_20
340
0
  0
BLOCK_RECORD
  5
3CE
330
1
100
AcDbSymbolTableRecord
100
AcDbBlockTableRecord
  2
_D_21
340
0
  0
BLOCK_RECORD
  5
3DA
330
1
100
AcDbSymbolTableRecord
100
AcDbBlockTableRecord
  2
_D_22
340
0
  0
BLOCK_RECORD
  5
3E4
330
1
100
AcDbSymbolTableRecord
100
AcDbBlockTableRecord
  2
SW_SYMBOL_MOD_BOX
340
0
102
{BLKREFS
331
3EB
102
}
  0
BLOCK_RECORD
  5
3EE
330
1
100
AcDbSymbolTableRecord
100
AcDbBlockTableRecord
  2
_D_23
340
0
  0
BLOCK_RECORD
  5
3FA
330
1
100
AcDbSymbolTableRecord
100
AcDbBlockTableRecord
  2
_D_24
340
0
  0
BLOCK_RECORD
  5
407
330
1
100
AcDbSymbolTableRecord
100
AcDbBlockTableRecord
  2
_D_25
340
0
  0
BLOCK_RECORD
  5
413
330
1
100
AcDbSymbolTableRecord
100
AcDbBlockTableRecord
  2
_D_26
340
0
  0
BLOCK_RECORD
  5
41F
330
1
100
AcDbSymbolTableRecord
100
AcDbBlockTableRecord
  2
_D_27
340
0
  0
BLOCK_RECORD
  5
42B
330
1
100
AcDbSymbolTableRecord
100
AcDbBlockTableRecord
  2
_D_28
340
0
  0
BLOCK_RECORD
  5
437
330
1
100
AcDbSymbolTableRecord
100
AcDbBlockTableRecord
  2
_D_29
340
0
  0
BLOCK_RECORD
  5
443
330
1
100
AcDbSymbolTableRecord
100
AcDbBlockTableRecord
  2
_D_30
340
0
  0
ENDTAB
  0
ENDSEC
  0
SECTION
  2
BLOCKS
  0
BLOCK
  5
20
330
1F
100
AcDbEntity
  8
0
100
AcDbBlockBegin
  2
*Model_Space
 70
     0
 10
0.0
 20
0.0
 30
0.0
  3
*Model_Space
  1

  0
ENDBLK
  5
21
330
1F
100
AcDbEntity
  8
0
100
AcDbBlockEnd
  0
BLOCK
  5
1C
330
1B
100
AcDbEntity
 67
     1
  8
0
100
AcDbBlockBegin
  2
*Paper_Space
 70
     0
 10
0.0
 20
0.0
 30
0.0
  3
*Paper_Space
  1

  0
ENDBLK
  5
1D
330
1B
100
AcDbEntity
 67
     1
  8
0
100
AcDbBlockEnd
  0
BLOCK
  5
24
330
23
100
AcDbEntity
  8
0
100
AcDbBlockBegin
  2
*Paper_Space0
 70
     0
 10
0.0
 20
0.0
 30
0.0
  3
*Paper_Space0
  1

  0
ENDBLK
  5
25
330
23
100
AcDbEntity
  8
0
100
AcDbBlockEnd
  0
BLOCK
  5
11F
330
11E
100
AcDbEntity
  8
0
100
AcDbBlockBegin
  2
_Closed
 70
     0
 10
0.0
 20
0.0
 30
0.0
  3
_Closed
  1

  0
LINE
  5
121
330
11E
100
AcDbEntity
  8
0
  6
ByBlock
 62
     0
370
    -2
100
AcDbLine
 10
-1.0
 20
0.166667
 30
0.0
 11
0.0
 21
0.0
 31
0.0
  0
LINE
  5
122
330
11E
100
AcDbEntity
  8
0
  6
ByBlock
 62
     0
370
    -2
100
AcDbLine
 10
0.0
 20
0.0
 30
0.0
 11
-1.0
 21
-0.166667
 31
0.0
  0
LINE
  5
123
330
11E
100
AcDbEntity
  8
0
  6
ByBlock
 62
     0
370
    -2
100
AcDbLine
 10
-1.0
 20
0.166667
 30
0.0
 11
-1.0
 21
-0.166667
 31
0.0
  0
LINE
  5
124
330
11E
100
AcDbEntity
  8
0
  6
ByBlock
 62
     0
370
    -2
100
AcDbLine
 10
0.0
 20
0.0
 30
0.0
 11
-1.0
 21
0.0
 31
0.0
  0
ENDBLK
  5
120
330
11E
100
AcDbEntity
  8
0
100
AcDbBlockEnd
  0
BLOCK
  5
126
330
125
100
AcDbEntity
  8
0
100
AcDbBlockBegin
  2
_D
 70
     0
 10
0.0
 20
0.0
 30
0.0
  3
_D
  1

  0
INSERT
  5
128
330
125
100
AcDbEntity
  8
0
  6
Continuous
 62
     7
370
    18
100
AcDbBlockReference
  2
_Closed
 10
279.1225284314
 20
390.0999177068
 30
0.0
 41
7.112
 42
7.112
 50
180.0
  0
INSERT
  5
129
330
125
100
AcDbEntity
  8
0
  6
Continuous
 62
     7
370
    18
100
AcDbBlockReference
  2
_Closed
 10
360.1225284314
 20
390.0999177068
 30
0.0
 41
7.112
 42
7.112
 50
0.0
  0
LINE
  5
12A
330
125
100
AcDbEntity
  8
0
  6
Continuous
 62
     7
370
     0
100
AcDbLine
 10
279.1225284314
 20
273.3110156565
 30
0.0
 11
279.1225284314
 21
392.0999177068
 31
0.0
  0
LINE
  5
12B
330
125
100
AcDbEntity
  8
0
  6
Continuous
 62
     7
370
     0
100
AcDbLine
 10
360.1225284314
 20
273.3110156565
 30
0.0
 11
360.1225284314
 21
392.0999177068
 31
0.0
  0
LINE
  5
12C
330
125
100
AcDbEntity
  8
0
  6
Continuous
 62
     7
370
     0
100
AcDbLine
 10
279.1225284314
 20
390.0999177068
 30
0.0
 11
360.1225284314
 21
390.0999177068
 31
0.0
  0
MTEXT
  5
12D
330
125
100
AcDbEntity
  8
0
  6
Continuous
 62
     7
370
    18
100
AcDbMText
 10
316.9237471532
 20
399.123391536
 30
0.0
 40
7.0
 41
0.0
 71
     1
 72
     1
  1
81
  7
SLDTEXTSTYLE0
 73
     1
 44
1.0
  0
ENDBLK
  5
127
330
125
100
AcDbEntity
  8
0
100
AcDbBlockEnd
  0
BLOCK
  5
131
330
130
100
AcDbEntity
  8
0
100
AcDbBlockBegin
  2
_D_1
 70
     0
 10
0.0
 20
0.0
 30
0.0
  3
_D_1
  1

  0
INSERT
  5
133
330
130
100
AcDbEntity
  8
0
  6
Continuous
 62
     7
370
    18
100
AcDbBlockReference
  2
_Closed
 10
306.5290011537
 20
253.8377571499
 30
0.0
 41
7.112
 42
7.112
 50
316.8041480813
  0
LINE
  5
134
330
130
100
AcDbEntity
  8
0
  6
Continuous
 62
     7
370
     0
100
AcDbLine
 10
306.5290011537
 20
253.8377571499
 30
0.0
 11
265.2784064438
 21
292.5690243558
 31
0.0
  0
LINE
  5
135
330
130
100
AcDbEntity
  8
0
  6
Continuous
 62
     7
370
     0
100
AcDbLine
 10
307.6225284314
 20
252.8110156572
 30
0.0
 11
306.5290011537
 21
253.8377571499
 31
0.0
  0
LINE
  5
136
330
130
100
AcDbEntity
  8
0
  6
Continuous
 62
     7
370
     0
100
AcDbLine
 10
265.2784064438
 20
292.5690243558
 30
0.0
 11
211.3772274103
 21
292.5690243558
 31
0.0
  0
MTEXT
  5
137
330
130
100
AcDbEntity
  8
0
  6
Continuous
 62
     7
370
    18
100
AcDbMText
 10
211.3772274103
 20
301.6994428875
 30
0.0
 40
7.0
 41
0.0
 71
     1
 72
     1
  1
2-
  7
SLDTEXTSTYLE0
 73
     1
 44
1.0
  0
MTEXT
  5
138
330
130
100
AcDbEntity
  8
0
  6
Continuous
 62
     7
370
    18
100
AcDbMText
 10
219.6508382555
 20
301.5924985342
 30
0.0
 40
7.0
 41
0.0
 71
     1
 72
     1
  1
%%c
  7
SLDTEXTSTYLE0
 73
     1
 44
1.0
  0
MTEXT
  5
139
330
130
100
AcDbEntity
  8
0
  6
Continuous
 62
     7
370
    18
100
AcDbMText
 10
230.2077130522
 20
301.6994428875
 30
0.0
 40
7.0
 41
0.0
 71
     1
 72
     1
  1
3H8
  7
SLDTEXTSTYLE0
 73
     1
 44
1.0
  0
INSERT
  5
141
330
130
100
AcDbEntity
  8
0
  6
Continuous
 62
     7
370
    18
100
AcDbBlockReference
  2
SW_SYMBOL_HOLE_DEPTH
 10
246.929937705
 20
293.5397274808
 30
0.0
 41
0.0044707031
 42
0.0044707031
 43
0.0044707031
  0
MTEXT
  5
142
330
130
100
AcDbEntity
  8
0
  6
Continuous
 62
     7
370
    18
100
AcDbMText
 10
256.9311873164
 20
301.6994428875
 30
0.0
 40
7.0
 41
0.0
 71
     1
 72
     1
  1
3
  7
SLDTEXTSTYLE0
 73
     1
 44
1.0
  0
ENDBLK
  5
132
330
130
100
AcDbEntity
  8
0
100
AcDbBlockEnd
  0
BLOCK
  5
13B
330
13A
100
AcDbEntity
  8
0
100
AcDbBlockBegin
  2
SW_SYMBOL_HOLE_DEPTH
 70
     0
 10
0.0
 20
0.0
 30
0.0
  3
SW_SYMBOL_HOLE_DEPTH
  1

  0
LINE
  5
13D
330
13A
100
AcDbEntity
  8
0
  6
Continuous
 62
     0
370
    18
100
AcDbLine
 10
0.0
 20
1750.0
 30
0.0
 11
1600.0
 21
1750.0
 31
0.0
  0
LINE
  5
13E
330
13A
100
AcDbEntity
  8
0
  6
Continuous
 62
     0
370
    18
100
AcDbLine
 10
800.0
 20
1750.0
 30
0.0
 11
800.0
 21
150.0
 31
0.0
  0
LINE
  5
13F
330
13A
100
AcDbEntity
  8
0
  6
Continuous
 62
     0
370
    18
100
AcDbLine
 10
200.0
 20
1110.0
 30
0.0
 11
800.0
 21
150.0
 31
0.0
  0
LINE
  5
140
330
13A
100
AcDbEntity
  8
0
  6
Continuous
 62
     0
370
    18
100
AcDbLine
 10
1400.0
 20
1110.0
 30
0.0
 11
800.0
 21
150.0
 31
0.0
  0
ENDBLK
  5
13C
330
13A
100
AcDbEntity
  8
0
100
AcDbBlockEnd
  0
BLOCK
  5
145
330
144
100
AcDbEntity
  8
0
100
AcDbBlockBegin
  2
_D_2
 70
     0
 10
0.0
 20
0.0
 30
0.0
  3
_D_2
  1

  0
INSERT
  5
147
330
144
100
AcDbEntity
  8
0
  6
Continuous
 62
     7
370
    18
100
AcDbBlockReference
  2
_Closed
 10
332.7216702455
 20
263.8317444528
 30
0.0
 41
7.112
 42
7.112
 50
222.8816218055
  0
LINE
  5
148
330
144
100
AcDbEntity
  8
0
  6
Continuous
 62
     7
370
     0
100
AcDbLine
 10
332.7216702455
 20
263.8317444528
 30
0.0
 11
367.872927396
 21
296.4753031954
 31
0.0
  0
LINE
  5
149
330
144
100
AcDbEntity
  8
0
  6
Continuous
 62
     7
370
     0
100
AcDbLine
 10
331.6225284314
 20
262.8110156572
 30
0.0
 11
332.7216702455
 21
263.8317444528
 31
0.0
  0
LINE
  5
14A
330
144
100
AcDbEntity
  8
0
  6
Continuous
 62
     7
370
     0
100
AcDbLine
 10
367.872927396
 20
296.4753031954
 30
0.0
 11
408.2422315642
 21
296.4753031954
 31
0.0
  0
MTEXT
  5
14B
330
144
100
AcDbEntity
  8
0
  6
Continuous
 62
     7
370
    18
100
AcDbMText
 10
371.047927396
 20
305.6057217272
 30
0.0
 40
7.0
 41
0.0
 71
     1
 72
     1
  1
4-M3
  7
SLDTEXTSTYLE0
 73
     1
 44
1.0
  0
INSERT
  5
14C
330
144
100
AcDbEntity
  8
0
  6
Continuous
 62
     7
370
    18
100
AcDbBlockReference
  2
SW_SYMBOL_HOLE_DEPTH
 10
393.0687609628
 20
297.4460063204
 30
0.0
 41
0.0044707031
 42
0.0044707031
 43
0.0044707031
  0
MTEXT
  5
14D
330
144
100
AcDbEntity
  8
0
  6
Continuous
 62
     7
370
    18
100
AcDbMText
 10
403.0700087115
 20
305.6057217272
 30
0.0
 40
7.0
 41
0.0
 71
     1
 72
     1
  1
6
  7
SLDTEXTSTYLE0
 73
     1
 44
1.0
  0
ENDBLK
  5
146
330
144
100
AcDbEntity
  8
0
100
AcDbBlockEnd
  0
BLOCK
  5
151
330
150
100
AcDbEntity
  8
0
100
AcDbBlockBegin
  2
_D_3
 70
     0
 10
0.0
 20
0.0
 30
0.0
  3
_D_3
  1

  0
INSERT
  5
153
330
150
100
AcDbEntity
  8
0
  6
Continuous
 62
     7
370
    18
100
AcDbBlockReference
  2
_Closed
 10
290.9725284314
 20
186.0959095164
 30
0.0
 41
7.112
 42
7.112
 50
0.0
  0
INSERT
  5
154
330
150
100
AcDbEntity
  8
0
  6
Continuous
 62
     7
370
    18
100
AcDbBlockReference
  2
_Closed
 10
310.9725284314
 20
186.0959095164
 30
0.0
 41
7.112
 42
7.112
 50
180.0
  0
LINE
  5
155
330
150
100
AcDbEntity
  8
0
  6
Continuous
 62
     7
370
     0
100
AcDbLine
 10
290.9725284314
 20
223.8110156572
 30
0.0
 11
290.9725284314
 21
184.0959095164
 31
0.0
  0
LINE
  5
156
330
150
100
AcDbEntity
  8
0
  6
Continuous
 62
     7
370
     0
100
AcDbLine
 10
310.9725284314
 20
223.8110156572
 30
0.0
 11
310.9725284314
 21
184.0959095164
 31
0.0
  0
LINE
  5
157
330
150
100
AcDbEntity
  8
0
  6
Continuous
 62
     7
370
     0
100
AcDbLine
 10
290.9725284314
 20
186.0959095164
 30
0.0
 11
278.2725284314
 21
186.0959095164
 31
0.0
  0
LINE
  5
158
330
150
100
AcDbEntity
  8
0
  6
Continuous
 62
     7
370
     0
100
AcDbLine
 10
290.9725284314
 20
186.0959095164
 30
0.0
 11
310.9725284314
 21
186.0959095164
 31
0.0
  0
LINE
  5
159
330
150
100
AcDbEntity
  8
0
  6
Continuous
 62
     7
370
     0
100
AcDbLine
 10
310.9725284314
 20
186.0959095164
 30
0.0
 11
323.6725284314
 21
186.0959095164
 31
0.0
  0
MTEXT
  5
15A
330
150
100
AcDbEntity
  8
0
  6
Continuous
 62
     7
370
    18
100
AcDbMText
 10
296.5590877614
 20
195.1193833456
 30
0.0
 40
7.0
 41
0.0
 71
     1
 72
     1
  1
20
  7
SLDTEXTSTYLE0
 73
     1
 44
1.0
  0
ENDBLK
  5
152
330
150
100
AcDbEntity
  8
0
100
AcDbBlockEnd
  0
BLOCK
  5
15D
330
15C
100
AcDbEntity
  8
0
100
AcDbBlockBegin
  2
_D_4
 70
     0
 10
0.0
 20
0.0
 30
0.0
  3
_D_4
  1

  0
INSERT
  5
15F
330
15C
100
AcDbEntity
  8
0
  6
Continuous
 62
     7
370
    18
100
AcDbBlockReference
  2
_Closed
 10
328.2725284314
 20
186.0959095164
 30
0.0
 41
7.112
 42
7.112
 50
0.0
  0
INSERT
  5
160
330
15C
100
AcDbEntity
  8
0
  6
Continuous
 62
     7
370
    18
100
AcDbBlockReference
  2
_Closed
 10
348.2725284314
 20
186.0959095164
 30
0.0
 41
7.112
 42
7.112
 50
180.0
  0
LINE
  5
161
330
15C
100
AcDbEntity
  8
0
  6
Continuous
 62
     7
370
     0
100
AcDbLine
 10
328.2725284314
 20
223.8110156572
 30
0.0
 11
328.2725284314
 21
184.0959095164
 31
0.0
  0
LINE
  5
162
330
15C
100
AcDbEntity
  8
0
  6
Continuous
 62
     7
370
     0
100
AcDbLine
 10
348.2725284314
 20
223.8110156572
 30
0.0
 11
348.2725284314
 21
184.0959095164
 31
0.0
  0
LINE
  5
163
330
15C
100
AcDbEntity
  8
0
  6
Continuous
 62
     7
370
     0
100
AcDbLine
 10
328.2725284314
 20
186.0959095164
 30
0.0
 11
315.5725284314
 21
186.0959095164
 31
0.0
  0
LINE
  5
164
330
15C
100
AcDbEntity
  8
0
  6
Continuous
 62
     7
370
     0
100
AcDbLine
 10
328.2725284314
 20
186.0959095164
 30
0.0
 11
348.2725284314
 21
186.0959095164
 31
0.0
  0
LINE
  5
165
330
15C
100
AcDbEntity
  8
0
  6
Continuous
 62
     7
370
     0
100
AcDbLine
 10
348.2725284314
 20
186.0959095164
 30
0.0
 11
360.9725284314
 21
186.0959095164
 31
0.0
  0
MTEXT
  5
166
330
15C
100
AcDbEntity
  8
0
  6
Continuous
 62
     7
370
    18
100
AcDbMText
 10
334.5400254872
 20
195.1193833456
 30
0.0
 40
7.0
 41
0.0
 71
     1
 72
     1
  1
20
  7
SLDTEXTSTYLE0
 73
     1
 44
1.0
  0
ENDBLK
  5
15E
330
15C
100
AcDbEntity
  8
0
100
AcDbBlockEnd
  0
BLOCK
  5
169
330
168
100
AcDbEntity
  8
0
100
AcDbBlockBegin
  2
_D_5
 70
     0
 10
0.0
 20
0.0
 30
0.0
  3
_D_5
  1

  0
INSERT
  5
16B
330
168
100
AcDbEntity
  8
0
  6
Continuous
 62
     7
370
    18
100
AcDbBlockReference
  2
_Closed
 10
307.6225284314
 20
203.9074767324
 30
0.0
 41
7.112
 42
7.112
 50
0.0
  0
INSERT
  5
16C
330
168
100
AcDbEntity
  8
0
  6
Continuous
 62
     7
370
    18
100
AcDbBlockReference
  2
_Closed
 10
331.6225284314
 20
203.9074767324
 30
0.0
 41
7.112
 42
7.112
 50
180.0
  0
LINE
  5
16D
330
168
100
AcDbEntity
  8
0
  6
Continuous
 62
     7
370
     0
100
AcDbLine
 10
307.6225284314
 20
238.8110156572
 30
0.0
 11
307.6225284314
 21
201.9074767324
 31
0.0
  0
LINE
  5
16E
330
168
100
AcDbEntity
  8
0
  6
Continuous
 62
     7
370
     0
100
AcDbLine
 10
331.6225284314
 20
238.8110156572
 30
0.0
 11
331.6225284314
 21
201.9074767324
 31
0.0
  0
LINE
  5
16F
330
168
100
AcDbEntity
  8
0
  6
Continuous
 62
     7
370
     0
100
AcDbLine
 10
307.6225284314
 20
203.9074767324
 30
0.0
 11
294.9225284314
 21
203.9074767324
 31
0.0
  0
LINE
  5
170
330
168
100
AcDbEntity
  8
0
  6
Continuous
 62
     7
370
     0
100
AcDbLine
 10
307.6225284314
 20
203.9074767324
 30
0.0
 11
331.6225284314
 21
203.9074767324
 31
0.0
  0
LINE
  5
171
330
168
100
AcDbEntity
  8
0
  6
Continuous
 62
     7
370
     0
100
AcDbLine
 10
331.6225284314
 20
203.9074767324
 30
0.0
 11
344.3225284314
 21
203.9074767324
 31
0.0
  0
MTEXT
  5
172
330
168
100
AcDbEntity
  8
0
  6
Continuous
 62
     7
370
    18
100
AcDbMText
 10
314.4635699962
 20
212.9309505616
 30
0.0
 40
7.0
 41
0.0
 71
     1
 72
     1
  1
24
  7
SLDTEXTSTYLE0
 73
     1
 44
1.0
  0
ENDBLK
  5
16A
330
168
100
AcDbEntity
  8
0
100
AcDbBlockEnd
  0
BLOCK
  5
175
330
174
100
AcDbEntity
  8
0
100
AcDbBlockBegin
  2
_D_6
 70
     0
 10
0.0
 20
0.0
 30
0.0
  3
_D_6
  1

  0
INSERT
  5
177
330
174
100
AcDbEntity
  8
0
  6
Continuous
 62
     7
370
    18
100
AcDbBlockReference
  2
_Closed
 10
399.0860989819
 20
262.8110156572
 30
0.0
 41
7.112
 42
7.112
 50
270.0
  0
INSERT
  5
178
330
174
100
AcDbEntity
  8
0
  6
Continuous
 62
     7
370
    18
100
AcDbBlockReference
  2
_Closed
 10
399.0860989819
 20
240.8110156572
 30
0.0
 41
7.112
 42
7.112
 50
90.0
  0
LINE
  5
179
330
174
100
AcDbEntity
  8
0
  6
Continuous
 62
     7
370
     0
100
AcDbLine
 10
333.6225284314
 20
262.8110156572
 30
0.0
 11
401.0860989819
 21
262.8110156572
 31
0.0
  0
LINE
  5
17A
330
174
100
AcDbEntity
  8
0
  6
Continuous
 62
     7
370
     0
100
AcDbLine
 10
333.6225284314
 20
240.8110156572
 30
0.0
 11
401.0860989819
 21
240.8110156572
 31
0.0
  0
LINE
  5
17B
330
174
100
AcDbEntity
  8
0
  6
Continuous
 62
     7
370
     0
100
AcDbLine
 10
399.0860989819
 20
262.8110156572
 30
0.0
 11
399.0860989819
 21
275.5110156572
 31
0.0
  0
LINE
  5
17C
330
174
100
AcDbEntity
  8
0
  6
Continuous
 62
     7
370
     0
100
AcDbLine
 10
399.0860989819
 20
262.8110156572
 30
0.0
 11
399.0860989819
 21
240.8110156572
 31
0.0
  0
LINE
  5
17D
330
174
100
AcDbEntity
  8
0
  6
Continuous
 62
     7
370
     0
100
AcDbLine
 10
399.0860989819
 20
240.8110156572
 30
0.0
 11
399.0860989819
 21
228.1110156572
 31
0.0
  0
MTEXT
  5
17E
330
174
100
AcDbEntity
  8
0
  6
Continuous
 62
     7
370
    18
100
AcDbMText
 10
390.0626251528
 20
245.0609199012
 30
0.0
 40
7.0
 41
0.0
 71
     1
 72
     1
  1
22
  7
SLDTEXTSTYLE0
 11
-1.059690869644414E-14
 21
1.0
 31
0.0
 73
     1
 44
1.0
  0
ENDBLK
  5
176
330
174
100
AcDbEntity
  8
0
100
AcDbBlockEnd
  0
BLOCK
  5
181
330
180
100
AcDbEntity
  8
0
100
AcDbBlockBegin
  2
_D_7
 70
     0
 10
0.0
 20
0.0
 30
0.0
  3
_D_7
  1

  0
INSERT
  5
183
330
180
100
AcDbEntity
  8
0
  6
Continuous
 62
     7
370
    18
100
AcDbBlockReference
  2
_Closed
 10
399.0860989819
 20
225.8110156572
 30
0.0
 41
7.112
 42
7.112
 50
90.0
  0
INSERT
  5
184
330
180
100
AcDbEntity
  8
0
  6
Continuous
 62
     7
370
    18
100
AcDbBlockReference
  2
_Closed
 10
399.0860989819
 20
240.8110156572
 30
0.0
 41
7.112
 42
7.112
 50
270.0
  0
LINE
  5
185
330
180
100
AcDbEntity
  8
0
  6
Continuous
 62
     7
370
     0
100
AcDbLine
 10
350.2725284314
 20
225.8110156572
 30
0.0
 11
401.0860989819
 21
225.8110156572
 31
0.0
  0
LINE
  5
186
330
180
100
AcDbEntity
  8
0
  6
Continuous
 62
     7
370
     0
100
AcDbLine
 10
333.6225284314
 20
240.8110156572
 30
0.0
 11
401.0860989819
 21
240.8110156572
 31
0.0
  0
LINE
  5
187
330
180
100
AcDbEntity
  8
0
  6
Continuous
 62
     7
370
     0
100
AcDbLine
 10
399.0860989819
 20
225.8110156572
 30
0.0
 11
399.0860989819
 21
207.5696734158
 31
0.0
  0
LINE
  5
188
330
180
100
AcDbEntity
  8
0
  6
Continuous
 62
     7
370
     0
100
AcDbLine
 10
399.0860989819
 20
225.8110156572
 30
0.0
 11
399.0860989819
 21
240.8110156572
 31
0.0
  0
LINE
  5
189
330
180
100
AcDbEntity
  8
0
  6
Continuous
 62
     7
370
     0
100
AcDbLine
 10
399.0860989819
 20
240.8110156572
 30
0.0
 11
399.0860989819
 21
253.5110156572
 31
0.0
  0
MTEXT
  5
18A
330
180
100
AcDbEntity
  8
0
  6
Continuous
 62
     7
370
    18
100
AcDbMText
 10
390.0626251528
 20
207.5696734158
 30
0.0
 40
7.0
 41
0.0
 71
     1
 72
     1
  1
15
  7
SLDTEXTSTYLE0
 11
-3.935570548693196E-15
 21
1.0
 31
0.0
 73
     1
 44
1.0
  0
ENDBLK
  5
182
330
180
100
AcDbEntity
  8
0
100
AcDbBlockEnd
  0
BLOCK
  5
18D
330
18C
100
AcDbEntity
  8
0
100
AcDbBlockBegin
  2
_D_8
 70
     0
 10
0.0
 20
0.0
 30
0.0
  3
_D_8
  1

  0
INSERT
  5
18F
330
18C
100
AcDbEntity
  8
0
  6
Continuous
 62
     7
370
    18
100
AcDbBlockReference
  2
_Closed
 10
281.1225284314
 20
367.8842592965
 30
0.0
 41
7.112
 42
7.112
 50
180.0
  0
INSERT
  5
190
330
18C
100
AcDbEntity
  8
0
  6
Continuous
 62
     7
370
    18
100
AcDbBlockReference
  2
_Closed
 10
358.1225284314
 20
367.8842592965
 30
0.0
 41
7.112
 42
7.112
 50
0.0
  0
LINE
  5
191
330
18C
100
AcDbEntity
  8
0
  6
Continuous
 62
     7
370
     0
100
AcDbLine
 10
281.1225284314
 20
272.5068735206
 30
0.0
 11
281.1225284314
 21
369.8842592965
 31
0.0
  0
LINE
  5
192
330
18C
100
AcDbEntity
  8
0
  6
Continuous
 62
     7
370
     0
100
AcDbLine
 10
358.1225284314
 20
273.3010156569
 30
0.0
 11
358.1225284314
 21
369.8842592965
 31
0.0
  0
LINE
  5
193
330
18C
100
AcDbEntity
  8
0
  6
Continuous
 62
     7
370
     0
100
AcDbLine
 10
281.1225284314
 20
367.8842592965
 30
0.0
 11
358.1225284314
 21
367.8842592965
 31
0.0
  0
MTEXT
  5
194
330
18C
100
AcDbEntity
  8
0
  6
Continuous
 62
     7
370
    18
100
AcDbMText
 10
316.9237471532
 20
376.9077331256
 30
0.0
 40
7.0
 41
0.0
 71
     1
 72
     1
  1
77
  7
SLDTEXTSTYLE0
 73
     1
 44
1.0
  0
ENDBLK
  5
18E
330
18C
100
AcDbEntity
  8
0
100
AcDbBlockEnd
  0
BLOCK
  5
197
330
196
100
AcDbEntity
  8
0
100
AcDbBlockBegin
  2
_D_9
 70
     0
 10
0.0
 20
0.0
 30
0.0
  3
_D_9
  1

  0
INSERT
  5
199
330
196
100
AcDbEntity
  8
0
  6
Continuous
 62
     7
370
    18
100
AcDbBlockReference
  2
_Closed
 10
380.1225284321
 20
252.8110156572
 30
0.0
 41
7.112
 42
7.112
 50
270.0
  0
INSERT
  5
19A
330
196
100
AcDbEntity
  8
0
  6
Continuous
 62
     7
370
    18
100
AcDbBlockReference
  2
_Closed
 10
380.1225284321
 20
240.8110156572
 30
0.0
 41
7.112
 42
7.112
 50
90.0
  0
LINE
  5
19B
330
196
100
AcDbEntity
  8
0
  6
Continuous
 62
     7
370
     0
100
AcDbLine
 10
333.1225284314
 20
252.8110156572
 30
0.0
 11
382.1225284321
 21
252.8110156572
 31
0.0
  0
LINE
  5
19C
330
196
100
AcDbEntity
  8
0
  6
Continuous
 62
     7
370
     0
100
AcDbLine
 10
333.6225284314
 20
240.8110156572
 30
0.0
 11
382.1225284321
 21
240.8110156572
 31
0.0
  0
LINE
  5
19D
330
196
100
AcDbEntity
  8
0
  6
Continuous
 62
     7
370
     0
100
AcDbLine
 10
380.1225284321
 20
252.8110156572
 30
0.0
 11
380.1225284321
 21
265.5110156572
 31
0.0
  0
LINE
  5
19E
330
196
100
AcDbEntity
  8
0
  6
Continuous
 62
     7
370
     0
100
AcDbLine
 10
380.1225284321
 20
252.8110156572
 30
0.0
 11
380.1225284321
 21
240.8110156572
 31
0.0
  0
LINE
  5
19F
330
196
100
AcDbEntity
  8
0
  6
Continuous
 62
     7
370
     0
100
AcDbLine
 10
380.1225284321
 20
240.8110156572
 30
0.0
 11
380.1225284321
 21
228.1110156572
 31
0.0
  0
MTEXT
  5
1A0
330
196
100
AcDbEntity
  8
0
  6
Continuous
 62
     7
370
    18
100
AcDbMText
 10
371.0990546029
 20
242.9417350782
 30
0.0
 40
7.0
 41
0.0
 71
     1
 72
     1
  1
12
  7
SLDTEXTSTYLE0
 11
-7.044195017643634E-15
 21
1.0
 31
0.0
 73
     1
 44
1.0
  0
ENDBLK
  5
198
330
196
100
AcDbEntity
  8
0
100
AcDbBlockEnd
  0
BLOCK
  5
267
330
266
100
AcDbEntity
  8
0
100
AcDbBlockBegin
  2
_D_10
 70
     0
 10
0.0
 20
0.0
 30
0.0
  3
_D_10
  1

  0
INSERT
  5
269
330
266
100
AcDbEntity
  8
0
  6
Continuous
 62
     7
370
    18
100
AcDbBlockReference
  2
_Closed
 10
306.9725284314
 20
152.5792788459
 30
5.9999875
 41
7.112
 42
7.112
 50
180.0
  0
INSERT
  5
26A
330
266
100
AcDbEntity
  8
0
  6
Continuous
 62
     7
370
    18
100
AcDbBlockReference
  2
_Closed
 10
294.9725284314
 20
152.5792788459
 30
5.9999875
 41
7.112
 42
7.112
 50
0.0
  0
LINE
  5
26B
330
266
100
AcDbEntity
  8
0
  6
Continuous
 62
     7
370
     0
100
AcDbLine
 10
306.9725284314
 20
116.0304849885
 30
0.0
 11
306.9725284314
 21
154.5792788459
 31
0.0
  0
LINE
  5
26C
330
266
100
AcDbEntity
  8
0
  6
Continuous
 62
     7
370
     0
100
AcDbLine
 10
294.9725284314
 20
116.0304849885
 30
0.0
 11
294.9725284314
 21
154.5792788459
 31
0.0
  0
LINE
  5
26D
330
266
100
AcDbEntity
  8
0
  6
Continuous
 62
     7
370
     0
100
AcDbLine
 10
306.9725284314
 20
152.5792788459
 30
0.0
 11
319.6725284314
 21
152.5792788459
 31
0.0
  0
LINE
  5
26E
330
266
100
AcDbEntity
  8
0
  6
Continuous
 62
     7
370
     0
100
AcDbLine
 10
306.9725284314
 20
152.5792788459
 30
0.0
 11
294.9725284314
 21
152.5792788459
 31
0.0
  0
LINE
  5
26F
330
266
100
AcDbEntity
  8
0
  6
Continuous
 62
     7
370
     0
100
AcDbLine
 10
294.9725284314
 20
152.5792788459
 30
0.0
 11
282.2725284314
 21
152.5792788459
 31
0.0
  0
MTEXT
  5
270
330
266
100
AcDbEntity
  8
0
  6
Continuous
 62
     7
370
    18
100
AcDbMText
 10
294.6616040043
 20
161.6027526751
 30
0.0
 40
7.0
 41
0.0
 71
     1
 72
     1
  1
12
  7
SLDTEXTSTYLE0
 73
     1
 44
1.0
  0
ENDBLK
  5
268
330
266
100
AcDbEntity
  8
0
100
AcDbBlockEnd
  0
BLOCK
  5
273
330
272
100
AcDbEntity
  8
0
100
AcDbBlockBegin
  2
_D_11
 70
     0
 10
0.0
 20
0.0
 30
0.0
  3
_D_11
  1

  0
INSERT
  5
275
330
272
100
AcDbEntity
  8
0
  6
Continuous
 62
     7
370
    18
100
AcDbBlockReference
  2
_Closed
 10
300.9725284314
 20
138.9581019923
 30
5.9999875
 41
7.112
 42
7.112
 50
180.0
  0
INSERT
  5
276
330
272
100
AcDbEntity
  8
0
  6
Continuous
 62
     7
370
    18
100
AcDbBlockReference
  2
_Closed
 10
294.9725284314
 20
138.9581019923
 30
5.9999875
 41
7.112
 42
7.112
 50
0.0
  0
LINE
  5
277
330
272
100
AcDbEntity
  8
0
  6
Continuous
 62
     7
370
     0
100
AcDbLine
 10
300.9725284314
 20
116.0304849885
 30
0.0
 11
300.9725284314
 21
140.9581019923
 31
0.0
  0
LINE
  5
278
330
272
100
AcDbEntity
  8
0
  6
Continuous
 62
     7
370
     0
100
AcDbLine
 10
294.9725284314
 20
116.0304849885
 30
0.0
 11
294.9725284314
 21
140.9581019923
 31
0.0
  0
LINE
  5
279
330
272
100
AcDbEntity
  8
0
  6
Continuous
 62
     7
370
     0
100
AcDbLine
 10
300.9725284314
 20
138.9581019923
 30
0.0
 11
316.7432369567
 21
138.9581019923
 31
0.0
  0
LINE
  5
27A
330
272
100
AcDbEntity
  8
0
  6
Continuous
 62
     7
370
     0
100
AcDbLine
 10
300.9725284314
 20
138.9581019923
 30
0.0
 11
294.9725284314
 21
138.9581019923
 31
0.0
  0
LINE
  5
27B
330
272
100
AcDbEntity
  8
0
  6
Continuous
 62
     7
370
     0
100
AcDbLine
 10
294.9725284314
 20
138.9581019923
 30
0.0
 11
282.2725284314
 21
138.9581019923
 31
0.0
  0
MTEXT
  5
27C
330
272
100
AcDbEntity
  8
0
  6
Continuous
 62
     7
370
    18
100
AcDbMText
 10
311.5710145696
 20
147.9815758215
 30
0.0
 40
7.0
 41
0.0
 71
     1
 72
     1
  1
6
  7
SLDTEXTSTYLE0
 73
     1
 44
1.0
  0
ENDBLK
  5
274
330
272
100
AcDbEntity
  8
0
100
AcDbBlockEnd
  0
BLOCK
  5
27F
330
27E
100
AcDbEntity
  8
0
100
AcDbBlockBegin
  2
_D_12
 70
     0
 10
0.0
 20
0.0
 30
0.0
  3
_D_12
  1

  0
INSERT
  5
281
330
27E
100
AcDbEntity
  8
0
  6
Continuous
 62
     7
370
    18
100
AcDbBlockReference
  2
_Closed
 10
344.2725284314
 20
152.5792788459
 30
5.9999875
 41
7.112
 42
7.112
 50
180.0
  0
INSERT
  5
282
330
27E
100
AcDbEntity
  8
0
  6
Continuous
 62
     7
370
    18
100
AcDbBlockReference
  2
_Closed
 10
332.2725284314
 20
152.5792788459
 30
5.9999875
 41
7.112
 42
7.112
 50
0.0
  0
LINE
  5
283
330
27E
100
AcDbEntity
  8
0
  6
Continuous
 62
     7
370
     0
100
AcDbLine
 10
344.2725284314
 20
116.0304849885
 30
0.0
 11
344.2725284314
 21
154.5792788459
 31
0.0
  0
LINE
  5
284
330
27E
100
AcDbEntity
  8
0
  6
Continuous
 62
     7
370
     0
100
AcDbLine
 10
332.2725284314
 20
116.0304849885
 30
0.0
 11
332.2725284314
 21
154.5792788459
 31
0.0
  0
LINE
  5
285
330
27E
100
AcDbEntity
  8
0
  6
Continuous
 62
     7
370
     0
100
AcDbLine
 10
344.2725284314
 20
152.5792788459
 30
0.0
 11
356.9725284314
 21
152.5792788459
 31
0.0
  0
LINE
  5
286
330
27E
100
AcDbEntity
  8
0
  6
Continuous
 62
     7
370
     0
100
AcDbLine
 10
344.2725284314
 20
152.5792788459
 30
0.0
 11
332.2725284314
 21
152.5792788459
 31
0.0
  0
LINE
  5
287
330
27E
100
AcDbEntity
  8
0
  6
Continuous
 62
     7
370
     0
100
AcDbLine
 10
332.2725284314
 20
152.5792788459
 30
0.0
 11
319.5725284314
 21
152.5792788459
 31
0.0
  0
MTEXT
  5
288
330
27E
100
AcDbEntity
  8
0
  6
Continuous
 62
     7
370
    18
100
AcDbMText
 10
332.4357954848
 20
161.6027526751
 30
0.0
 40
7.0
 41
0.0
 71
     1
 72
     1
  1
12
  7
SLDTEXTSTYLE0
 73
     1
 44
1.0
  0
ENDBLK
  5
280
330
27E
100
AcDbEntity
  8
0
100
AcDbBlockEnd
  0
BLOCK
  5
28B
330
28A
100
AcDbEntity
  8
0
100
AcDbBlockBegin
  2
_D_13
 70
     0
 10
0.0
 20
0.0
 30
0.0
  3
_D_13
  1

  0
INSERT
  5
28D
330
28A
100
AcDbEntity
  8
0
  6
Continuous
 62
     7
370
    18
100
AcDbBlockReference
  2
_Closed
 10
338.2725284314
 20
138.9581019923
 30
5.9999875
 41
7.112
 42
7.112
 50
0.0
  0
INSERT
  5
28E
330
28A
100
AcDbEntity
  8
0
  6
Continuous
 62
     7
370
    18
100
AcDbBlockReference
  2
_Closed
 10
344.2725284314
 20
138.9581019923
 30
5.9999875
 41
7.112
 42
7.112
 50
180.0
  0
LINE
  5
28F
330
28A
100
AcDbEntity
  8
0
  6
Continuous
 62
     7
370
     0
100
AcDbLine
 10
338.2725284314
 20
116.0304849885
 30
0.0
 11
338.2725284314
 21
140.9581019923
 31
0.0
  0
LINE
  5
290
330
28A
100
AcDbEntity
  8
0
  6
Continuous
 62
     7
370
     0
100
AcDbLine
 10
344.2725284314
 20
116.0304849885
 30
0.0
 11
344.2725284314
 21
140.9581019923
 31
0.0
  0
LINE
  5
291
330
28A
100
AcDbEntity
  8
0
  6
Continuous
 62
     7
370
     0
100
AcDbLine
 10
338.2725284314
 20
138.9581019923
 30
0.0
 11
325.5725284314
 21
138.9581019923
 31
0.0
  0
LINE
  5
292
330
28A
100
AcDbEntity
  8
0
  6
Continuous
 62
     7
370
     0
100
AcDbLine
 10
338.2725284314
 20
138.9581019923
 30
0.0
 11
344.2725284314
 21
138.9581019923
 31
0.0
  0
LINE
  5
293
330
28A
100
AcDbEntity
  8
0
  6
Continuous
 62
     7
370
     0
100
AcDbLine
 10
344.2725284314
 20
138.9581019923
 30
0.0
 11
357.3259185101
 21
138.9581019923
 31
0.0
  0
MTEXT
  5
294
330
28A
100
AcDbEntity
  8
0
  6
Continuous
 62
     7
370
    18
100
AcDbMText
 10
352.1536961231
 20
147.9815758215
 30
0.0
 40
7.0
 41
0.0
 71
     1
 72
     1
  1
6
  7
SLDTEXTSTYLE0
 73
     1
 44
1.0
  0
ENDBLK
  5
28C
330
28A
100
AcDbEntity
  8
0
100
AcDbBlockEnd
  0
BLOCK
  5
297
330
296
100
AcDbEntity
  8
0
100
AcDbBlockBegin
  2
_D_14
 70
     0
 10
0.0
 20
0.0
 30
0.0
  3
_D_14
  1

  0
INSERT
  5
299
330
296
100
AcDbEntity
  8
0
  6
Continuous
 62
     7
370
    18
100
AcDbBlockReference
  2
_Closed
 10
293.9740396322
 20
114.7479042298
 30
5.9999875
 41
7.112
 42
7.112
 50
324.3025637782
  0
LINE
  5
29A
330
296
100
AcDbEntity
  8
0
  6
Continuous
 62
     7
370
     0
100
AcDbLine
 10
293.9740396322
 20
114.7479042298
 30
0.0
 11
258.9034188846
 21
139.9463222284
 31
0.0
  0
LINE
  5
29B
330
296
100
AcDbEntity
  8
0
  6
Continuous
 62
     7
370
     0
100
AcDbLine
 10
294.9725284314
 20
114.0304849885
 30
0.0
 11
293.9740396322
 21
114.7479042298
 31
0.0
  0
LINE
  5
29C
330
296
100
AcDbEntity
  8
0
  6
Continuous
 62
     7
370
     0
100
AcDbLine
 10
258.9034188846
 20
139.9463222284
 30
0.0
 11
208.8799466768
 21
139.9463222284
 31
0.0
  0
MTEXT
  5
29D
330
296
100
AcDbEntity
  8
0
  6
Continuous
 62
     7
370
    18
100
AcDbMText
 10
208.8799466768
 20
149.0767407601
 30
0.0
 40
7.0
 41
0.0
 71
     1
 72
     1
  1
2x2-M3
  7
SLDTEXTSTYLE0
 73
     1
 44
1.0
  0
INSERT
  5
29E
330
296
100
AcDbEntity
  8
0
  6
Continuous
 62
     7
370
    18
100
AcDbBlockReference
  2
SW_SYMBOL_HOLE_DEPTH
 10
240.5549464205
 20
140.9170253534
 30
0.0
 41
0.0044707031
 42
0.0044707031
 43
0.0044707031
  0
MTEXT
  5
29F
330
296
100
AcDbEntity
  8
0
  6
Continuous
 62
     7
370
    18
100
AcDbMText
 10
250.5561960319
 20
149.0767407601
 30
0.0
 40
7.0
 41
0.0
 71
     1
 72
     1
  1
5
  7
SLDTEXTSTYLE0
 73
     1
 44
1.0
  0
ENDBLK
  5
298
330
296
100
AcDbEntity
  8
0
100
AcDbBlockEnd
  0
BLOCK
  5
2A2
330
2A1
100
AcDbEntity
  8
0
100
AcDbBlockBegin
  2
_D_15
 70
     0
 10
0.0
 20
0.0
 30
0.0
  3
_D_15
  1

  0
INSERT
  5
2A4
330
2A1
100
AcDbEntity
  8
0
  6
Continuous
 62
     7
370
    18
100
AcDbBlockReference
  2
_Closed
 10
337.7205646241
 20
112.9318466467
 30
5.9999875
 41
7.112
 42
7.112
 50
63.3247174212
  0
LINE
  5
2A5
330
2A1
100
AcDbEntity
  8
0
  6
Continuous
 62
     7
370
     0
100
AcDbLine
 10
337.7205646241
 20
112.9318466467
 30
0.0
 11
320.9356231115
 21
79.5228077439
 31
0.0
  0
LINE
  5
2A6
330
2A1
100
AcDbEntity
  8
0
  6
Continuous
 62
     7
370
     0
100
AcDbLine
 10
338.2725284314
 20
114.0304849885
 30
0.0
 11
337.7205646241
 21
112.9318466467
 31
0.0
  0
LINE
  5
2A7
330
2A1
100
AcDbEntity
  8
0
  6
Continuous
 62
     7
370
     0
100
AcDbLine
 10
320.9356231115
 20
79.5228077439
 30
0.0
 11
377.4229172966
 21
79.5228077439
 31
0.0
  0
MTEXT
  5
2A8
330
2A1
100
AcDbEntity
  8
0
  6
Continuous
 62
     7
370
    18
100
AcDbMText
 10
324.1106231115
 20
88.6532262756
 30
0.0
 40
7.0
 41
0.0
 71
     1
 72
     1
  1
2X
  7
SLDTEXTSTYLE0
 73
     1
 44
1.0
  0
MTEXT
  5
2A9
330
2A1
100
AcDbEntity
  8
0
  6
Continuous
 62
     7
370
    18
100
AcDbMText
 10
334.970345383
 20
88.5462819223
 30
0.0
 40
7.0
 41
0.0
 71
     1
 72
     1
  1
%%c
  7
SLDTEXTSTYLE0
 73
     1
 44
1.0
  0
MTEXT
  5
2AA
330
2A1
100
AcDbEntity
  8
0
  6
Continuous
 62
     7
370
    18
100
AcDbMText
 10
345.5272201798
 20
88.6532262756
 30
0.0
 40
7.0
 41
0.0
 71
     1
 72
     1
  1
3H8
  7
SLDTEXTSTYLE0
 73
     1
 44
1.0
  0
INSERT
  5
2AB
330
2A1
100
AcDbEntity
  8
0
  6
Continuous
 62
     7
370
    18
100
AcDbBlockReference
  2
SW_SYMBOL_HOLE_DEPTH
 10
362.2494411073
 20
80.4935108689
 30
0.0
 41
0.0044707031
 42
0.0044707031
 43
0.0044707031
  0
MTEXT
  5
2AC
330
2A1
100
AcDbEntity
  8
0
  6
Continuous
 62
     7
370
    18
100
AcDbMText
 10
372.2506907186
 20
88.6532262756
 30
0.0
 40
7.0
 41
0.0
 71
     1
 72
     1
  1
2
  7
SLDTEXTSTYLE0
 73
     1
 44
1.0
  0
ENDBLK
  5
2A3
330
2A1
100
AcDbEntity
  8
0
100
AcDbBlockEnd
  0
BLOCK
  5
397
330
396
100
AcDbEntity
  8
0
100
AcDbBlockBegin
  2
_D_16
 70
     0
 10
0.0
 20
0.0
 30
0.0
  3
_D_16
  1

  0
INSERT
  5
399
330
396
100
AcDbEntity
  8
0
  6
Continuous
 62
     7
370
    18
100
AcDbBlockReference
  2
_Closed
 10
70.0856694104
 20
228.0110126054
 30
0.0000000003
 41
7.112
 42
7.112
 50
270.0
  0
INSERT
  5
39A
330
396
100
AcDbEntity
  8
0
  6
Continuous
 62
     7
370
    18
100
AcDbBlockReference
  2
_Closed
 10
70.0856694104
 20
328.8110156572
 30
0.0000000003
 41
7.112
 42
7.112
 50
90.0
  0
LINE
  5
39B
330
396
100
AcDbEntity
  8
0
  6
Continuous
 62
     7
370
     0
100
AcDbLine
 10
152.5288660614
 20
228.0110126054
 30
0.0
 11
68.0856694104
 21
228.0110126054
 31
0.0
  0
LINE
  5
39C
330
396
100
AcDbEntity
  8
0
  6
Continuous
 62
     7
370
     0
100
AcDbLine
 10
152.9288683603
 20
328.8110156572
 30
0.0
 11
68.0856694104
 21
328.8110156572
 31
0.0
  0
LINE
  5
39D
330
396
100
AcDbEntity
  8
0
  6
Continuous
 62
     7
370
     0
100
AcDbLine
 10
70.0856694104
 20
228.0110126054
 30
0.0
 11
70.0856694104
 21
328.8110156572
 31
0.0
  0
MTEXT
  5
39E
330
396
100
AcDbEntity
  8
0
  6
Continuous
 62
     7
370
    18
100
AcDbMText
 10
61.0621955812
 20
275.6799441462
 30
0.0
 40
7.0
 41
0.0
 71
     1
 72
     1
  1
101
  7
SLDTEXTSTYLE0
 11
3.169856808907806E-15
 21
1.0
 31
0.0
 73
     1
 44
1.0
  0
ENDBLK
  5
398
330
396
100
AcDbEntity
  8
0
100
AcDbBlockEnd
  0
BLOCK
  5
3A1
330
3A0
100
AcDbEntity
  8
0
100
AcDbBlockBegin
  2
_D_17
 70
     0
 10
0.0
 20
0.0
 30
0.0
  3
_D_17
  1

  0
INSERT
  5
3A3
330
3A0
100
AcDbEntity
  8
0
  6
Continuous
 62
     7
370
    18
100
AcDbBlockReference
  2
_Closed
 10
200.9288933603
 20
225.8110156572
 30
0.0000000003
 41
7.112
 42
7.112
 50
90.0
  0
INSERT
  5
3A4
330
3A0
100
AcDbEntity
  8
0
  6
Continuous
 62
     7
370
    18
100
AcDbBlockReference
  2
_Closed
 10
200.9288933603
 20
228.0110179677
 30
0.0000000003
 41
7.112
 42
7.112
 50
270.0
  0
LINE
  5
3A5
330
3A0
100
AcDbEntity
  8
0
  6
Continuous
 62
     7
370
     0
100
AcDbLine
 10
169.9288683603
 20
225.8110156572
 30
0.0
 11
202.9288933603
 21
225.8110156572
 31
0.0
  0
LINE
  5
3A6
330
3A0
100
AcDbEntity
  8
0
  6
Continuous
 62
     7
370
     0
100
AcDbLine
 10
160.9288629966
 20
228.0110179677
 30
0.0
 11
202.9288933603
 21
228.0110179677
 31
0.0
  0
LINE
  5
3A7
330
3A0
100
AcDbEntity
  8
0
  6
Continuous
 62
     7
370
     0
100
AcDbLine
 10
200.9288933603
 20
225.8110156572
 30
0.0
 11
200.9288933603
 21
213.1110156572
 31
0.0
  0
LINE
  5
3A8
330
3A0
100
AcDbEntity
  8
0
  6
Continuous
 62
     7
370
     0
100
AcDbLine
 10
200.9288933603
 20
225.8110156572
 30
0.0
 11
200.9288933603
 21
228.0110179677
 31
0.0
  0
LINE
  5
3A9
330
3A0
100
AcDbEntity
  8
0
  6
Continuous
 62
     7
370
     0
100
AcDbLine
 10
200.9288933603
 20
228.0110179677
 30
0.0
 11
200.9288933603
 21
247.3894562278
 31
0.0
  0
MTEXT
  5
3AA
330
3A0
100
AcDbEntity
  8
0
  6
Continuous
 62
     7
370
    18
100
AcDbMText
 10
191.9054195311
 20
242.2172338408
 30
0.0
 40
7.0
 41
0.0
 71
     1
 72
     1
  1
2
  7
SLDTEXTSTYLE0
 11
3.613946018757869E-15
 21
1.0
 31
0.0
 73
     1
 44
1.0
  0
ENDBLK
  5
3A2
330
3A0
100
AcDbEntity
  8
0
100
AcDbBlockEnd
  0
BLOCK
  5
3AD
330
3AC
100
AcDbEntity
  8
0
100
AcDbBlockBegin
  2
_D_18
 70
     0
 10
0.0
 20
0.0
 30
0.0
  3
_D_18
  1

  0
INSERT
  5
3AF
330
3AC
100
AcDbEntity
  8
0
  6
Continuous
 62
     7
370
    18
100
AcDbBlockReference
  2
_Closed
 10
218.8015007028
 20
225.8110156572
 30
0.0000000003
 41
7.112
 42
7.112
 50
90.0
  0
INSERT
  5
3B0
330
3AC
100
AcDbEntity
  8
0
  6
Continuous
 62
     7
370
    18
100
AcDbBlockReference
  2
_Closed
 10
218.8015007028
 20
234.8110156572
 30
0.0000000003
 41
7.112
 42
7.112
 50
270.0
  0
LINE
  5
3B1
330
3AC
100
AcDbEntity
  8
0
  6
Continuous
 62
     7
370
     0
100
AcDbLine
 10
169.9288683603
 20
225.8110156572
 30
0.0
 11
220.8015007028
 21
225.8110156572
 31
0.0
  0
LINE
  5
3B2
330
3AC
100
AcDbEntity
  8
0
  6
Continuous
 62
     7
370
     0
100
AcDbLine
 10
181.4288683603
 20
234.8110156572
 30
0.0
 11
220.8015007028
 21
234.8110156572
 31
0.0
  0
LINE
  5
3B3
330
3AC
100
AcDbEntity
  8
0
  6
Continuous
 62
     7
370
     0
100
AcDbLine
 10
218.8015007028
 20
225.8110156572
 30
0.0
 11
218.8015007028
 21
213.1110156572
 31
0.0
  0
LINE
  5
3B4
330
3AC
100
AcDbEntity
  8
0
  6
Continuous
 62
     7
370
     0
100
AcDbLine
 10
218.8015007028
 20
225.8110156572
 30
0.0
 11
218.8015007028
 21
234.8110156572
 31
0.0
  0
LINE
  5
3B5
330
3AC
100
AcDbEntity
  8
0
  6
Continuous
 62
     7
370
     0
100
AcDbLine
 10
218.8015007028
 20
234.8110156572
 30
0.0
 11
218.8015007028
 21
252.1218476455
 31
0.0
  0
MTEXT
  5
3B6
330
3AC
100
AcDbEntity
  8
0
  6
Continuous
 62
     7
370
    18
100
AcDbMText
 10
209.7780268736
 20
246.9496252584
 30
0.0
 40
7.0
 41
0.0
 71
     1
 72
     1
  1
9
  7
SLDTEXTSTYLE0
 11
3.613946018757869E-15
 21
1.0
 31
0.0
 73
     1
 44
1.0
  0
ENDBLK
  5
3AE
330
3AC
100
AcDbEntity
  8
0
100
AcDbBlockEnd
  0
BLOCK
  5
3B9
330
3B8
100
AcDbEntity
  8
0
100
AcDbBlockBegin
  2
_D_19
 70
     0
 10
0.0
 20
0.0
 30
0.0
  3
_D_19
  1

  0
INSERT
  5
3BB
330
3B8
100
AcDbEntity
  8
0
  6
Continuous
 62
     7
370
    18
100
AcDbBlockReference
  2
_Closed
 10
118.7798238889
 20
234.8110156572
 30
0.0000000003
 41
7.112
 42
7.112
 50
270.0
  0
INSERT
  5
3BC
330
3B8
100
AcDbEntity
  8
0
  6
Continuous
 62
     7
370
    18
100
AcDbBlockReference
  2
_Closed
 10
118.7798238889
 20
274.3110156568
 30
0.0000000003
 41
7.112
 42
7.112
 50
90.0
  0
LINE
  5
3BD
330
3B8
100
AcDbEntity
  8
0
  6
Continuous
 62
     7
370
     0
100
AcDbLine
 10
146.4288683603
 20
234.8110156572
 30
0.0
 11
116.7798238889
 21
234.8110156572
 31
0.0
  0
LINE
  5
3BE
330
3B8
100
AcDbEntity
  8
0
  6
Continuous
 62
     7
370
     0
100
AcDbLine
 10
145.9288683603
 20
274.3110156568
 30
0.0
 11
116.7798238889
 21
274.3110156568
 31
0.0
  0
LINE
  5
3BF
330
3B8
100
AcDbEntity
  8
0
  6
Continuous
 62
     7
370
     0
100
AcDbLine
 10
118.7798238889
 20
234.8110156572
 30
0.0
 11
118.7798238889
 21
274.3110156568
 31
0.0
  0
MTEXT
  5
3C0
330
3B8
100
AcDbEntity
  8
0
  6
Continuous
 62
     7
370
    18
100
AcDbMText
 10
109.7563500597
 20
249.7228136512
 30
0.0
 40
7.0
 41
0.0
 71
     1
 72
     1
  1
40
  7
SLDTEXTSTYLE0
 11
3.613946018757869E-15
 21
1.0
 31
0.0
 73
     1
 44
1.0
  0
ENDBLK
  5
3BA
330
3B8
100
AcDbEntity
  8
0
100
AcDbBlockEnd
  0
BLOCK
  5
3C3
330
3C2
100
AcDbEntity
  8
0
100
AcDbBlockBegin
  2
_D_20
 70
     0
 10
0.0
 20
0.0
 30
0.0
  3
_D_20
  1

  0
INSERT
  5
3C5
330
3C2
100
AcDbEntity
  8
0
  6
Continuous
 62
     7
370
    18
100
AcDbBlockReference
  2
_Closed
 10
118.7798238889
 20
274.3110156568
 30
0.0000000003
 41
7.112
 42
7.112
 50
90.0
  0
INSERT
  5
3C6
330
3C2
100
AcDbEntity
  8
0
  6
Continuous
 62
     7
370
    18
100
AcDbBlockReference
  2
_Closed
 10
118.7798238889
 20
308.3110156572
 30
0.0000000003
 41
7.112
 42
7.112
 50
270.0
  0
LINE
  5
3C7
330
3C2
100
AcDbEntity
  8
0
  6
Continuous
 62
     7
370
     0
100
AcDbLine
 10
145.9288683603
 20
274.3110156568
 30
0.0
 11
116.7798238889
 21
274.3110156568
 31
0.0
  0
LINE
  5
3C8
330
3C2
100
AcDbEntity
  8
0
  6
Continuous
 62
     7
370
     0
100
AcDbLine
 10
149.0836357816
 20
308.3110156572
 30
0.0
 11
116.7798238889
 21
308.3110156572
 31
0.0
  0
LINE
  5
3C9
330
3C2
100
AcDbEntity
  8
0
  6
Continuous
 62
     7
370
     0
100
AcDbLine
 10
118.7798238889
 20
274.3110156568
 30
0.0
 11
118.7798238889
 21
261.6110156568
 31
0.0
  0
LINE
  5
3CA
330
3C2
100
AcDbEntity
  8
0
  6
Continuous
 62
     7
370
     0
100
AcDbLine
 10
118.7798238889
 20
274.3110156568
 30
0.0
 11
118.7798238889
 21
308.3110156572
 31
0.0
  0
LINE
  5
3CB
330
3C2
100
AcDbEntity
  8
0
  6
Continuous
 62
     7
370
     0
100
AcDbLine
 10
118.7798238889
 20
308.3110156572
 30
0.0
 11
118.7798238889
 21
321.0110156572
 31
0.0
  0
MTEXT
  5
3CC
330
3C2
100
AcDbEntity
  8
0
  6
Continuous
 62
     7
370
    18
100
AcDbMText
 10
109.7563500597
 20
290.3154645666
 30
0.0
 40
7.0
 41
0.0
 71
     1
 72
     1
  1
34
  7
SLDTEXTSTYLE0
 11
3.613946018757869E-15
 21
1.0
 31
0.0
 73
     1
 44
1.0
  0
ENDBLK
  5
3C4
330
3C2
100
AcDbEntity
  8
0
100
AcDbBlockEnd
  0
BLOCK
  5
3CF
330
3CE
100
AcDbEntity
  8
0
100
AcDbBlockBegin
  2
_D_21
 70
     0
 10
0.0
 20
0.0
 30
0.0
  3
_D_21
  1

  0
INSERT
  5
3D1
330
3CE
100
AcDbEntity
  8
0
  6
Continuous
 62
     7
370
    18
100
AcDbBlockReference
  2
_Closed
 10
146.9288683609
 20
388.6207381353
 30
0.0000000003
 41
7.112
 42
7.112
 50
0.0
  0
INSERT
  5
3D2
330
3CE
100
AcDbEntity
  8
0
  6
Continuous
 62
     7
370
    18
100
AcDbBlockReference
  2
_Closed
 10
180.9288683603
 20
388.6207381353
 30
0.0000000003
 41
7.112
 42
7.112
 50
180.0
  0
LINE
  5
3D3
330
3CE
100
AcDbEntity
  8
0
  6
Continuous
 62
     7
370
     0
100
AcDbLine
 10
146.9288683609
 20
271.8110156578
 30
0.0
 11
146.9288683609
 21
390.6207381353
 31
0.0
  0
LINE
  5
3D4
330
3CE
100
AcDbEntity
  8
0
  6
Continuous
 62
     7
370
     0
100
AcDbLine
 10
180.9288683603
 20
271.8110156572
 30
0.0
 11
180.9288683603
 21
390.6207381353
 31
0.0
  0
LINE
  5
3D5
330
3CE
100
AcDbEntity
  8
0
  6
Continuous
 62
     7
370
     0
100
AcDbLine
 10
146.9288683609
 20
388.6207381353
 30
0.0
 11
134.2288683609
 21
388.6207381353
 31
0.0
  0
LINE
  5
3D6
330
3CE
100
AcDbEntity
  8
0
  6
Continuous
 62
     7
370
     0
100
AcDbLine
 10
146.9288683609
 20
388.6207381353
 30
0.0
 11
180.9288683603
 21
388.6207381353
 31
0.0
  0
LINE
  5
3D7
330
3CE
100
AcDbEntity
  8
0
  6
Continuous
 62
     7
370
     0
100
AcDbLine
 10
180.9288683603
 20
388.6207381353
 30
0.0
 11
193.6288683603
 21
388.6207381353
 31
0.0
  0
MTEXT
  5
3D8
330
3CE
100
AcDbEntity
  8
0
  6
Continuous
 62
     7
370
    18
100
AcDbMText
 10
158.8944594494
 20
397.6442119644
 30
0.0
 40
7.0
 41
0.0
 71
     1
 72
     1
  1
34
  7
SLDTEXTSTYLE0
 73
     1
 44
1.0
  0
ENDBLK
  5
3D0
330
3CE
100
AcDbEntity
  8
0
100
AcDbBlockEnd
  0
BLOCK
  5
3DB
330
3DA
100
AcDbEntity
  8
0
100
AcDbBlockBegin
  2
_D_22
 70
     0
 10
0.0
 20
0.0
 30
0.0
  3
_D_22
  1

  0
INSERT
  5
3DD
330
3DA
100
AcDbEntity
  8
0
  6
Continuous
 62
     7
370
    18
100
AcDbBlockReference
  2
_Closed
 10
149.9288683603
 20
369.0544577372
 30
0.0000000003
 41
7.112
 42
7.112
 50
0.0
  0
INSERT
  5
3DE
330
3DA
100
AcDbEntity
  8
0
  6
Continuous
 62
     7
370
    18
100
AcDbBlockReference
  2
_Closed
 10
177.9288683603
 20
369.0544577372
 30
0.0000000003
 41
7.112
 42
7.112
 50
180.0
  0
LINE
  5
3DF
330
3DA
100
AcDbEntity
  8
0
  6
Continuous
 62
     7
370
     0
100
AcDbLine
 10
149.9288683603
 20
310.3110156572
 30
0.0
 11
149.9288683603
 21
371.0544577372
 31
0.0
  0
LINE
  5
3E0
330
3DA
100
AcDbEntity
  8
0
  6
Continuous
 62
     7
370
     0
100
AcDbLine
 10
177.9288683603
 20
310.3110156572
 30
0.0
 11
177.9288683603
 21
371.0544577372
 31
0.0
  0
LINE
  5
3E1
330
3DA
100
AcDbEntity
  8
0
  6
Continuous
 62
     7
370
     0
100
AcDbLine
 10
149.9288683603
 20
369.0544577372
 30
0.0
 11
137.2288683603
 21
369.0544577372
 31
0.0
  0
LINE
  5
3E2
330
3DA
100
AcDbEntity
  8
0
  6
Continuous
 62
     7
370
     0
100
AcDbLine
 10
149.9288683603
 20
369.0544577372
 30
0.0
 11
177.9288683603
 21
369.0544577372
 31
0.0
  0
LINE
  5
3E3
330
3DA
100
AcDbEntity
  8
0
  6
Continuous
 62
     7
370
     0
100
AcDbLine
 10
177.9288683603
 20
369.0544577372
 30
0.0
 11
190.6288683603
 21
369.0544577372
 31
0.0
  0
INSERT
  5
3EB
330
3DA
100
AcDbEntity
  8
0
  6
Continuous
 62
     7
370
    18
100
AcDbBlockReference
  2
SW_SYMBOL_MOD_BOX
 10
149.9372207182
 20
370.0251608622
 30
0.0
 41
0.0044707031
 42
0.0044707031
 43
0.0044707031
 50
0.0
  0
MTEXT
  5
3EC
330
3DA
100
AcDbEntity
  8
0
  6
Continuous
 62
     7
370
    18
100
AcDbMText
 10
159.9384703296
 20
378.184876269
 30
0.0
 40
7.0
 41
0.0
 71
     1
 72
     1
  1
28
  7
SLDTEXTSTYLE0
 73
     1
 44
1.0
  0
ENDBLK
  5
3DC
330
3DA
100
AcDbEntity
  8
0
100
AcDbBlockEnd
  0
BLOCK
  5
3E5
330
3E4
100
AcDbEntity
  8
0
100
AcDbBlockBegin
  2
SW_SYMBOL_MOD_BOX
 70
     0
 10
0.0
 20
0.0
 30
0.0
  3
SW_SYMBOL_MOD_BOX
  1

  0
LINE
  5
3E7
330
3E4
100
AcDbEntity
  8
0
  6
Continuous
 62
     0
370
    18
100
AcDbLine
 10
400.0
 20
400.0
 30
0.0
 11
1600.0
 21
400.0
 31
0.0
  0
LINE
  5
3E8
330
3E4
100
AcDbEntity
  8
0
  6
Continuous
 62
     0
370
    18
100
AcDbLine
 10
400.0
 20
400.0
 30
0.0
 11
400.0
 21
1600.0
 31
0.0
  0
LINE
  5
3E9
330
3E4
100
AcDbEntity
  8
0
  6
Continuous
 62
     0
370
    18
100
AcDbLine
 10
400.0
 20
1600.0
 30
0.0
 11
1600.0
 21
1600.0
 31
0.0
  0
LINE
  5
3EA
330
3E4
100
AcDbEntity
  8
0
  6
Continuous
 62
     0
370
    18
100
AcDbLine
 10
1600.0
 20
1600.0
 30
0.0
 11
1600.0
 21
400.0
 31
0.0
  0
ENDBLK
  5
3E6
330
3E4
100
AcDbEntity
  8
0
100
AcDbBlockEnd
  0
BLOCK
  5
3EF
330
3EE
100
AcDbEntity
  8
0
100
AcDbBlockBegin
  2
_D_23
 70
     0
 10
0.0
 20
0.0
 30
0.0
  3
_D_23
  1

  0
INSERT
  5
3F1
330
3EE
100
AcDbEntity
  8
0
  6
Continuous
 62
     7
370
    18
100
AcDbBlockReference
  2
_Closed
 10
153.9288683603
 20
348.8110156572
 30
0.0000000003
 41
7.112
 42
7.112
 50
0.0
  0
INSERT
  5
3F2
330
3EE
100
AcDbEntity
  8
0
  6
Continuous
 62
     7
370
    18
100
AcDbBlockReference
  2
_Closed
 10
173.9288683603
 20
348.8110156572
 30
0.0000000003
 41
7.112
 42
7.112
 50
180.0
  0
LINE
  5
3F3
330
3EE
100
AcDbEntity
  8
0
  6
Continuous
 62
     7
370
     0
100
AcDbLine
 10
153.9288683603
 20
328.3110156572
 30
0.0
 11
153.9288683603
 21
350.8110156572
 31
0.0
  0
LINE
  5
3F4
330
3EE
100
AcDbEntity
  8
0
  6
Continuous
 62
     7
370
     0
100
AcDbLine
 10
173.9288683603
 20
328.3110156572
 30
0.0
 11
173.9288683603
 21
350.8110156572
 31
0.0
  0
LINE
  5
3F5
330
3EE
100
AcDbEntity
  8
0
  6
Continuous
 62
     7
370
     0
100
AcDbLine
 10
153.9288683603
 20
348.8110156572
 30
0.0
 11
141.2288683603
 21
348.8110156572
 31
0.0
  0
LINE
  5
3F6
330
3EE
100
AcDbEntity
  8
0
  6
Continuous
 62
     7
370
     0
100
AcDbLine
 10
153.9288683603
 20
348.8110156572
 30
0.0
 11
173.9288683603
 21
348.8110156572
 31
0.0
  0
LINE
  5
3F7
330
3EE
100
AcDbEntity
  8
0
  6
Continuous
 62
     7
370
     0
100
AcDbLine
 10
173.9288683603
 20
348.8110156572
 30
0.0
 11
186.6288683603
 21
348.8110156572
 31
0.0
  0
MTEXT
  5
3F8
330
3EE
100
AcDbEntity
  8
0
  6
Continuous
 62
     7
370
    18
100
AcDbMText
 10
158.8944594494
 20
357.8344894863
 30
0.0
 40
7.0
 41
0.0
 71
     1
 72
     1
  1
20
  7
SLDTEXTSTYLE0
 73
     1
 44
1.0
  0
ENDBLK
  5
3F0
330
3EE
100
AcDbEntity
  8
0
100
AcDbBlockEnd
  0
BLOCK
  5
3FB
330
3FA
100
AcDbEntity
  8
0
100
AcDbBlockBegin
  2
_D_24
 70
     0
 10
0.0
 20
0.0
 30
0.0
  3
_D_24
  1

  0
INSERT
  5
3FD
330
3FA
100
AcDbEntity
  8
0
  6
Continuous
 62
     7
370
    18
100
AcDbBlockReference
  2
_Closed
 10
149.0003651104
 20
251.3276472892
 30
0.0
 41
7.112
 42
7.112
 50
57.9558023853
  0
LINE
  5
3FE
330
3FA
100
AcDbEntity
  8
0
  6
Continuous
 62
     7
370
     0
100
AcDbLine
 10
149.0003651104
 20
251.3276472892
 30
0.0
 11
116.6157373211
 21
199.5902597488
 31
0.0
  0
LINE
  5
3FF
330
3FA
100
AcDbEntity
  8
0
  6
Continuous
 62
     7
370
     0
100
AcDbLine
 10
149.9288683603
 20
252.8110156572
 30
0.0
 11
149.0003651104
 21
251.3276472892
 31
0.0
  0
LINE
  5
400
330
3FA
100
AcDbEntity
  8
0
  6
Continuous
 62
     7
370
     0
100
AcDbLine
 10
116.6157373211
 20
199.5902597488
 30
0.0
 11
62.7145582876
 21
199.5902597488
 31
0.0
  0
MTEXT
  5
401
330
3FA
100
AcDbEntity
  8
0
  6
Continuous
 62
     7
370
    18
100
AcDbMText
 10
62.7145582876
 20
208.7206782806
 30
0.0
 40
7.0
 41
0.0
 71
     1
 72
     1
  1
2-
  7
SLDTEXTSTYLE0
 73
     1
 44
1.0
  0
MTEXT
  5
402
330
3FA
100
AcDbEntity
  8
0
  6
Continuous
 62
     7
370
    18
100
AcDbMText
 10
70.9881691328
 20
208.6137339272
 30
0.0
 40
7.0
 41
0.0
 71
     1
 72
     1
  1
%%c
  7
SLDTEXTSTYLE0
 73
     1
 44
1.0
  0
MTEXT
  5
403
330
3FA
100
AcDbEntity
  8
0
  6
Continuous
 62
     7
370
    18
100
AcDbMText
 10
81.5450439296
 20
208.7206782806
 30
0.0
 40
7.0
 41
0.0
 71
     1
 72
     1
  1
3H8
  7
SLDTEXTSTYLE0
 73
     1
 44
1.0
  0
INSERT
  5
404
330
3FA
100
AcDbEntity
  8
0
  6
Continuous
 62
     7
370
    18
100
AcDbBlockReference
  2
SW_SYMBOL_HOLE_DEPTH
 10
98.2672685823
 20
200.5609628738
 30
0.0
 41
0.0044707031
 42
0.0044707031
 43
0.0044707031
  0
MTEXT
  5
405
330
3FA
100
AcDbEntity
  8
0
  6
Continuous
 62
     7
370
    18
100
AcDbMText
 10
108.2685181937
 20
208.7206782806
 30
0.0
 40
7.0
 41
0.0
 71
     1
 72
     1
  1
3
  7
SLDTEXTSTYLE0
 73
     1
 44
1.0
  0
ENDBLK
  5
3FC
330
3FA
100
AcDbEntity
  8
0
100
AcDbBlockEnd
  0
BLOCK
  5
408
330
407
100
AcDbEntity
  8
0
100
AcDbBlockBegin
  2
_D_25
 70
     0
 10
0.0
 20
0.0
 30
0.0
  3
_D_25
  1

  0
INSERT
  5
40A
330
407
100
AcDbEntity
  8
0
  6
Continuous
 62
     7
370
    18
100
AcDbBlockReference
  2
_Closed
 10
149.9288683603
 20
175.2655410391
 30
0.0000000003
 41
7.112
 42
7.112
 50
0.0
  0
INSERT
  5
40B
330
407
100
AcDbEntity
  8
0
  6
Continuous
 62
     7
370
    18
100
AcDbBlockReference
  2
_Closed
 10
177.9288683603
 20
175.2655410391
 30
0.0000000003
 41
7.112
 42
7.112
 50
180.0
  0
LINE
  5
40C
330
407
100
AcDbEntity
  8
0
  6
Continuous
 62
     7
370
     0
100
AcDbLine
 10
149.9288683603
 20
236.8110156572
 30
0.0
 11
149.9288683603
 21
173.2655410391
 31
0.0
  0
LINE
  5
40D
330
407
100
AcDbEntity
  8
0
  6
Continuous
 62
     7
370
     0
100
AcDbLine
 10
177.9288683603
 20
236.8110156572
 30
0.0
 11
177.9288683603
 21
173.2655410391
 31
0.0
  0
LINE
  5
40E
330
407
100
AcDbEntity
  8
0
  6
Continuous
 62
     7
370
     0
100
AcDbLine
 10
149.9288683603
 20
175.2655410391
 30
0.0
 11
137.2288683603
 21
175.2655410391
 31
0.0
  0
LINE
  5
40F
330
407
100
AcDbEntity
  8
0
  6
Continuous
 62
     7
370
     0
100
AcDbLine
 10
149.9288683603
 20
175.2655410391
 30
0.0
 11
177.9288683603
 21
175.2655410391
 31
0.0
  0
LINE
  5
410
330
407
100
AcDbEntity
  8
0
  6
Continuous
 62
     7
370
     0
100
AcDbLine
 10
177.9288683603
 20
175.2655410391
 30
0.0
 11
190.6288683603
 21
175.2655410391
 31
0.0
  0
MTEXT
  5
411
330
407
100
AcDbEntity
  8
0
  6
Continuous
 62
     7
370
    18
100
AcDbMText
 10
158.8944594494
 20
184.2890148683
 30
0.0
 40
7.0
 41
0.0
 71
     1
 72
     1
  1
28
  7
SLDTEXTSTYLE0
 73
     1
 44
1.0
  0
ENDBLK
  5
409
330
407
100
AcDbEntity
  8
0
100
AcDbBlockEnd
  0
BLOCK
  5
414
330
413
100
AcDbEntity
  8
0
100
AcDbBlockBegin
  2
_D_26
 70
     0
 10
0.0
 20
0.0
 30
0.0
  3
_D_26
  1

  0
INSERT
  5
416
330
413
100
AcDbEntity
  8
0
  6
Continuous
 62
     7
370
    18
100
AcDbBlockReference
  2
_Closed
 10
239.196325636
 20
238.8110156572
 30
0.0000000003
 41
7.112
 42
7.112
 50
90.0
  0
INSERT
  5
417
330
413
100
AcDbEntity
  8
0
  6
Continuous
 62
     7
370
    18
100
AcDbBlockReference
  2
_Closed
 10
239.196325636
 20
266.8110156572
 30
0.0000000003
 41
7.112
 42
7.112
 50
270.0
  0
LINE
  5
418
330
413
100
AcDbEntity
  8
0
  6
Continuous
 62
     7
370
     0
100
AcDbLine
 10
179.9288683603
 20
238.8110156572
 30
0.0
 11
241.196325636
 21
238.8110156572
 31
0.0
  0
LINE
  5
419
330
413
100
AcDbEntity
  8
0
  6
Continuous
 62
     7
370
     0
100
AcDbLine
 10
179.9288683603
 20
266.8110156572
 30
0.0
 11
241.196325636
 21
266.8110156572
 31
0.0
  0
LINE
  5
41A
330
413
100
AcDbEntity
  8
0
  6
Continuous
 62
     7
370
     0
100
AcDbLine
 10
239.196325636
 20
238.8110156572
 30
0.0
 11
239.196325636
 21
226.1110156572
 31
0.0
  0
LINE
  5
41B
330
413
100
AcDbEntity
  8
0
  6
Continuous
 62
     7
370
     0
100
AcDbLine
 10
239.196325636
 20
238.8110156572
 30
0.0
 11
239.196325636
 21
266.8110156572
 31
0.0
  0
LINE
  5
41C
330
413
100
AcDbEntity
  8
0
  6
Continuous
 62
     7
370
     0
100
AcDbLine
 10
239.196325636
 20
266.8110156572
 30
0.0
 11
239.196325636
 21
279.5110156572
 31
0.0
  0
MTEXT
  5
41D
330
413
100
AcDbEntity
  8
0
  6
Continuous
 62
     7
370
    18
100
AcDbMText
 10
230.1728518069
 20
247.4148790903
 30
0.0
 40
7.0
 41
0.0
 71
     1
 72
     1
  1
28
  7
SLDTEXTSTYLE0
 11
3.613946018757869E-15
 21
1.0
 31
0.0
 73
     1
 44
1.0
  0
ENDBLK
  5
415
330
413
100
AcDbEntity
  8
0
100
AcDbBlockEnd
  0
BLOCK
  5
420
330
41F
100
AcDbEntity
  8
0
100
AcDbBlockBegin
  2
_D_27
 70
     0
 10
0.0
 20
0.0
 30
0.0
  3
_D_27
  1

  0
INSERT
  5
422
330
41F
100
AcDbEntity
  8
0
  6
Continuous
 62
     7
370
    18
100
AcDbBlockReference
  2
_Closed
 10
239.196325636
 20
225.8110156572
 30
0.0000000003
 41
7.112
 42
7.112
 50
90.0
  0
INSERT
  5
423
330
41F
100
AcDbEntity
  8
0
  6
Continuous
 62
     7
370
    18
100
AcDbBlockReference
  2
_Closed
 10
239.196325636
 20
238.8110156572
 30
0.0000000003
 41
7.112
 42
7.112
 50
270.0
  0
LINE
  5
424
330
41F
100
AcDbEntity
  8
0
  6
Continuous
 62
     7
370
     0
100
AcDbLine
 10
169.9288683603
 20
225.8110156572
 30
0.0
 11
241.196325636
 21
225.8110156572
 31
0.0
  0
LINE
  5
425
330
41F
100
AcDbEntity
  8
0
  6
Continuous
 62
     7
370
     0
100
AcDbLine
 10
179.9288683603
 20
238.8110156572
 30
0.0
 11
241.196325636
 21
238.8110156572
 31
0.0
  0
LINE
  5
426
330
41F
100
AcDbEntity
  8
0
  6
Continuous
 62
     7
370
     0
100
AcDbLine
 10
239.196325636
 20
225.8110156572
 30
0.0
 11
239.196325636
 21
208.0518708768
 31
0.0
  0
LINE
  5
427
330
41F
100
AcDbEntity
  8
0
  6
Continuous
 62
     7
370
     0
100
AcDbLine
 10
239.196325636
 20
225.8110156572
 30
0.0
 11
239.196325636
 21
238.8110156572
 31
0.0
  0
LINE
  5
428
330
41F
100
AcDbEntity
  8
0
  6
Continuous
 62
     7
370
     0
100
AcDbLine
 10
239.196325636
 20
238.8110156572
 30
0.0
 11
239.196325636
 21
251.5110156572
 31
0.0
  0
MTEXT
  5
429
330
41F
100
AcDbEntity
  8
0
  6
Continuous
 62
     7
370
    18
100
AcDbMText
 10
230.1728518068
 20
208.0518708768
 30
0.0
 40
7.0
 41
0.0
 71
     1
 72
     1
  1
13
  7
SLDTEXTSTYLE0
 11
3.613946018757869E-15
 21
1.0
 31
0.0
 73
     1
 44
1.0
  0
ENDBLK
  5
421
330
41F
100
AcDbEntity
  8
0
100
AcDbBlockEnd
  0
BLOCK
  5
42C
330
42B
100
AcDbEntity
  8
0
100
AcDbBlockBegin
  2
_D_28
 70
     0
 10
0.0
 20
0.0
 30
0.0
  3
_D_28
  1

  0
INSERT
  5
42E
330
42B
100
AcDbEntity
  8
0
  6
Continuous
 62
     7
370
    18
100
AcDbBlockReference
  2
_Closed
 10
168.4443593017
 20
238.8110156572
 30
0.0000000003
 41
7.112
 42
7.112
 50
90.0
  0
INSERT
  5
42F
330
42B
100
AcDbEntity
  8
0
  6
Continuous
 62
     7
370
    18
100
AcDbBlockReference
  2
_Closed
 10
168.4443593017
 20
252.8110156572
 30
0.0000000003
 41
7.112
 42
7.112
 50
270.0
  0
LINE
  5
430
330
42B
100
AcDbEntity
  8
0
  6
Continuous
 62
     7
370
     0
100
AcDbLine
 10
175.9288683603
 20
238.8110156572
 30
0.0
 11
166.4443593017
 21
238.8110156572
 31
0.0
  0
LINE
  5
431
330
42B
100
AcDbEntity
  8
0
  6
Continuous
 62
     7
370
     0
100
AcDbLine
 10
176.4288683603
 20
252.8110156572
 30
0.0
 11
166.4443593017
 21
252.8110156572
 31
0.0
  0
LINE
  5
432
330
42B
100
AcDbEntity
  8
0
  6
Continuous
 62
     7
370
     0
100
AcDbLine
 10
168.4443593017
 20
238.8110156572
 30
0.0
 11
168.4443593017
 21
226.1110156572
 31
0.0
  0
LINE
  5
433
330
42B
100
AcDbEntity
  8
0
  6
Continuous
 62
     7
370
     0
100
AcDbLine
 10
168.4443593017
 20
238.8110156572
 30
0.0
 11
168.4443593017
 21
252.8110156572
 31
0.0
  0
LINE
  5
434
330
42B
100
AcDbEntity
  8
0
  6
Continuous
 62
     7
370
     0
100
AcDbLine
 10
168.4443593017
 20
252.8110156572
 30
0.0
 11
168.4443593017
 21
265.5110156572
 31
0.0
  0
MTEXT
  5
435
330
42B
100
AcDbEntity
  8
0
  6
Continuous
 62
     7
370
    18
100
AcDbMText
 10
159.4208854726
 20
239.6311226472
 30
0.0
 40
7.0
 41
0.0
 71
     1
 72
     1
  1
14
  7
SLDTEXTSTYLE0
 11
6.123233995736766E-17
 21
1.0
 31
0.0
 73
     1
 44
1.0
  0
ENDBLK
  5
42D
330
42B
100
AcDbEntity
  8
0
100
AcDbBlockEnd
  0
BLOCK
  5
438
330
437
100
AcDbEntity
  8
0
100
AcDbBlockBegin
  2
_D_29
 70
     0
 10
0.0
 20
0.0
 30
0.0
  3
_D_29
  1

  0
INSERT
  5
43A
330
437
100
AcDbEntity
  8
0
  6
Continuous
 62
     7
370
    18
100
AcDbBlockReference
  2
_Closed
 10
153.9288663115
 20
190.2724130502
 30
0.0000000003
 41
7.112
 42
7.112
 50
0.0
  0
INSERT
  5
43B
330
437
100
AcDbEntity
  8
0
  6
Continuous
 62
     7
370
    18
100
AcDbBlockReference
  2
_Closed
 10
173.9288683603
 20
190.2724130502
 30
0.0000000003
 41
7.112
 42
7.112
 50
180.0
  0
LINE
  5
43C
330
437
100
AcDbEntity
  8
0
  6
Continuous
 62
     7
370
     0
100
AcDbLine
 10
153.9288663115
 20
226.6110166612
 30
0.0
 11
153.9288663115
 21
188.2724130502
 31
0.0
  0
LINE
  5
43D
330
437
100
AcDbEntity
  8
0
  6
Continuous
 62
     7
370
     0
100
AcDbLine
 10
173.9288683603
 20
226.6110154251
 30
0.0
 11
173.9288683603
 21
188.2724130502
 31
0.0
  0
LINE
  5
43E
330
437
100
AcDbEntity
  8
0
  6
Continuous
 62
     7
370
     0
100
AcDbLine
 10
153.9288663115
 20
190.2724130502
 30
0.0
 11
141.2288663115
 21
190.2724130502
 31
0.0
  0
LINE
  5
43F
330
437
100
AcDbEntity
  8
0
  6
Continuous
 62
     7
370
     0
100
AcDbLine
 10
153.9288663115
 20
190.2724130502
 30
0.0
 11
173.9288683603
 21
190.2724130502
 31
0.0
  0
LINE
  5
440
330
437
100
AcDbEntity
  8
0
  6
Continuous
 62
     7
370
     0
100
AcDbLine
 10
173.9288683603
 20
190.2724130502
 30
0.0
 11
186.6288683603
 21
190.2724130502
 31
0.0
  0
MTEXT
  5
441
330
437
100
AcDbEntity
  8
0
  6
Continuous
 62
     7
370
    18
100
AcDbMText
 10
158.8944594494
 20
199.2958868794
 30
0.0
 40
7.0
 41
0.0
 71
     1
 72
     1
  1
20
  7
SLDTEXTSTYLE0
 73
     1
 44
1.0
  0
ENDBLK
  5
439
330
437
100
AcDbEntity
  8
0
100
AcDbBlockEnd
  0
BLOCK
  5
444
330
443
100
AcDbEntity
  8
0
100
AcDbBlockBegin
  2
_D_30
 70
     0
 10
0.0
 20
0.0
 30
0.0
  3
_D_30
  1

  0
INSERT
  5
446
330
443
100
AcDbEntity
  8
0
  6
Continuous
 62
     7
370
    18
100
AcDbBlockReference
  2
_Closed
 10
159.4288683603
 20
205.8109906572
 30
0.0000000003
 41
7.112
 42
7.112
 50
0.0
  0
INSERT
  5
447
330
443
100
AcDbEntity
  8
0
  6
Continuous
 62
     7
370
    18
100
AcDbBlockReference
  2
_Closed
 10
168.4288683603
 20
205.8109906572
 30
0.0000000003
 41
7.112
 42
7.112
 50
180.0
  0
LINE
  5
448
330
443
100
AcDbEntity
  8
0
  6
Continuous
 62
     7
370
     0
100
AcDbLine
 10
159.4288683603
 20
224.3110156572
 30
0.0
 11
159.4288683603
 21
203.8109906572
 31
0.0
  0
LINE
  5
449
330
443
100
AcDbEntity
  8
0
  6
Continuous
 62
     7
370
     0
100
AcDbLine
 10
168.4288683603
 20
224.3110156572
 30
0.0
 11
168.4288683603
 21
203.8109906572
 31
0.0
  0
LINE
  5
44A
330
443
100
AcDbEntity
  8
0
  6
Continuous
 62
     7
370
     0
100
AcDbLine
 10
159.4288683603
 20
205.8109906572
 30
0.0
 11
146.7288683603
 21
205.8109906572
 31
0.0
  0
LINE
  5
44B
330
443
100
AcDbEntity
  8
0
  6
Continuous
 62
     7
370
     0
100
AcDbLine
 10
159.4288683603
 20
205.8109906572
 30
0.0
 11
168.4288683603
 21
205.8109906572
 31
0.0
  0
LINE
  5
44C
330
443
100
AcDbEntity
  8
0
  6
Continuous
 62
     7
370
     0
100
AcDbLine
 10
168.4288683603
 20
205.8109906572
 30
0.0
 11
181.1288683603
 21
205.8109906572
 31
0.0
  0
MTEXT
  5
44D
330
443
100
AcDbEntity
  8
0
  6
Continuous
 62
     7
370
    18
100
AcDbMText
 10
161.4805706429
 20
214.8344644863
 30
0.0
 40
7.0
 41
0.0
 71
     1
 72
     1
  1
9
  7
SLDTEXTSTYLE0
 73
     1
 44
1.0
  0
ENDBLK
  5
445
330
443
100
AcDbEntity
  8
0
100
AcDbBlockEnd
  0
ENDSEC
  0
SECTION
  2
ENTITIES
  0
LINE
  5
73
330
1F
100
AcDbEntity
  8
0
  6
Continuous
 62
     7
370
    25
100
AcDbLine
 10
337.1475284314
 20
281.8085156572
 30
0.0
 11
337.1475284314
 21
294.5308018514
 31
0.0
  0
LINE
  5
74
330
1F
100
AcDbEntity
  8
0
  6
Continuous
 62
     7
370
    25
100
AcDbLine
 10
335.9175284314
 20
294.3110156572
 30
0.0
 11
335.9175284314
 21
281.8085156572
 31
0.0
  0
LINE
  5
75
330
1F
100
AcDbEntity
  8
0
  6
Continuous
 62
     7
370
    25
100
AcDbLine
 10
342.2075284314
 20
290.3085156572
 30
0.0
 11
342.2075284314
 21
308.821541973
 31
0.0
  0
LINE
  5
76
330
1F
100
AcDbEntity
  8
0
  6
Continuous
 62
     7
370
    25
100
AcDbLine
 10
341.2375284314
 20
308.3110156572
 30
0.0
 11
341.2375284314
 21
290.3085156572
 31
0.0
  0
SPLINE
  5
77
330
1F
100
AcDbEntity
  8
0
  6
Continuous
 62
     7
370
    25
100
AcDbSpline
210
0.0
220
0.0
230
1.0
 70
     8
 71
     3
 72
    11
 73
     7
 74
     0
 42
0.00000001
 43
0.00000001
 40
0.0
 40
0.0
 40
0.0
 40
0.0
 40
0.2799151660411004
 40
0.559555279391984
 40
0.7796995997276446
 40
1.0
 40
1.0
 40
1.0
 40
1.0
 10
301.2225284314441
 20
275.961015657183
 30
0.0
 10
301.0282864840441
 20
275.8755650693523
 30
0.0
 10
300.6399934569665
 20
275.7047478598954
 30
0.0
 10
300.2298031121798
 20
275.2673047064112
 30
0.0
 10
299.9647181472331
 20
274.7881425348923
 30
0.0
 10
299.9021567573072
 20
274.4611712802331
 30
0.0
 10
299.870864977437
 20
274.2976277186721
 30
0.0
  0
SPLINE
  5
78
330
1F
100
AcDbEntity
  8
0
  6
Continuous
 62
     7
370
    25
100
AcDbSpline
210
0.0
220
0.0
230
1.0
 70
     8
 71
     3
 72
    11
 73
     7
 74
     0
 42
0.00000001
 43
0.00000001
 40
0.0
 40
0.0
 40
0.0
 40
0.0
 40
0.2799188532345911
 40
0.5595634733131915
 40
0.7797016176680516
 40
1.0
 40
1.0
 40
1.0
 40
1.0
 10
336.2225284314441
 20
275.961015657183
 30
0.0
 10
336.0294081862547
 20
275.8761859090691
 30
0.0
 10
335.6433568934728
 20
275.7066095195319
 30
0.0
 10
335.2344445846805
 20
275.273068083204
 30
0.0
 10
334.9688377729034
 20
274.7979980901285
 30
0.0
 10
334.9046393306882
 20
274.4733825016431
 30
0.0
 10
334.8725284313615
 20
274.311015657183
 30
0.0
  0
SPLINE
  5
79
330
1F
100
AcDbEntity
  8
0
  6
Continuous
 62
     7
370
    25
100
AcDbSpline
210
0.0
220
0.0
230
1.0
 70
     8
 71
     3
 72
    11
 73
     7
 74
     0
 42
0.00000001
 43
0.00000001
 40
0.0
 40
0.0
 40
0.0
 40
0.0
 40
0.2799179385301322
 40
0.5595623068621426
 40
0.7797001221802802
 40
1.0
 40
1.0
 40
1.0
 40
1.0
 10
305.3741918853257
 20
274.2976277186705
 30
0.0
 10
305.3302772452064
 20
274.5052420371916
 30
0.0
 10
305.242490883749
 20
274.9202677680158
 30
0.0
 10
304.8982541366665
 20
275.4112933691209
 30
0.0
 10
304.4834777836975
 20
275.768828496725
 30
0.0
 10
304.1762159019174
 20
275.8969375574526
 30
0.0
 10
304.0225284313184
 20
275.961015657183
 30
0.0
  0
SPLINE
  5
7A
330
1F
100
AcDbEntity
  8
0
  6
Continuous
 62
     7
370
    25
100
AcDbSpline
210
0.0
220
0.0
230
1.0
 70
     8
 71
     3
 72
    11
 73
     7
 74
     0
 42
0.00000001
 43
0.00000001
 40
0.0
 40
0.0
 40
0.0
 40
0.0
 40
0.2799188532181369
 40
0.5595634732954445
 40
0.7797016176528483
 40
1.0
 40
1.0
 40
1.0
 40
1.0
 10
340.372528431401
 20
274.311015657183
 30
0.0
 10
340.3276201129736
 20
274.5171097090075
 30
0.0
 10
340.2378474722595
 20
274.9290959047873
 30
0.0
 10
339.8938637492971
 20
275.4157607294995
 30
0.0
 10
339.4807964910727
 20
275.7701812664114
 30
0.0
 10
339.175321496831
 20
275.8973887668715
 30
0.0
 10
339.0225284313184
 20
275.961015657183
 30
0.0
  0
LINE
  5
7B
330
1F
100
AcDbEntity
  8
0
  6
Continuous
 62
     7
370
    25
100
AcDbLine
 10
349.2725284314
 20
227.6610156572
 30
0.0
 11
349.277968492
 21
227.6610156572
 31
0.0
  0
LINE
  5
7C
330
1F
100
AcDbEntity
  8
0
  6
Continuous
 62
     7
370
    25
100
AcDbLine
 10
327.26708837
 20
227.6610156572
 30
0.0
 11
327.2725284314
 21
227.6610156572
 31
0.0
  0
LINE
  5
7D
330
1F
100
AcDbEntity
  8
0
  6
Continuous
 62
     7
370
    25
100
AcDbLine
 10
311.9725284314
 20
227.6610156572
 30
0.0
 11
311.977968492
 21
227.6610156572
 31
0.0
  0
LINE
  5
7E
330
1F
100
AcDbEntity
  8
0
  6
Continuous
 62
     7
370
    25
100
AcDbLine
 10
289.96708837
 20
227.6610156572
 30
0.0
 11
289.9725284314
 21
227.6610156572
 31
0.0
  0
LINE
  5
7F
330
1F
100
AcDbEntity
  8
0
  6
Continuous
 62
     7
370
    25
100
AcDbLine
 10
333.6225284314
 20
308.3110156572
 30
0.0
 11
332.46776101
 21
308.3110156572
 31
0.0
  0
LINE
  5
80
330
1F
100
AcDbEntity
  8
0
  6
Continuous
 62
     7
370
    25
100
AcDbLine
 10
306.7772958527
 20
308.3110156572
 30
0.0
 11
332.46776101
 21
308.3110156572
 31
0.0
  0
LINE
  5
81
330
1F
100
AcDbEntity
  8
0
  6
Continuous
 62
     7
370
    25
100
AcDbLine
 10
306.7772958527
 20
308.3110156572
 30
0.0
 11
305.6225284314
 21
308.3110156572
 31
0.0
  0
LINE
  5
82
330
1F
100
AcDbEntity
  8
0
  6
Continuous
 62
     7
370
    25
100
AcDbLine
 10
306.7772958527
 20
308.3110156572
 30
0.0
 11
306.7772958527
 21
274.3110156572
 31
0.0
  0
LINE
  5
83
330
1F
100
AcDbEntity
  8
0
  6
Continuous
 62
     7
370
    25
100
AcDbLine
 10
332.46776101
 20
274.3110156572
 30
0.0
 11
332.46776101
 21
308.3110156572
 31
0.0
  0
LINE
  5
84
330
1F
100
AcDbEntity
  8
0
  6
Continuous
 62
     7
370
    25
100
AcDbLine
 10
333.6225284314
 20
308.3110156572
 30
0.0
 11
333.6225284314
 21
274.3110156572
 31
0.0
  0
LINE
  5
85
330
1F
100
AcDbEntity
  8
0
  6
Continuous
 62
     7
370
    25
100
AcDbLine
 10
305.6225284314
 20
274.3110156572
 30
0.0
 11
305.6225284314
 21
308.3110156572
 31
0.0
  0
LINE
  5
86
330
1F
100
AcDbEntity
  8
0
  6
Continuous
 62
     7
370
    25
100
AcDbLine
 10
312.1225284314
 20
328.8110156572
 30
0.0
 11
341.1225284314
 21
328.8110156572
 31
0.0
  0
ARC
  5
87
330
1F
100
AcDbEntity
  8
0
  6
Continuous
 62
     7
370
    25
100
AcDbCircle
 10
341.1225284314
 20
326.3110156572
 30
0.0
 40
2.5
100
AcDbArc
 50
0.0
 51
90.0
  0
ARC
  5
88
330
1F
100
AcDbEntity
  8
0
  6
Continuous
 62
     7
370
    25
100
AcDbCircle
 10
312.1225284314
 20
326.3110156572
 30
0.0
 40
2.5
100
AcDbArc
 50
90.0
 51
180.0
  0
LINE
  5
89
330
1F
100
AcDbEntity
  8
0
  6
Continuous
 62
     7
370
    25
100
AcDbLine
 10
341.7225284314
 20
308.3110156572
 30
0.0
 11
342.6225284314
 21
309.2583840782
 31
0.0
  0
LINE
  5
8A
330
1F
100
AcDbEntity
  8
0
  6
Continuous
 62
     7
370
    25
100
AcDbLine
 10
333.6225284314
 20
308.3110156572
 30
0.0
 11
341.7225284314
 21
308.3110156572
 31
0.0
  0
SPLINE
  5
8B
330
1F
100
AcDbEntity
  8
0
  6
Continuous
 62
     7
370
    25
100
AcDbSpline
210
0.0
220
0.0
230
1.0
 70
    24
 71
     3
 72
    13
 73
     9
 74
     0
 42
0.00000001
 43
0.00000001
 40
0.0
 40
0.0
 40
0.0
 40
0.0
 40
0.1066589377472213
 40
0.2254403085912011
 40
0.3590762464218198
 40
0.5069977744355217
 40
0.7558041949121752
 40
1.0
 40
1.0
 40
1.0
 40
1.0
 10
343.6225284313812
 20
310.311015657183
 30
0.0
 10
343.618276624852
 20
310.3065400713627
 30
0.0
 10
343.6092897682767
 20
310.297080222336
 30
0.0
 10
343.5356880195257
 20
310.219604697335
 30
0.0
 10
343.4170806900396
 20
310.0947548768233
 30
0.0
 10
343.2219363304956
 20
309.8893397615139
 30
0.0
 10
342.9509280094147
 20
309.6040678445866
 30
0.0
 10
342.7313103271731
 20
309.3728913369639
 30
0.0
 10
342.6225284313812
 20
309.2583840782356
 30
0.0
  0
LINE
  5
8C
330
1F
100
AcDbEntity
  8
0
  6
Continuous
 62
     7
370
    25
100
AcDbLine
 10
343.6225284314
 20
326.3110156572
 30
0.0
 11
343.6225284314
 21
310.3110156572
 31
0.0
  0
LINE
  5
8D
330
1F
100
AcDbEntity
  8
0
  6
Continuous
 62
     7
370
    25
100
AcDbLine
 10
309.6225284314
 20
308.3110156572
 30
0.0
 11
309.6225284314
 21
326.3110156572
 31
0.0
  0
ARC
  5
8E
330
1F
100
AcDbEntity
  8
0
  6
Continuous
 62
     7
370
    25
100
AcDbCircle
 10
336.1225284314
 20
296.8110156572
 30
0.0
 40
2.5
100
AcDbArc
 50
270.0
 51
0.0
  0
LINE
  5
8F
330
1F
100
AcDbEntity
  8
0
  6
Continuous
 62
     7
370
    25
100
AcDbLine
 10
336.1225284314
 20
294.3110156572
 30
0.0
 11
333.6225284314
 21
294.3110156572
 31
0.0
  0
LINE
  5
90
330
1F
100
AcDbEntity
  8
0
  6
Continuous
 62
     7
370
    25
100
AcDbLine
 10
338.6225284314
 20
296.8110156572
 30
0.0
 11
338.6225284314
 21
308.3110156572
 31
0.0
  0
SPLINE
  5
91
330
1F
100
AcDbEntity
  8
0
  6
Continuous
 62
     7
370
    25
100
AcDbSpline
210
0.0
220
0.0
230
1.0
 70
    24
 71
     3
 72
    15
 73
    11
 74
     0
 42
0.00000001
 43
0.00000001
 40
0.0
 40
0.0
 40
0.0
 40
0.0
 40
0.1250000000000008
 40
0.2500000000000016
 40
0.3750000000000046
 40
0.5000000000000062
 40
0.6250000000000084
 40
0.7500000000000095
 40
0.8750000000000089
 40
1.0
 40
1.0
 40
1.0
 40
1.0
 10
337.1468457040254
 20
281.811015657183
 30
0.0
 10
337.1463726599567
 20
281.811015657183
 30
0.0
 10
337.1454265718193
 20
281.811015657183
 30
0.0
 10
337.1123149702161
 20
281.811015657183
 30
0.0
 10
337.0573680592532
 20
281.811015657183
 30
0.0
 10
336.980546005584
 20
281.811015657183
 30
0.0
 10
336.8855910198737
 20
281.811015657183
 30
0.0
 10
336.7762099897701
 20
281.811015657183
 30
0.0
 10
336.6569052777148
 20
281.811015657183
 30
0.0
 10
336.5739873826899
 20
281.811015657183
 30
0.0
 10
336.5325284351775
 20
281.811015657183
 30
0.0
  0
SPLINE
  5
92
330
1F
100
AcDbEntity
  8
0
  6
Continuous
 62
     7
370
    25
100
AcDbSpline
210
0.0
220
0.0
230
1.0
 70
    24
 71
     3
 72
    11
 73
     7
 74
     0
 42
0.00000001
 43
0.00000001
 40
0.0
 40
0.0
 40
0.0
 40
0.0
 40
0.2500000000000103
 40
0.5000000000000069
 40
0.7500000000000048
 40
1.0
 40
1.0
 40
1.0
 40
1.0
 10
336.5325284351775
 20
281.811015657183
 30
0.0
 10
336.4543600123864
 20
281.811015657183
 30
0.0
 10
336.2980231668043
 20
281.811015657183
 30
0.0
 10
336.0987074089089
 20
281.811015657183
 30
0.0
 10
335.9552907387029
 20
281.811015657183
 30
0.0
 10
335.9305710187257
 20
281.811015657183
 30
0.0
 10
335.9182111587371
 20
281.811015657183
 30
0.0
  0
SPLINE
  5
93
330
1F
100
AcDbEntity
  8
0
  6
Continuous
 62
     7
370
    25
100
AcDbSpline
210
0.0
220
0.0
230
1.0
 70
    24
 71
     3
 72
    11
 73
     7
 74
     0
 42
0.00000001
 43
0.00000001
 40
0.0
 40
0.0
 40
0.0
 40
0.0
 40
0.2499999999999912
 40
0.4999999999999854
 40
0.749999999999982
 40
1.0
 40
1.0
 40
1.0
 40
1.0
 10
342.2075284313745
 20
290.311015657183
 30
0.0
 10
342.2002384040163
 20
290.311015657183
 30
0.0
 10
342.1856583493
 20
290.311015657183
 30
0.0
 10
342.073502607932
 20
290.311015657183
 30
0.0
 10
341.9131879712421
 20
290.311015657183
 30
0.0
 10
341.7860816113397
 20
290.311015657183
 30
0.0
 10
341.7225284313885
 20
290.311015657183
 30
0.0
  0
SPLINE
  5
94
330
1F
100
AcDbEntity
  8
0
  6
Continuous
 62
     7
370
    25
100
AcDbSpline
210
0.0
220
0.0
230
1.0
 70
    24
 71
     3
 72
    11
 73
     7
 74
     0
 42
0.00000001
 43
0.00000001
 40
0.0
 40
0.0
 40
0.0
 40
0.0
 40
0.2499999999999824
 40
0.4999999999999876
 40
0.7499999999999937
 40
0.9999999999999999
 40
0.9999999999999999
 40
0.9999999999999999
 40
0.9999999999999999
 10
341.7225284313885
 20
290.311015657183
 30
0.0
 10
341.6589754651424
 20
290.311015657183
 30
0.0
 10
341.53186953265
 20
290.311015657183
 30
0.0
 10
341.3715552381564
 20
290.311015657183
 30
0.0
 10
341.2593993697897
 20
290.311015657183
 30
0.0
 10
341.244818744184
 20
290.311015657183
 30
0.0
 10
341.2375284313812
 20
290.311015657183
 30
0.0
  0
LINE
  5
95
330
1F
100
AcDbEntity
  8
0
  6
Continuous
 62
     7
370
    25
100
AcDbLine
 10
299.6225284314
 20
271.3110156568
 30
0.0
 11
299.6225284314
 21
274.3110156568
 31
0.0
  0
LINE
  5
96
330
1F
100
AcDbEntity
  8
0
  6
Continuous
 62
     7
370
    25
100
AcDbLine
 10
339.6225284314
 20
274.3110156572
 30
0.0
 11
299.6225284314
 21
274.3110156568
 31
0.0
  0
LINE
  5
97
330
1F
100
AcDbEntity
  8
0
  6
Continuous
 62
     7
370
    25
100
AcDbLine
 10
339.6225284314
 20
271.3110156572
 30
0.0
 11
339.6225284314
 21
274.3110156572
 31
0.0
  0
LINE
  5
98
330
1F
100
AcDbEntity
  8
0
  6
Continuous
 62
     7
370
    25
100
AcDbLine
 10
340.6225284314
 20
274.3110156568
 30
0.0
 11
339.6225284314
 21
274.3110156572
 31
0.0
  0
LINE
  5
99
330
1F
100
AcDbEntity
  8
0
  6
Continuous
 62
     7
370
    25
100
AcDbLine
 10
340.6225284314
 20
271.3110156568
 30
0.0
 11
340.6225284314
 21
274.3110156568
 31
0.0
  0
LINE
  5
9A
330
1F
100
AcDbEntity
  8
0
  6
Continuous
 62
     7
370
    25
100
AcDbLine
 10
298.6225284314
 20
271.3110156568
 30
0.0
 11
298.6225284314
 21
274.3110156568
 31
0.0
  0
LINE
  5
9B
330
1F
100
AcDbEntity
  8
0
  6
Continuous
 62
     7
370
    25
100
AcDbLine
 10
299.6225284314
 20
274.3110156568
 30
0.0
 11
298.6225284314
 21
274.3110156568
 31
0.0
  0
LINE
  5
9C
330
1F
100
AcDbEntity
  8
0
  6
Continuous
 62
     7
370
    25
100
AcDbLine
 10
301.2225301002
 20
275.9610156572
 30
0.0
 11
303.2937241854
 21
275.9610156572
 31
0.0
  0
LINE
  5
9D
330
1F
100
AcDbEntity
  8
0
  6
Continuous
 62
     7
370
    25
100
AcDbLine
 10
336.2225301011
 20
275.9610156572
 30
0.0
 11
338.2937241854
 21
275.9610156572
 31
0.0
  0
LINE
  5
9E
330
1F
100
AcDbEntity
  8
0
  6
Continuous
 62
     7
370
    25
100
AcDbLine
 10
303.2937241854
 20
275.9610156572
 30
0.0
 11
304.0225267329
 21
275.9610156572
 31
0.0
  0
LINE
  5
9F
330
1F
100
AcDbEntity
  8
0
  6
Continuous
 62
     7
370
    25
100
AcDbLine
 10
338.2937241854
 20
275.9610156572
 30
0.0
 11
339.0225267335
 21
275.9610156572
 31
0.0
  0
LINE
  5
A0
330
1F
100
AcDbEntity
  8
0
  6
Continuous
 62
     7
370
    25
100
AcDbLine
 10
328.2725284314
 20
228.0110146841
 30
0.0
 11
328.2725284314
 21
226.3110156572
 31
0.0
  0
LINE
  5
A1
330
1F
100
AcDbEntity
  8
0
  6
Continuous
 62
     7
370
    25
100
AcDbLine
 10
348.2725284314
 20
228.0110132913
 30
0.0
 11
348.2725284314
 21
226.3110156572
 31
0.0
  0
LINE
  5
A2
330
1F
100
AcDbEntity
  8
0
  6
Continuous
 62
     7
370
    25
100
AcDbLine
 10
328.2725284314
 20
226.3110156572
 30
0.0
 11
348.2725284314
 21
226.3110156572
 31
0.0
  0
LINE
  5
A3
330
1F
100
AcDbEntity
  8
0
  6
Continuous
 62
     7
370
    25
100
AcDbLine
 10
328.2725284314
 20
225.8110156572
 30
0.0
 11
348.2725284314
 21
225.8110156572
 31
0.0
  0
LINE
  5
A4
330
1F
100
AcDbEntity
  8
0
  6
Continuous
 62
     7
370
    25
100
AcDbLine
 10
348.2725284314
 20
226.3110156572
 30
0.0
 11
348.2725284314
 21
225.8110156572
 31
0.0
  0
LINE
  5
A5
330
1F
100
AcDbEntity
  8
0
  6
Continuous
 62
     7
370
    25
100
AcDbLine
 10
328.2725284314
 20
226.3110156572
 30
0.0
 11
328.2725284314
 21
225.8110156572
 31
0.0
  0
LINE
  5
A6
330
1F
100
AcDbEntity
  8
0
  6
Continuous
 62
     7
370
    25
100
AcDbLine
 10
328.2725284314
 20
226.7110156576
 30
0.0
 11
327.2725284314
 21
226.7110156571
 31
0.0
  0
LINE
  5
A7
330
1F
100
AcDbEntity
  8
0
  6
Continuous
 62
     7
370
    25
100
AcDbLine
 10
327.2725284314
 20
228.0110147538
 30
0.0
 11
327.2725284314
 21
226.7110156571
 31
0.0
  0
LINE
  5
A8
330
1F
100
AcDbEntity
  8
0
  6
Continuous
 62
     7
370
    25
100
AcDbLine
 10
348.2725284314
 20
226.7110156572
 30
0.0
 11
349.2725284314
 21
226.7110156576
 31
0.0
  0
LINE
  5
A9
330
1F
100
AcDbEntity
  8
0
  6
Continuous
 62
     7
370
    25
100
AcDbLine
 10
349.2725284314
 20
228.0110132217
 30
0.0
 11
349.2725284314
 21
226.7110156576
 31
0.0
  0
LINE
  5
AA
330
1F
100
AcDbEntity
  8
0
  6
Continuous
 62
     7
370
    25
100
AcDbLine
 10
328.2725284314
 20
226.5110156565
 30
0.0
 11
327.2725284314
 21
226.5110156572
 31
0.0
  0
LINE
  5
AB
330
1F
100
AcDbEntity
  8
0
  6
Continuous
 62
     7
370
    25
100
AcDbLine
 10
327.2725284314
 20
226.7110156571
 30
0.0
 11
327.2725284314
 21
226.5110156572
 31
0.0
  0
LINE
  5
AC
330
1F
100
AcDbEntity
  8
0
  6
Continuous
 62
     7
370
    25
100
AcDbLine
 10
348.2725284314
 20
226.5110156572
 30
0.0
 11
349.2725284314
 21
226.5110156565
 31
0.0
  0
LINE
  5
AD
330
1F
100
AcDbEntity
  8
0
  6
Continuous
 62
     7
370
    25
100
AcDbLine
 10
349.2725284314
 20
226.7110156576
 30
0.0
 11
349.2725284314
 21
226.5110156565
 31
0.0
  0
SPLINE
  5
AE
330
1F
100
AcDbEntity
  8
0
  6
Continuous
 62
     7
370
    25
100
AcDbSpline
210
0.0
220
0.0
230
1.0
 70
    24
 71
     3
 72
    10
 73
     6
 74
     0
 42
0.00000001
 43
0.00000001
 40
0.0
 40
0.0
 40
0.0
 40
0.0
 40
0.1384408359515428
 40
0.6370506525170788
 40
1.0
 40
1.0
 40
1.0
 40
1.0
 10
349.272528430968
 20
228.0110132216993
 30
0.0
 10
349.2725284309599
 20
227.9781581223692
 30
0.0
 10
349.2725284309226
 20
227.8269717883449
 30
0.0
 10
349.2725284308642
 20
227.6888614109548
 30
0.0
 10
349.2725284308138
 20
227.6815616980764
 30
0.0
 10
349.2725284307925
 20
227.678486545334
 30
0.0
  0
SPLINE
  5
AF
330
1F
100
AcDbEntity
  8
0
  6
Continuous
 62
     7
370
    25
100
AcDbSpline
210
0.0
220
0.0
230
1.0
 70
    24
 71
     3
 72
    10
 73
     6
 74
     0
 42
0.00000001
 43
0.00000001
 40
0.0
 40
0.0
 40
0.0
 40
0.0
 40
0.1384427478385721
 40
0.6370514579384347
 40
1.0
 40
1.0
 40
1.0
 40
1.0
 10
327.2725284309681
 20
228.011014753785
 30
0.0
 10
327.2725284309599
 20
227.9781591157715
 30
0.0
 10
327.2725284309227
 20
227.8269721997014
 30
0.0
 10
327.2725284308642
 20
227.6888613847296
 30
0.0
 10
327.2725284308138
 20
227.6815616903031
 30
0.0
 10
327.2725284307926
 20
227.678486545334
 30
0.0
  0
SPLINE
  5
B0
330
1F
100
AcDbEntity
  8
0
  6
Continuous
 62
     7
370
    25
100
AcDbSpline
210
0.0
220
0.0
230
1.0
 70
    24
 71
     3
 72
     9
 73
     5
 74
     0
 42
0.00000001
 43
0.00000001
 40
0.0
 40
0.0
 40
0.0
 40
0.0
 40
0.2138843205369119
 40
1.0
 40
1.0
 40
1.0
 40
1.0
 10
349.2725284307925
 20
227.678486545334
 30
0.0
 10
349.2725284307846
 20
227.6731792709299
 30
0.0
 10
349.2725284307475
 20
227.6483655099644
 30
0.0
 10
349.2725284307105
 20
227.7342671135372
 30
0.0
 10
349.2725284306812
 20
227.8017957109969
 30
0.0
  0
LINE
  5
B1
330
1F
100
AcDbEntity
  8
0
  6
Continuous
 62
     7
370
    25
100
AcDbLine
 10
290.9725284314
 20
228.0110172817
 30
0.0
 11
290.9725284314
 21
226.3110156572
 31
0.0
  0
LINE
  5
B2
330
1F
100
AcDbEntity
  8
0
  6
Continuous
 62
     7
370
    25
100
AcDbLine
 10
310.9725284314
 20
228.0110158889
 30
0.0
 11
310.9725284314
 21
226.3110156572
 31
0.0
  0
LINE
  5
B3
330
1F
100
AcDbEntity
  8
0
  6
Continuous
 62
     7
370
    25
100
AcDbLine
 10
290.9725284314
 20
226.3110156572
 30
0.0
 11
310.9725284314
 21
226.3110156572
 31
0.0
  0
LINE
  5
B4
330
1F
100
AcDbEntity
  8
0
  6
Continuous
 62
     7
370
    25
100
AcDbLine
 10
290.9725284314
 20
225.8110156572
 30
0.0
 11
310.9725284314
 21
225.8110156572
 31
0.0
  0
LINE
  5
B5
330
1F
100
AcDbEntity
  8
0
  6
Continuous
 62
     7
370
    25
100
AcDbLine
 10
310.9725284314
 20
226.3110156572
 30
0.0
 11
310.9725284314
 21
225.8110156572
 31
0.0
  0
LINE
  5
B6
330
1F
100
AcDbEntity
  8
0
  6
Continuous
 62
     7
370
    25
100
AcDbLine
 10
290.9725284314
 20
226.3110156572
 30
0.0
 11
290.9725284314
 21
225.8110156572
 31
0.0
  0
LINE
  5
B7
330
1F
100
AcDbEntity
  8
0
  6
Continuous
 62
     7
370
    25
100
AcDbLine
 10
290.9725284314
 20
226.7110156576
 30
0.0
 11
289.9725284314
 21
226.7110156571
 31
0.0
  0
LINE
  5
B8
330
1F
100
AcDbEntity
  8
0
  6
Continuous
 62
     7
370
    25
100
AcDbLine
 10
289.9725284314
 20
228.0110173514
 30
0.0
 11
289.9725284314
 21
226.7110156571
 31
0.0
  0
LINE
  5
B9
330
1F
100
AcDbEntity
  8
0
  6
Continuous
 62
     7
370
    25
100
AcDbLine
 10
310.9725284314
 20
226.7110156572
 30
0.0
 11
311.9725284314
 21
226.7110156576
 31
0.0
  0
LINE
  5
BA
330
1F
100
AcDbEntity
  8
0
  6
Continuous
 62
     7
370
    25
100
AcDbLine
 10
311.9725284314
 20
228.0110158193
 30
0.0
 11
311.9725284314
 21
226.7110156576
 31
0.0
  0
LINE
  5
BB
330
1F
100
AcDbEntity
  8
0
  6
Continuous
 62
     7
370
    25
100
AcDbLine
 10
290.9725284314
 20
226.5110156565
 30
0.0
 11
289.9725284314
 21
226.5110156572
 31
0.0
  0
LINE
  5
BC
330
1F
100
AcDbEntity
  8
0
  6
Continuous
 62
     7
370
    25
100
AcDbLine
 10
289.9725284314
 20
226.7110156571
 30
0.0
 11
289.9725284314
 21
226.5110156572
 31
0.0
  0
LINE
  5
BD
330
1F
100
AcDbEntity
  8
0
  6
Continuous
 62
     7
370
    25
100
AcDbLine
 10
310.9725284314
 20
226.5110156572
 30
0.0
 11
311.9725284314
 21
226.5110156565
 31
0.0
  0
LINE
  5
BE
330
1F
100
AcDbEntity
  8
0
  6
Continuous
 62
     7
370
    25
100
AcDbLine
 10
311.9725284314
 20
226.7110156576
 30
0.0
 11
311.9725284314
 21
226.5110156565
 31
0.0
  0
SPLINE
  5
BF
330
1F
100
AcDbEntity
  8
0
  6
Continuous
 62
     7
370
    25
100
AcDbSpline
210
0.0
220
0.0
230
1.0
 70
    24
 71
     3
 72
    10
 73
     6
 74
     0
 42
0.00000001
 43
0.00000001
 40
0.0
 40
0.0
 40
0.0
 40
0.0
 40
0.138444077464099
 40
0.6370520180702715
 40
0.9999999999999999
 40
0.9999999999999999
 40
0.9999999999999999
 40
0.9999999999999999
 10
311.9725284309681
 20
228.011015819281
 30
0.0
 10
311.97252843096
 20
227.9781598066375
 30
0.0
 10
311.9725284309226
 20
227.826972485781
 30
0.0
 10
311.9725284308641
 20
227.6888613664913
 30
0.0
 10
311.9725284308138
 20
227.6815616848972
 30
0.0
 10
311.9725284307925
 20
227.678486545334
 30
0.0
  0
SPLINE
  5
C0
330
1F
100
AcDbEntity
  8
0
  6
Continuous
 62
     7
370
    25
100
AcDbSpline
210
0.0
220
0.0
230
1.0
 70
    24
 71
     3
 72
    10
 73
     6
 74
     0
 42
0.00000001
 43
0.00000001
 40
0.0
 40
0.0
 40
0.0
 40
0.0
 40
0.1384459893367474
 40
0.6370528234855691
 40
1.0
 40
1.0
 40
1.0
 40
1.0
 10
289.9725284309681
 20
228.0110173513667
 30
0.0
 10
289.9725284309599
 20
227.9781608000394
 30
0.0
 10
289.9725284309227
 20
227.826972897137
 30
0.0
 10
289.9725284308642
 20
227.6888613402665
 30
0.0
 10
289.9725284308138
 20
227.6815616771241
 30
0.0
 10
289.9725284307926
 20
227.678486545334
 30
0.0
  0
LINE
  5
C1
330
1F
100
AcDbEntity
  8
0
  6
Continuous
 62
     7
370
    25
100
AcDbLine
 10
281.1225284314
 20
228.6110154251
 30
0.0
 11
281.1225284314
 21
231.5751224077
 31
0.0
  0
LINE
  5
C2
330
1F
100
AcDbEntity
  8
0
  6
Continuous
 62
     7
370
    25
100
AcDbLine
 10
358.1225284314
 20
231.5751224077
 30
0.0
 11
281.1225284314
 21
231.5751224077
 31
0.0
  0
LINE
  5
C3
330
1F
100
AcDbEntity
  8
0
  6
Continuous
 62
     7
370
    25
100
AcDbLine
 10
358.1225284314
 20
228.6110154251
 30
0.0
 11
281.1225284314
 21
228.6110154251
 31
0.0
  0
LINE
  5
C4
330
1F
100
AcDbEntity
  8
0
  6
Continuous
 62
     7
370
    25
100
AcDbLine
 10
358.1225284314
 20
228.6110154251
 30
0.0
 11
358.1225284314
 21
231.5751224077
 31
0.0
  0
LINE
  5
C5
330
1F
100
AcDbEntity
  8
0
  6
Continuous
 62
     7
370
    25
100
AcDbLine
 10
281.1225284314
 20
228.0110105818
 30
0.0
 11
281.1225284314
 21
228.6110154251
 31
0.0
  0
LINE
  5
C6
330
1F
100
AcDbEntity
  8
0
  6
Continuous
 62
     7
370
    25
100
AcDbLine
 10
358.1225284314
 20
228.0110126054
 30
0.0
 11
281.1225284314
 21
228.0110105818
 31
0.0
  0
LINE
  5
C7
330
1F
100
AcDbEntity
  8
0
  6
Continuous
 62
     7
370
    25
100
AcDbLine
 10
358.1225284314
 20
228.0110126054
 30
0.0
 11
358.1225284314
 21
228.6110154251
 31
0.0
  0
LINE
  5
C8
330
1F
100
AcDbEntity
  8
0
  6
Continuous
 62
     7
370
    25
100
AcDbLine
 10
358.1225284314
 20
234.8110156572
 30
0.0
 11
358.1125284305
 21
234.8110156572
 31
0.0
  0
LINE
  5
C9
330
1F
100
AcDbEntity
  8
0
  6
Continuous
 62
     7
370
    25
100
AcDbLine
 10
358.1225284314
 20
232.4469024866
 30
0.0
 11
281.1225284314
 21
232.4469024866
 31
0.0
  0
LINE
  5
CA
330
1F
100
AcDbEntity
  8
0
  6
Continuous
 62
     7
370
    25
100
AcDbLine
 10
281.1225284314
 20
232.4469024866
 30
0.0
 11
281.1225284314
 21
234.8110156572
 31
0.0
  0
LINE
  5
CB
330
1F
100
AcDbEntity
  8
0
  6
Continuous
 62
     7
370
    25
100
AcDbLine
 10
281.1325284311
 20
234.8110156572
 30
0.0
 11
281.1225284314
 21
234.8110156572
 31
0.0
  0
LINE
  5
CC
330
1F
100
AcDbEntity
  8
0
  6
Continuous
 62
     7
370
    25
100
AcDbLine
 10
309.1225284314
 20
234.8110156572
 30
0.0
 11
309.1225284314
 21
233.5110156572
 31
0.0
  0
LINE
  5
CD
330
1F
100
AcDbEntity
  8
0
  6
Continuous
 62
     7
370
    25
100
AcDbLine
 10
309.1225284314
 20
233.5110156572
 30
0.0
 11
330.1225284314
 21
233.5110156572
 31
0.0
  0
LINE
  5
CE
330
1F
100
AcDbEntity
  8
0
  6
Continuous
 62
     7
370
    25
100
AcDbLine
 10
330.1225284314
 20
233.5110156572
 30
0.0
 11
330.1225284314
 21
234.8110156579
 31
0.0
  0
LINE
  5
CF
330
1F
100
AcDbEntity
  8
0
  6
Continuous
 62
     7
370
    25
100
AcDbLine
 10
358.1225284314
 20
232.4469024866
 30
0.0
 11
358.1225284314
 21
234.8110156572
 31
0.0
  0
LINE
  5
D0
330
1F
100
AcDbEntity
  8
0
  6
Continuous
 62
     7
370
    25
100
AcDbLine
 10
281.1225284314
 20
231.5751224077
 30
0.0
 11
281.1225284314
 21
232.4469024866
 31
0.0
  0
LINE
  5
D1
330
1F
100
AcDbEntity
  8
0
  6
Continuous
 62
     7
370
    25
100
AcDbLine
 10
358.1225284314
 20
231.5751224077
 30
0.0
 11
358.1225284314
 21
232.4469024866
 31
0.0
  0
LINE
  5
D2
330
1F
100
AcDbEntity
  8
0
  6
Continuous
 62
     7
370
    25
100
AcDbLine
 10
360.1225284314
 20
271.3110156565
 30
0.0
 11
360.1225284314
 21
269.8110156572
 31
0.0
  0
LINE
  5
D3
330
1F
100
AcDbEntity
  8
0
  6
Continuous
 62
     7
370
    25
100
AcDbLine
 10
358.1225284314
 20
269.8110156572
 30
0.0
 11
360.1225284314
 21
269.8110156572
 31
0.0
  0
LINE
  5
D4
330
1F
100
AcDbEntity
  8
0
  6
Continuous
 62
     7
370
    25
100
AcDbLine
 10
358.1225284314
 20
269.821015657
 30
0.0
 11
358.1225284314
 21
269.8110156572
 31
0.0
  0
LINE
  5
D5
330
1F
100
AcDbEntity
  8
0
  6
Continuous
 62
     7
370
    25
100
AcDbLine
 10
358.1225284314
 20
271.3110156565
 30
0.0
 11
358.1225284314
 21
271.3010156569
 31
0.0
  0
LINE
  5
D6
330
1F
100
AcDbEntity
  8
0
  6
Continuous
 62
     7
370
    25
100
AcDbLine
 10
358.1225284314
 20
271.3110156565
 30
0.0
 11
360.1225284314
 21
271.3110156565
 31
0.0
  0
LINE
  5
D7
330
1F
100
AcDbEntity
  8
0
  6
Continuous
 62
     7
370
    25
100
AcDbLine
 10
279.1225284314
 20
269.8110156572
 30
0.0
 11
279.1225284314
 21
271.3110156565
 31
0.0
  0
LINE
  5
D8
330
1F
100
AcDbEntity
  8
0
  6
Continuous
 62
     7
370
    25
100
AcDbLine
 10
281.1225284314
 20
271.3110156565
 30
0.0
 11
279.1225284314
 21
271.3110156565
 31
0.0
  0
LINE
  5
D9
330
1F
100
AcDbEntity
  8
0
  6
Continuous
 62
     7
370
    25
100
AcDbLine
 10
281.1225284314
 20
271.3010156569
 30
0.0
 11
281.1225284314
 21
271.3110156565
 31
0.0
  0
LINE
  5
DA
330
1F
100
AcDbEntity
  8
0
  6
Continuous
 62
     7
370
    25
100
AcDbLine
 10
281.1225284314
 20
269.8110156572
 30
0.0
 11
281.1225284314
 21
269.821015657
 31
0.0
  0
LINE
  5
DB
330
1F
100
AcDbEntity
  8
0
  6
Continuous
 62
     7
370
    25
100
AcDbLine
 10
281.1225284314
 20
269.8110156572
 30
0.0
 11
279.1225284314
 21
269.8110156572
 31
0.0
  0
LINE
  5
DC
330
1F
100
AcDbEntity
  8
0
  6
Continuous
 62
     7
370
    25
100
AcDbLine
 10
281.1325284311
 20
271.3110156567
 30
0.0
 11
281.1325284311
 21
270.5110156579
 31
0.0
  0
LINE
  5
DD
330
1F
100
AcDbEntity
  8
0
  6
Continuous
 62
     7
370
    25
100
AcDbLine
 10
281.1325284311
 20
271.3110156567
 30
0.0
 11
358.1125284305
 21
271.3110156572
 31
0.0
  0
LINE
  5
DE
330
1F
100
AcDbEntity
  8
0
  6
Continuous
 62
     7
370
    25
100
AcDbLine
 10
358.1125284305
 20
271.3110156572
 30
0.0
 11
358.1125284316
 21
270.5110156564
 31
0.0
  0
LINE
  5
DF
330
1F
100
AcDbEntity
  8
0
  6
Continuous
 62
     7
370
    25
100
AcDbLine
 10
281.1325284311
 20
270.5110156579
 30
0.0
 11
358.1125284316
 21
270.5110156564
 31
0.0
  0
LINE
  5
E0
330
1F
100
AcDbEntity
  8
0
  6
Continuous
 62
     7
370
    25
100
AcDbLine
 10
358.1225284314
 20
270.5068735206
 30
0.0
 11
358.1125284316
 21
270.5110156564
 31
0.0
  0
LINE
  5
E1
330
1F
100
AcDbEntity
  8
0
  6
Continuous
 62
     7
370
    25
100
AcDbLine
 10
358.1125284305
 20
271.3110156572
 30
0.0
 11
358.1225284314
 21
271.3010156571
 31
0.0
  0
LINE
  5
E2
330
1F
100
AcDbEntity
  8
0
  6
Continuous
 62
     7
370
    25
100
AcDbLine
 10
358.1225284314
 20
271.3010156571
 30
0.0
 11
358.1225284314
 21
270.5068735206
 31
0.0
  0
LINE
  5
E3
330
1F
100
AcDbEntity
  8
0
  6
Continuous
 62
     7
370
    25
100
AcDbLine
 10
358.1125284316
 20
236.3110156572
 30
0.0
 11
358.1125284316
 21
270.5110156564
 31
0.0
  0
LINE
  5
E4
330
1F
100
AcDbEntity
  8
0
  6
Continuous
 62
     7
370
    25
100
AcDbLine
 10
281.1325284311
 20
236.3110156568
 30
0.0
 11
358.1125284316
 21
236.3110156572
 31
0.0
  0
LINE
  5
E5
330
1F
100
AcDbEntity
  8
0
  6
Continuous
 62
     7
370
    25
100
AcDbLine
 10
281.1325284311
 20
236.3110156568
 30
0.0
 11
281.1325284311
 21
270.5110156579
 31
0.0
  0
ARC
  5
E6
330
1F
100
AcDbEntity
  8
0
  6
Continuous
 62
     7
370
    25
100
AcDbCircle
 10
331.6225284314
 20
240.8110156572
 30
0.0
 40
1.500000000563846
100
AcDbArc
 50
298.6478897271
 51
118.6478897271
  0
ARC
  5
E7
330
1F
100
AcDbEntity
  8
0
  6
Continuous
 62
     7
370
    25
100
AcDbCircle
 10
331.6225284314
 20
240.8110156572
 30
0.0
 40
1.500000000563846
100
AcDbArc
 50
118.6478897271
 51
298.6478897271
  0
ARC
  5
E8
330
1F
100
AcDbEntity
  8
0
  6
Continuous
 62
     7
370
    25
100
AcDbCircle
 10
331.6225284314
 20
262.8110156572
 30
0.0
 40
1.500000000563871
100
AcDbArc
 50
298.6478897271
 51
118.6478897271
  0
ARC
  5
E9
330
1F
100
AcDbEntity
  8
0
  6
Continuous
 62
     7
370
    25
100
AcDbCircle
 10
331.6225284314
 20
262.8110156572
 30
0.0
 40
1.500000000563871
100
AcDbArc
 50
118.6478897271
 51
298.6478897271
  0
ARC
  5
EA
330
1F
100
AcDbEntity
  8
0
  6
Continuous
 62
     7
370
    25
100
AcDbCircle
 10
307.6225284314
 20
240.8110156572
 30
0.0
 40
1.500000000563846
100
AcDbArc
 50
241.3521102729
 51
61.3521102729
  0
ARC
  5
EB
330
1F
100
AcDbEntity
  8
0
  6
Continuous
 62
     7
370
    25
100
AcDbCircle
 10
307.6225284314
 20
240.8110156572
 30
0.0
 40
1.500000000563846
100
AcDbArc
 50
61.3521102729
 51
241.3521102729
  0
ARC
  5
EC
330
1F
100
AcDbEntity
  8
0
  6
Continuous
 62
     7
370
    25
100
AcDbCircle
 10
307.6225284314
 20
262.8110156572
 30
0.0
 40
1.500000000563871
100
AcDbArc
 50
61.3521102729
 51
241.3521102729
  0
ARC
  5
ED
330
1F
100
AcDbEntity
  8
0
  6
Continuous
 62
     7
370
    25
100
AcDbCircle
 10
307.6225284314
 20
262.8110156572
 30
0.0
 40
1.500000000563871
100
AcDbArc
 50
241.3521102729
 51
61.3521102729
  0
ARC
  5
EE
330
1F
100
AcDbEntity
  8
0
  6
Continuous
 62
     7
370
    25
100
AcDbCircle
 10
307.6225284314
 20
252.8110156572
 30
0.0
 40
1.5
100
AcDbArc
 50
180.0
 51
0.0
  0
ARC
  5
EF
330
1F
100
AcDbEntity
  8
0
  6
Continuous
 62
     7
370
    25
100
AcDbCircle
 10
307.6225284314
 20
252.8110156572
 30
0.0
 40
1.5
100
AcDbArc
 50
0.0
 51
180.0
  0
LINE
  5
F0
330
1F
100
AcDbEntity
  8
0
  6
Continuous
 62
     7
370
    25
100
AcDbLine
 10
331.1225284314
 20
251.3110156572
 30
0.0
 11
332.1225284314
 21
251.3110156572
 31
0.0
  0
ARC
  5
F1
330
1F
100
AcDbEntity
  8
0
  6
Continuous
 62
     7
370
    25
100
AcDbCircle
 10
332.1225284314
 20
252.8110156572
 30
0.0
 40
1.5
100
AcDbArc
 50
270.0
 51
90.0
  0
LINE
  5
F2
330
1F
100
AcDbEntity
  8
0
  6
Continuous
 62
     7
370
    25
100
AcDbLine
 10
332.1225284314
 20
254.3110156572
 30
0.0
 11
331.1225284314
 21
254.3110156572
 31
0.0
  0
ARC
  5
F3
330
1F
100
AcDbEntity
  8
0
  6
Continuous
 62
     7
370
    25
100
AcDbCircle
 10
331.1225284314
 20
252.8110156572
 30
0.0
 40
1.5
100
AcDbArc
 50
90.0
 51
270.0
  0
ARC
  5
F4
330
1F
100
AcDbEntity
  8
0
  6
Continuous
 62
     7
370
    25
100
AcDbCircle
 10
296.6225284317
 20
249.2610156572
 30
0.0
 40
8.750000000018533
100
AcDbArc
 50
241.352110238
 51
61.3521102427
  0
ARC
  5
F5
330
1F
100
AcDbEntity
  8
0
  6
Continuous
 62
     7
370
    25
100
AcDbCircle
 10
342.6225284311
 20
249.2610156572
 30
0.0
 40
8.75000000001856
100
AcDbArc
 50
118.6478897573
 51
298.647889762
  0
ARC
  5
F6
330
1F
100
AcDbEntity
  8
0
  6
Continuous
 62
     7
370
    25
100
AcDbCircle
 10
342.6225284317
 20
249.2610156576
 30
0.0
 40
8.750000000018533
100
AcDbArc
 50
298.6478897573
 51
118.647889762
  0
ARC
  5
F7
330
1F
100
AcDbEntity
  8
0
  6
Continuous
 62
     7
370
    25
100
AcDbCircle
 10
296.6225284311
 20
249.2610156576
 30
0.0
 40
8.750000000018504
100
AcDbArc
 50
61.352110238
 51
241.3521102427
  0
LINE
  5
F8
330
1F
100
AcDbEntity
  8
0
  6
Continuous
 62
     7
370
    25
100
AcDbLine
 10
358.1225284314
 20
269.821015657
 30
0.0
 11
358.1225284314
 21
270.5068735206
 31
0.0
  0
LINE
  5
F9
330
1F
100
AcDbEntity
  8
0
  6
Continuous
 62
     7
370
    25
100
AcDbLine
 10
358.1125284316
 20
236.3110156572
 30
0.0
 11
358.1225284314
 21
236.3151577926
 31
0.0
  0
LINE
  5
FA
330
1F
100
AcDbEntity
  8
0
  6
Continuous
 62
     7
370
    25
100
AcDbLine
 10
281.1225284321
 20
236.3110156566
 30
0.0
 11
279.1225284321
 21
236.3110156566
 31
0.0
  0
LINE
  5
FB
330
1F
100
AcDbEntity
  8
0
  6
Continuous
 62
     7
370
    25
100
AcDbLine
 10
281.1225284321
 20
236.3110156566
 30
0.0
 11
281.1225284314
 21
269.8110156572
 31
0.0
  0
LINE
  5
FC
330
1F
100
AcDbEntity
  8
0
  6
Continuous
 62
     7
370
    25
100
AcDbLine
 10
279.1225284321
 20
236.3110156566
 30
0.0
 11
279.1225284314
 21
269.8110156572
 31
0.0
  0
LINE
  5
FD
330
1F
100
AcDbEntity
  8
0
  6
Continuous
 62
     7
370
    25
100
AcDbLine
 10
358.1225284314
 20
236.3110156572
 30
0.0
 11
360.1225284321
 21
236.3110156566
 31
0.0
  0
LINE
  5
FE
330
1F
100
AcDbEntity
  8
0
  6
Continuous
 62
     7
370
    25
100
AcDbLine
 10
358.1225284314
 20
269.8110156572
 30
0.0
 11
358.1225284314
 21
236.3110156572
 31
0.0
  0
LINE
  5
FF
330
1F
100
AcDbEntity
  8
0
  6
Continuous
 62
     7
370
    25
100
AcDbLine
 10
360.1225284314
 20
269.8110156572
 30
0.0
 11
360.1225284321
 21
236.3110156566
 31
0.0
  0
ARC
  5
100
330
1F
100
AcDbEntity
  8
0
  6
Continuous
 62
     7
370
    25
100
AcDbCircle
 10
307.6225284314
 20
262.8110156572
 30
0.0
 40
1.229499999989742
100
AcDbArc
 50
241.3521102439
 51
61.3521102439
  0
ARC
  5
101
330
1F
100
AcDbEntity
  8
0
  6
Continuous
 62
     7
370
    25
100
AcDbCircle
 10
307.6225284314
 20
262.8110156572
 30
0.0
 40
1.229499999989742
100
AcDbArc
 50
61.3521102439
 51
241.3521102439
  0
ARC
  5
102
330
1F
100
AcDbEntity
  8
0
  6
Continuous
 62
     7
370
    25
100
AcDbCircle
 10
331.6225284314
 20
262.8110156572
 30
0.0
 40
1.229499999998418
100
AcDbArc
 50
118.6478897558
 51
298.6478897561
  0
ARC
  5
103
330
1F
100
AcDbEntity
  8
0
  6
Continuous
 62
     7
370
    25
100
AcDbCircle
 10
331.6225284314
 20
262.8110156572
 30
0.0
 40
1.229499999998418
100
AcDbArc
 50
298.6478897561
 51
118.6478897558
  0
ARC
  5
104
330
1F
100
AcDbEntity
  8
0
  6
Continuous
 62
     7
370
    25
100
AcDbCircle
 10
307.6225284314
 20
240.8110156572
 30
0.0
 40
1.229499999954599
100
AcDbArc
 50
61.352110243
 51
241.352110243
  0
ARC
  5
105
330
1F
100
AcDbEntity
  8
0
  6
Continuous
 62
     7
370
    25
100
AcDbCircle
 10
307.6225284314
 20
240.8110156572
 30
0.0
 40
1.229499999954599
100
AcDbArc
 50
241.352110243
 51
61.352110243
  0
ARC
  5
106
330
1F
100
AcDbEntity
  8
0
  6
Continuous
 62
     7
370
    25
100
AcDbCircle
 10
331.6225284314
 20
240.8110156572
 30
0.0
 40
1.229499999954599
100
AcDbArc
 50
118.647889757
 51
298.647889757
  0
ARC
  5
107
330
1F
100
AcDbEntity
  8
0
  6
Continuous
 62
     7
370
    25
100
AcDbCircle
 10
331.6225284314
 20
240.8110156572
 30
0.0
 40
1.229499999954599
100
AcDbArc
 50
298.647889757
 51
118.647889757
  0
LINE
  5
108
330
1F
100
AcDbEntity
  8
0
  6
Continuous
 62
     7
370
    25
100
AcDbLine
 10
358.1125284316
 20
236.3110156572
 30
0.0
 11
358.1125284305
 21
234.8110156572
 31
0.0
  0
LINE
  5
109
330
1F
100
AcDbEntity
  8
0
  6
Continuous
 62
     7
370
    25
100
AcDbLine
 10
281.1325284311
 20
234.8110156572
 30
0.0
 11
358.1125284305
 21
234.8110156572
 31
0.0
  0
LINE
  5
10A
330
1F
100
AcDbEntity
  8
0
  6
Continuous
 62
     7
370
    25
100
AcDbLine
 10
281.1325284311
 20
236.3110156568
 30
0.0
 11
281.1325284311
 21
234.8110156572
 31
0.0
  0
LINE
  5
10B
330
1F
100
AcDbEntity
  8
0
  6
Continuous
 62
     7
370
    25
100
AcDbLine
 10
358.1225284314
 20
234.8110156572
 30
0.0
 11
360.1225284314
 21
234.8110156572
 31
0.0
  0
LINE
  5
10C
330
1F
100
AcDbEntity
  8
0
  6
Continuous
 62
     7
370
    25
100
AcDbLine
 10
358.1225284314
 20
236.3110156572
 30
0.0
 11
358.1225284314
 21
234.8110156572
 31
0.0
  0
LINE
  5
10D
330
1F
100
AcDbEntity
  8
0
  6
Continuous
 62
     7
370
    25
100
AcDbLine
 10
360.1225284321
 20
236.3110156566
 30
0.0
 11
360.1225284314
 21
234.8110156572
 31
0.0
  0
LINE
  5
10E
330
1F
100
AcDbEntity
  8
0
  6
Continuous
 62
     7
370
    25
100
AcDbLine
 10
358.1225284314
 20
234.821015657
 30
0.0
 11
358.1125284305
 21
234.8110156572
 31
0.0
  0
LINE
  5
10F
330
1F
100
AcDbEntity
  8
0
  6
Continuous
 62
     7
370
    25
100
AcDbLine
 10
281.1225284314
 20
271.3010156574
 30
0.0
 11
281.1225284314
 21
270.5068735206
 31
0.0
  0
LINE
  5
110
330
1F
100
AcDbEntity
  8
0
  6
Continuous
 62
     7
370
    25
100
AcDbLine
 10
281.1325284311
 20
271.3110156567
 30
0.0
 11
281.1225284314
 21
271.3010156574
 31
0.0
  0
LINE
  5
111
330
1F
100
AcDbEntity
  8
0
  6
Continuous
 62
     7
370
    25
100
AcDbLine
 10
281.1225284314
 20
270.5068735206
 30
0.0
 11
281.1325284311
 21
270.5110156579
 31
0.0
  0
LINE
  5
112
330
1F
100
AcDbEntity
  8
0
  6
Continuous
 62
     7
370
    25
100
AcDbLine
 10
281.1325284311
 20
236.3110156568
 30
0.0
 11
281.1225284314
 21
236.3151577926
 31
0.0
  0
LINE
  5
113
330
1F
100
AcDbEntity
  8
0
  6
Continuous
 62
     7
370
    25
100
AcDbLine
 10
281.1225284314
 20
269.821015657
 30
0.0
 11
281.1225284314
 21
270.5068735206
 31
0.0
  0
LINE
  5
114
330
1F
100
AcDbEntity
  8
0
  6
Continuous
 62
     7
370
    25
100
AcDbLine
 10
281.1225284314
 20
234.821015657
 30
0.0
 11
281.1325284311
 21
234.8110156572
 31
0.0
  0
LINE
  5
115
330
1F
100
AcDbEntity
  8
0
  6
Continuous
 62
     7
370
    25
100
AcDbLine
 10
281.1225284321
 20
234.8110156572
 30
0.0
 11
279.1225284321
 21
234.8110156572
 31
0.0
  0
LINE
  5
116
330
1F
100
AcDbEntity
  8
0
  6
Continuous
 62
     7
370
    25
100
AcDbLine
 10
281.1225284321
 20
234.8110156572
 30
0.0
 11
281.1225284321
 21
236.3110156566
 31
0.0
  0
LINE
  5
117
330
1F
100
AcDbEntity
  8
0
  6
Continuous
 62
     7
370
    25
100
AcDbLine
 10
279.1225284321
 20
234.8110156572
 30
0.0
 11
279.1225284321
 21
236.3110156566
 31
0.0
  0
LINE
  5
118
330
1F
100
AcDbEntity
  8
0
  6
Continuous
 62
     7
370
    25
100
AcDbLine
 10
319.6225284314
 20
234.8110156572
 30
0.0
 11
319.6225284314
 21
233.5110156572
 31
0.0
  0
LINE
  5
119
330
1F
100
AcDbEntity
  8
0
  6
Continuous
 62
     7
370
    25
100
AcDbLine
 10
322.3725284314
 20
234.8110156572
 30
0.0
 11
322.3725284314
 21
233.5110156572
 31
0.0
  0
LINE
  5
11A
330
1F
100
AcDbEntity
  8
0
  6
Continuous
 62
     7
370
    25
100
AcDbLine
 10
316.8725284314
 20
234.8110156572
 30
0.0
 11
316.8725284314
 21
233.5110156572
 31
0.0
  0
DIMENSION
  5
11B
330
1F
100
AcDbEntity
  8
0
  6
Continuous
 62
     7
370
    18
100
AcDbDimension
  2
_D
 10
360.1225284314
 20
390.0999177068
 30
0.0
 11
322.0959695403
 21
390.0999177068
 31
0.0
 70
   160
  1
<>
 71
     2
 42
-1.0
  3
SLDDIMSTYLE0
100
AcDbAlignedDimension
 13
279.1225284314
 23
271.3110156565
 33
0.0
 14
360.1225284314
 24
271.3110156565
 34
0.0
 50
0.0
100
AcDbRotatedDimension
  0
DIMENSION
  5
12E
330
1F
100
AcDbEntity
  8
0
  6
Continuous
 62
     7
370
    18
100
AcDbDimension
  2
_D_1
 10
307.6225284314
 20
252.8110156572
 30
0.0
 11
236.740316927
 21
298.1787466981
 31
0.0
 70
   164
  1
2-%%c3H8{\fGDT;x}3
 71
     1
 42
-1.0
  3
SLDDIMSTYLE1
100
AcDbRadialDimension
 15
306.5290011537
 25
253.8377571499
 35
0.0
 40
0.0
  0
DIMENSION
  5
143
330
1F
100
AcDbEntity
  8
0
  6
Continuous
 62
     7
370
    18
100
AcDbDimension
  2
_D_2
 10
331.6225284314
 20
262.8110156572
 30
0.0
 11
389.6450794801
 21
302.0850255378
 31
0.0
 70
   164
  1
4-M3{\fGDT;x}6
 71
     1
 42
-1.0
  3
SLDDIMSTYLE1
100
AcDbRadialDimension
 15
332.7216702455
 25
263.8317444528
 35
0.0
 40
0.0
  0
DIMENSION
  5
14E
330
1F
100
AcDbEntity
  8
0
  6
Continuous
 62
     7
370
    18
100
AcDbDimension
  2
_D_3
 10
310.9725284314
 20
186.0959095164
 30
0.0
 11
301.7313101485
 21
186.0959095164
 31
0.0
 70
   160
  1
<>
 71
     2
 42
-1.0
  3
SLDDIMSTYLE2
100
AcDbAlignedDimension
 13
290.9725284314
 23
225.8110156572
 33
0.0
 14
310.9725284314
 24
225.8110156572
 34
0.0
 50
0.0
100
AcDbRotatedDimension
  0
DIMENSION
  5
15B
330
1F
100
AcDbEntity
  8
0
  6
Continuous
 62
     7
370
    18
100
AcDbDimension
  2
_D_4
 10
348.2725284314
 20
186.0959095164
 30
0.0
 11
339.7122478743
 21
186.0959095164
 31
0.0
 70
   160
  1
<>
 71
     2
 42
-1.0
  3
SLDDIMSTYLE2
100
AcDbAlignedDimension
 13
328.2725284314
 23
225.8110156572
 33
0.0
 14
348.2725284314
 24
225.8110156572
 34
0.0
 50
0.0
100
AcDbRotatedDimension
  0
DIMENSION
  5
167
330
1F
100
AcDbEntity
  8
0
  6
Continuous
 62
     7
370
    18
100
AcDbDimension
  2
_D_5
 10
331.6225284314
 20
203.9074767324
 30
0.0
 11
319.6357923832
 21
203.9074767324
 31
0.0
 70
   160
  1
<>
 71
     2
 42
-1.0
  3
SLDDIMSTYLE2
100
AcDbAlignedDimension
 13
307.6225284314
 23
240.8110156572
 33
0.0
 14
331.6225284314
 24
240.8110156572
 34
0.0
 50
0.0
100
AcDbRotatedDimension
  0
DIMENSION
  5
173
330
1F
100
AcDbEntity
  8
0
  6
Continuous
 62
     7
370
    18
100
AcDbDimension
  2
_D_6
 10
399.0860989819
 20
240.8110156572
 30
0.0
 11
399.0860989819
 21
250.2331422882
 31
0.0
 70
   160
  1
<>
 71
     2
 42
-1.0
  3
SLDDIMSTYLE2
100
AcDbAlignedDimension
 13
331.6225284314
 23
262.8110156572
 33
0.0
 14
331.6225284314
 24
240.8110156572
 34
0.0
 50
90.0
100
AcDbRotatedDimension
  0
DIMENSION
  5
17F
330
1F
100
AcDbEntity
  8
0
  6
Continuous
 62
     7
370
    18
100
AcDbDimension
  2
_D_7
 10
399.0860989819
 20
240.8110156572
 30
0.0
 11
399.0860989819
 21
212.7418958028
 31
0.0
 70
   160
  1
<>
 71
     2
 42
-1.0
  3
SLDDIMSTYLE2
100
AcDbAlignedDimension
 13
348.2725284314
 23
225.8110156572
 33
0.0
 14
331.6225284314
 24
240.8110156572
 34
0.0
 50
90.0
100
AcDbRotatedDimension
  0
DIMENSION
  5
18B
330
1F
100
AcDbEntity
  8
0
  6
Continuous
 62
     7
370
    18
100
AcDbDimension
  2
_D_8
 10
358.1225284314
 20
367.8842592965
 30
0.0
 11
322.0959695403
 21
367.8842592965
 31
0.0
 70
   160
  1
<>
 71
     2
 42
-1.0
  3
SLDDIMSTYLE0
100
AcDbAlignedDimension
 13
281.1225284314
 23
270.5068735206
 33
0.0
 14
358.1225284314
 24
271.3010156569
 34
0.0
 50
0.0
100
AcDbRotatedDimension
  0
DIMENSION
  5
195
330
1F
100
AcDbEntity
  8
0
  6
Continuous
 62
     7
370
    18
100
AcDbDimension
  2
_D_9
 10
380.1225284321
 20
240.8110156572
 30
0.0
 11
380.1225284321
 21
248.1139574653
 31
0.0
 70
   160
  1
<>
 71
     2
 42
-1.0
  3
SLDDIMSTYLE2
100
AcDbAlignedDimension
 13
331.1225284314
 23
252.8110156572
 33
0.0
 14
331.6225284314
 24
240.8110156572
 34
0.0
 50
90.0
100
AcDbRotatedDimension
  0
LINE
  5
1A1
330
1F
100
AcDbEntity
  8
0
  6
Continuous
 62
     7
370
    25
100
AcDbLine
 10
327.26708837
 20
110.3804849885
 30
0.0
 11
327.2725284314
 21
110.3804849885
 31
0.0
  0
LINE
  5
1A2
330
1F
100
AcDbEntity
  8
0
  6
Continuous
 62
     7
370
    25
100
AcDbLine
 10
349.277968492
 20
117.6804849885
 30
0.0
 11
349.2725284314
 21
117.6804849885
 31
0.0
  0
LINE
  5
1A3
330
1F
100
AcDbEntity
  8
0
  6
Continuous
 62
     7
370
    25
100
AcDbLine
 10
289.96708837
 20
110.3804849885
 30
0.0
 11
289.9725284314
 21
110.3804849885
 31
0.0
  0
LINE
  5
1A4
330
1F
100
AcDbEntity
  8
0
  6
Continuous
 62
     7
370
    25
100
AcDbLine
 10
311.977968492
 20
117.6804849885
 30
0.0
 11
311.9725284314
 21
117.6804849885
 31
0.0
  0
LINE
  5
1A5
330
1F
100
AcDbEntity
  8
0
  6
Continuous
 62
     7
370
    25
100
AcDbLine
 10
328.2725284314
 20
118.0304849885
 30
0.0
 11
348.2725284314
 21
118.0304849885
 31
0.0
  0
LINE
  5
1A6
330
1F
100
AcDbEntity
  8
0
  6
Continuous
 62
     7
370
    25
100
AcDbLine
 10
348.2725284314
 20
118.0304849885
 30
0.0
 11
348.2725284314
 21
110.0304849878
 31
0.0
  0
LINE
  5
1A7
330
1F
100
AcDbEntity
  8
0
  6
Continuous
 62
     7
370
    25
100
AcDbLine
 10
328.2725284314
 20
110.0304849885
 30
0.0
 11
348.2725284314
 21
110.0304849878
 31
0.0
  0
LINE
  5
1A8
330
1F
100
AcDbEntity
  8
0
  6
Continuous
 62
     7
370
    25
100
AcDbLine
 10
328.2725284314
 20
118.0304849885
 30
0.0
 11
328.2725284314
 21
110.0304849885
 31
0.0
  0
ARC
  5
1A9
330
1F
100
AcDbEntity
  8
0
  6
Continuous
 62
     7
370
    25
100
AcDbCircle
 10
332.2725284314
 20
114.0304849885
 30
0.0
 40
1.229499999998418
100
AcDbArc
 50
241.3521102442
 51
61.3521102439
  0
ARC
  5
1AA
330
1F
100
AcDbEntity
  8
0
  6
Continuous
 62
     7
370
    25
100
AcDbCircle
 10
332.2725284314
 20
114.0304849885
 30
0.0
 40
1.229499999998418
100
AcDbArc
 50
61.3521102439
 51
241.3521102442
  0
SPLINE
  5
1AB
330
1F
100
AcDbEntity
  8
0
  6
Continuous
 62
     7
370
    25
100
AcDbSpline
210
0.0
220
0.0
230
1.0
 70
     8
 71
     3
 72
    15
 73
    11
 74
     0
 42
0.00000001
 43
0.00000001
 40
0.0
 40
0.0
 40
0.0
 40
0.0
 40
0.1250008621464762
 40
0.2499997581733333
 40
0.37500222970886
 40
0.5000007610457516
 40
0.6250022873922423
 40
0.7500026698493503
 40
0.875001879302808
 40
1.0
 40
1.0
 40
1.0
 40
1.0
 10
344.8619821310813
 20
112.9514972286126
 30
0.0
 10
344.9943413858241
 20
113.044866952888
 30
0.0
 10
345.259057813451
 20
113.2316049328405
 30
0.0
 10
345.481914140246
 20
113.6773299595027
 30
0.0
 10
345.527055150648
 20
114.1650894359246
 30
0.0
 10
345.3795987902116
 20
114.6352879668789
 30
0.0
 10
345.0636101752989
 20
115.0134167901746
 30
0.0
 10
344.6287777751923
 20
115.2389552605292
 30
0.0
 10
344.1333102718337
 20
115.2922625397198
 30
0.0
 10
343.8331528093297
 20
115.1704025018653
 30
0.0
 10
343.6830747316812
 20
115.1094727482926
 30
0.0
  0
SPLINE
  5
1AC
330
1F
100
AcDbEntity
  8
0
  6
Continuous
 62
     7
370
    25
100
AcDbSpline
210
0.0
220
0.0
230
1.0
 70
     8
 71
     3
 72
    15
 73
    11
 74
     0
 42
0.00000001
 43
0.00000001
 40
0.0
 40
0.0
 40
0.0
 40
0.0
 40
0.125000862146944
 40
0.249999758174376
 40
0.3750022297103111
 40
0.5000007610458892
 40
0.6250022873889505
 40
0.7500026698468536
 40
0.8750018793020163
 40
1.0
 40
1.0
 40
1.0
 40
1.0
 10
343.6830747316812
 20
115.1094727482926
 30
0.0
 10
343.550715476938
 20
115.0161030240169
 30
0.0
 10
343.28599904931
 20
114.8293650440635
 30
0.0
 10
343.0631427225153
 20
114.3836400173986
 30
0.0
 10
343.0180017121154
 20
113.8958805409779
 30
0.0
 10
343.1654580725466
 20
113.4256820100269
 30
0.0
 10
343.4814466874618
 20
113.0475531867415
 30
0.0
 10
343.9162790875606
 20
112.8220147163766
 30
0.0
 10
344.4117465909249
 20
112.7687074371847
 30
0.0
 10
344.7119040534319
 20
112.8905674750399
 30
0.0
 10
344.8619821310813
 20
112.9514972286126
 30
0.0
  0
ARC
  5
1AD
330
1F
100
AcDbEntity
  8
0
  6
Continuous
 62
     7
370
    25
100
AcDbCircle
 10
338.2725284314
 20
114.0304849885
 30
0.0
 40
1.229500000254891
100
AcDbArc
 50
241.3521102825
 51
61.3521102825
  0
ARC
  5
1AE
330
1F
100
AcDbEntity
  8
0
  6
Continuous
 62
     7
370
    25
100
AcDbCircle
 10
338.2725284314
 20
114.0304849885
 30
0.0
 40
1.229500000254891
100
AcDbArc
 50
61.3521102825
 51
241.3521102825
  0
LINE
  5
1AF
330
1F
100
AcDbEntity
  8
0
  6
Continuous
 62
     7
370
    25
100
AcDbLine
 10
348.2725284314
 20
109.5304849885
 30
0.0
 11
348.2725284314
 21
110.0304849878
 31
0.0
  0
LINE
  5
1B0
330
1F
100
AcDbEntity
  8
0
  6
Continuous
 62
     7
370
    25
100
AcDbLine
 10
328.2725284314
 20
109.5304849885
 30
0.0
 11
348.2725284314
 21
109.5304849885
 31
0.0
  0
LINE
  5
1B1
330
1F
100
AcDbEntity
  8
0
  6
Continuous
 62
     7
370
    25
100
AcDbLine
 10
328.2725284314
 20
109.5304849885
 30
0.0
 11
328.2725284314
 21
110.0304849885
 31
0.0
  0
LINE
  5
1B2
330
1F
100
AcDbEntity
  8
0
  6
Continuous
 62
     7
370
    25
100
AcDbLine
 10
328.2725284314
 20
118.5304849885
 30
0.0
 11
348.2725284314
 21
118.5304849885
 31
0.0
  0
LINE
  5
1B3
330
1F
100
AcDbEntity
  8
0
  6
Continuous
 62
     7
370
    25
100
AcDbLine
 10
348.2725284314
 20
118.5304849885
 30
0.0
 11
348.2725284314
 21
118.0304849885
 31
0.0
  0
LINE
  5
1B4
330
1F
100
AcDbEntity
  8
0
  6
Continuous
 62
     7
370
    25
100
AcDbLine
 10
328.2725284314
 20
118.5304849885
 30
0.0
 11
328.2725284314
 21
118.0304849885
 31
0.0
  0
LINE
  5
1B5
330
1F
100
AcDbEntity
  8
0
  6
Continuous
 62
     7
370
    25
100
AcDbLine
 10
327.2725284314
 20
118.2304849885
 30
0.0
 11
327.2725284314
 21
109.8304849892
 31
0.0
  0
LINE
  5
1B6
330
1F
100
AcDbEntity
  8
0
  6
Continuous
 62
     7
370
    25
100
AcDbLine
 10
328.2725284314
 20
118.2304849877
 30
0.0
 11
327.2725284314
 21
118.2304849885
 31
0.0
  0
LINE
  5
1B7
330
1F
100
AcDbEntity
  8
0
  6
Continuous
 62
     7
370
    25
100
AcDbLine
 10
328.2725284314
 20
109.8304849892
 30
0.0
 11
327.2725284314
 21
109.8304849892
 31
0.0
  0
LINE
  5
1B8
330
1F
100
AcDbEntity
  8
0
  6
Continuous
 62
     7
370
    25
100
AcDbLine
 10
328.2725284314
 20
118.4304849888
 30
0.0
 11
327.2725284314
 21
118.4304849885
 31
0.0
  0
LINE
  5
1B9
330
1F
100
AcDbEntity
  8
0
  6
Continuous
 62
     7
370
    25
100
AcDbLine
 10
327.2725284314
 20
118.4304849885
 30
0.0
 11
327.2725284314
 21
118.2304849885
 31
0.0
  0
LINE
  5
1BA
330
1F
100
AcDbEntity
  8
0
  6
Continuous
 62
     7
370
    25
100
AcDbLine
 10
327.2725284314
 20
109.6304849881
 30
0.0
 11
327.2725284314
 21
109.8304849892
 31
0.0
  0
LINE
  5
1BB
330
1F
100
AcDbEntity
  8
0
  6
Continuous
 62
     7
370
    25
100
AcDbLine
 10
328.2725284314
 20
109.6304849881
 30
0.0
 11
327.2725284314
 21
109.6304849881
 31
0.0
  0
LINE
  5
1BC
330
1F
100
AcDbEntity
  8
0
  6
Continuous
 62
     7
370
    25
100
AcDbLine
 10
349.2725284314
 20
118.4304849888
 30
0.0
 11
349.2725284314
 21
118.2304849877
 31
0.0
  0
LINE
  5
1BD
330
1F
100
AcDbEntity
  8
0
  6
Continuous
 62
     7
370
    25
100
AcDbLine
 10
348.2725284314
 20
118.2304849877
 30
0.0
 11
349.2725284314
 21
118.2304849877
 31
0.0
  0
LINE
  5
1BE
330
1F
100
AcDbEntity
  8
0
  6
Continuous
 62
     7
370
    25
100
AcDbLine
 10
348.2725284314
 20
118.4304849885
 30
0.0
 11
349.2725284314
 21
118.4304849888
 31
0.0
  0
LINE
  5
1BF
330
1F
100
AcDbEntity
  8
0
  6
Continuous
 62
     7
370
    25
100
AcDbLine
 10
348.2725284314
 20
109.6304849885
 30
0.0
 11
349.2725284314
 21
109.6304849881
 31
0.0
  0
LINE
  5
1C0
330
1F
100
AcDbEntity
  8
0
  6
Continuous
 62
     7
370
    25
100
AcDbLine
 10
348.2725284314
 20
109.8304849892
 30
0.0
 11
349.2725284314
 21
109.8304849892
 31
0.0
  0
LINE
  5
1C1
330
1F
100
AcDbEntity
  8
0
  6
Continuous
 62
     7
370
    25
100
AcDbLine
 10
349.2725284314
 20
109.6304849881
 30
0.0
 11
349.2725284314
 21
109.8304849892
 31
0.0
  0
LINE
  5
1C2
330
1F
100
AcDbEntity
  8
0
  6
Continuous
 62
     7
370
    25
100
AcDbLine
 10
349.2725284314
 20
118.2304849877
 30
0.0
 11
349.2725284314
 21
109.8304849892
 31
0.0
  0
SPLINE
  5
1C3
330
1F
100
AcDbEntity
  8
0
  6
Continuous
 62
     7
370
    25
100
AcDbSpline
210
0.0
220
0.0
230
1.0
 70
    24
 71
     3
 72
    13
 73
     9
 74
     0
 42
0.00000001
 43
0.00000001
 40
0.0
 40
0.0
 40
0.0
 40
0.0
 40
0.0516072492670078
 40
0.2412857994136069
 40
0.4309643495602052
 40
0.6206428997068029
 40
0.8103214498534008
 40
1.0
 40
1.0
 40
1.0
 40
1.0
 10
327.2725284311426
 20
110.3979558766048
 30
0.0
 10
327.2725284311346
 20
110.3928218999787
 30
0.0
 10
327.2725284310975
 20
110.3688183796983
 30
0.0
 10
327.2725284310312
 20
110.5033971713328
 30
0.0
 10
327.2725284309437
 20
110.7882992116617
 30
0.0
 10
327.2725284308563
 20
111.1978606538966
 30
0.0
 10
327.2725284307688
 20
111.6605453384729
 30
0.0
 10
327.2725284307104
 20
111.941398018041
 30
0.0
 10
327.2725284306812
 20
112.0818243578251
 30
0.0
  0
SPLINE
  5
1C4
330
1F
100
AcDbEntity
  8
0
  6
Continuous
 62
     7
370
    25
100
AcDbSpline
210
0.0
220
0.0
230
1.0
 70
    24
 71
     3
 72
    13
 73
     9
 74
     0
 42
0.00000001
 43
0.00000001
 40
0.0
 40
0.0
 40
0.0
 40
0.0
 40
0.0516072492670078
 40
0.2412857994136069
 40
0.4309643495602052
 40
0.6206428997068029
 40
0.8103214498534008
 40
1.0
 40
1.0
 40
1.0
 40
1.0
 10
327.2725284311426
 20
117.6630141003005
 30
0.0
 10
327.2725284311346
 20
117.6681480769266
 30
0.0
 10
327.2725284310975
 20
117.692151597207
 30
0.0
 10
327.2725284310312
 20
117.5575728055725
 30
0.0
 10
327.2725284309437
 20
117.2726707652436
 30
0.0
 10
327.2725284308563
 20
116.8631093230087
 30
0.0
 10
327.2725284307688
 20
116.4004246384324
 30
0.0
 10
327.2725284307104
 20
116.1195719588643
 30
0.0
 10
327.2725284306812
 20
115.9791456190802
 30
0.0
  0
SPLINE
  5
1C5
330
1F
100
AcDbEntity
  8
0
  6
Continuous
 62
     7
370
    25
100
AcDbSpline
210
0.0
220
0.0
230
1.0
 70
    24
 71
     3
 72
    13
 73
     9
 74
     0
 42
0.00000001
 43
0.00000001
 40
0.0
 40
0.0
 40
0.0
 40
0.0
 40
0.0516072492670078
 40
0.2412857994136069
 40
0.4309643495602052
 40
0.6206428997068029
 40
0.8103214498534008
 40
1.0
 40
1.0
 40
1.0
 40
1.0
 10
349.2725284311425
 20
110.3979558766048
 30
0.0
 10
349.2725284311346
 20
110.3928218999787
 30
0.0
 10
349.2725284310975
 20
110.3688183796983
 30
0.0
 10
349.2725284310312
 20
110.5033971713328
 30
0.0
 10
349.2725284309437
 20
110.7882992116617
 30
0.0
 10
349.2725284308563
 20
111.1978606538966
 30
0.0
 10
349.2725284307687
 20
111.6605453384729
 30
0.0
 10
349.2725284307105
 20
111.941398018041
 30
0.0
 10
349.2725284306812
 20
112.0818243578251
 30
0.0
  0
SPLINE
  5
1C6
330
1F
100
AcDbEntity
  8
0
  6
Continuous
 62
     7
370
    25
100
AcDbSpline
210
0.0
220
0.0
230
1.0
 70
    24
 71
     3
 72
    13
 73
     9
 74
     0
 42
0.00000001
 43
0.00000001
 40
0.0
 40
0.0
 40
0.0
 40
0.0
 40
0.0516072492670078
 40
0.2412857994136069
 40
0.4309643495602052
 40
0.6206428997068029
 40
0.8103214498534008
 40
1.0
 40
1.0
 40
1.0
 40
1.0
 10
349.2725284311425
 20
117.6630141003005
 30
0.0
 10
349.2725284311346
 20
117.6681480769266
 30
0.0
 10
349.2725284310975
 20
117.692151597207
 30
0.0
 10
349.2725284310312
 20
117.5575728055725
 30
0.0
 10
349.2725284309437
 20
117.2726707652436
 30
0.0
 10
349.2725284308563
 20
116.8631093230087
 30
0.0
 10
349.2725284307687
 20
116.4004246384324
 30
0.0
 10
349.2725284307105
 20
116.1195719588643
 30
0.0
 10
349.2725284306812
 20
115.9791456190802
 30
0.0
  0
ARC
  5
1C7
330
1F
100
AcDbEntity
  8
0
  6
Continuous
 62
     7
370
    25
100
AcDbCircle
 10
338.2725284314
 20
114.0304849885
 30
0.0
 40
1.200000000031992
100
AcDbArc
 50
331.3521102438
 51
77.9753008194
  0
ARC
  5
1C8
330
1F
100
AcDbEntity
  8
0
  6
Continuous
 62
     7
370
    25
100
AcDbCircle
 10
338.2725284314
 20
114.0304849885
 30
0.0
 40
1.200000000031992
100
AcDbArc
 50
282.0246991806
 51
331.3521102438
  0
ARC
  5
1C9
330
1F
100
AcDbEntity
  8
0
  6
Continuous
 62
     7
370
    25
100
AcDbCircle
 10
338.2725284314
 20
114.0304849885
 30
0.0
 40
1.200000000021396
100
AcDbArc
 50
151.3521102447
 51
257.9753008194
  0
ARC
  5
1CA
330
1F
100
AcDbEntity
  8
0
  6
Continuous
 62
     7
370
    25
100
AcDbCircle
 10
338.2725284314
 20
114.0304849885
 30
0.0
 40
1.200000000021396
100
AcDbArc
 50
102.0246991806
 51
151.3521102447
  0
LINE
  5
1CB
330
1F
100
AcDbEntity
  8
0
  6
Continuous
 62
     7
370
    25
100
AcDbLine
 10
338.0225284314
 20
115.2041544479
 30
0.0
 11
338.0225284314
 21
112.856815529
 31
0.0
  0
LINE
  5
1CC
330
1F
100
AcDbEntity
  8
0
  6
Continuous
 62
     7
370
    25
100
AcDbLine
 10
338.5225284314
 20
112.856815529
 30
0.0
 11
338.5225284314
 21
115.2041544479
 31
0.0
  0
LINE
  5
1CD
330
1F
100
AcDbEntity
  8
0
  6
Continuous
 62
     7
370
    25
100
AcDbLine
 10
328.2725284314
 20
109.3304849885
 30
0.0
 11
328.2949656546
 21
109.2304848591
 31
0.0
  0
LINE
  5
1CE
330
1F
100
AcDbEntity
  8
0
  6
Continuous
 62
     7
370
    25
100
AcDbLine
 10
348.2725284314
 20
109.3304849894
 30
0.0
 11
348.2500914854
 21
109.2304860953
 31
0.0
  0
LINE
  5
1CF
330
1F
100
AcDbEntity
  8
0
  6
Continuous
 62
     7
370
    25
100
AcDbLine
 10
348.2725284314
 20
118.7304849885
 30
0.0
 11
348.2500905667
 21
118.830487977
 31
0.0
  0
LINE
  5
1D0
330
1F
100
AcDbEntity
  8
0
  6
Continuous
 62
     7
370
    25
100
AcDbLine
 10
328.2725284314
 20
118.7304849885
 30
0.0
 11
328.2949662674
 21
118.8304878491
 31
0.0
  0
LINE
  5
1D1
330
1F
100
AcDbEntity
  8
0
  6
Continuous
 62
     7
370
    25
100
AcDbLine
 10
328.2725284314
 20
118.830487547
 30
0.0
 11
328.2725284314
 21
118.5304849885
 31
0.0
  0
LINE
  5
1D2
330
1F
100
AcDbEntity
  8
0
  6
Continuous
 62
     7
370
    25
100
AcDbLine
 10
327.2725284314
 20
118.830487547
 30
0.0
 11
327.2725284314
 21
118.4304849885
 31
0.0
  0
LINE
  5
1D3
330
1F
100
AcDbEntity
  8
0
  6
Continuous
 62
     7
370
    25
100
AcDbLine
 10
348.2725284314
 20
109.2304819367
 30
0.0
 11
348.2725284314
 21
109.5304849885
 31
0.0
  0
LINE
  5
1D4
330
1F
100
AcDbEntity
  8
0
  6
Continuous
 62
     7
370
    25
100
AcDbLine
 10
349.2725284314
 20
109.2304819367
 30
0.0
 11
349.2725284314
 21
109.6304849885
 31
0.0
  0
LINE
  5
1D5
330
1F
100
AcDbEntity
  8
0
  6
Continuous
 62
     7
370
    25
100
AcDbLine
 10
348.2725284314
 20
118.830487547
 30
0.0
 11
348.2725284314
 21
118.5304849885
 31
0.0
  0
LINE
  5
1D6
330
1F
100
AcDbEntity
  8
0
  6
Continuous
 62
     7
370
    25
100
AcDbLine
 10
349.2725284314
 20
118.830487547
 30
0.0
 11
349.2725284314
 21
118.4304849888
 31
0.0
  0
LINE
  5
1D7
330
1F
100
AcDbEntity
  8
0
  6
Continuous
 62
     7
370
    25
100
AcDbLine
 10
328.2725284314
 20
109.2304819367
 30
0.0
 11
328.2725284314
 21
109.5304849885
 31
0.0
  0
LINE
  5
1D8
330
1F
100
AcDbEntity
  8
0
  6
Continuous
 62
     7
370
    25
100
AcDbLine
 10
327.2725284314
 20
109.2304819367
 30
0.0
 11
327.2725284314
 21
109.6304849881
 31
0.0
  0
LINE
  5
1D9
330
1F
100
AcDbEntity
  8
0
  6
Continuous
 62
     7
370
    25
100
AcDbLine
 10
290.9725284314
 20
118.0304849885
 30
0.0
 11
290.9725284314
 21
110.0304849885
 31
0.0
  0
LINE
  5
1DA
330
1F
100
AcDbEntity
  8
0
  6
Continuous
 62
     7
370
    25
100
AcDbLine
 10
290.9725284314
 20
118.0304849885
 30
0.0
 11
310.9725284314
 21
118.0304849885
 31
0.0
  0
LINE
  5
1DB
330
1F
100
AcDbEntity
  8
0
  6
Continuous
 62
     7
370
    25
100
AcDbLine
 10
310.9725284314
 20
118.0304849885
 30
0.0
 11
310.9725284314
 21
110.0304849878
 31
0.0
  0
LINE
  5
1DC
330
1F
100
AcDbEntity
  8
0
  6
Continuous
 62
     7
370
    25
100
AcDbLine
 10
290.9725284314
 20
110.0304849885
 30
0.0
 11
310.9725284314
 21
110.0304849878
 31
0.0
  0
ARC
  5
1DD
330
1F
100
AcDbEntity
  8
0
  6
Continuous
 62
     7
370
    25
100
AcDbCircle
 10
294.9725284314
 20
114.0304849885
 30
0.0
 40
1.229499999998418
100
AcDbArc
 50
241.3521102442
 51
61.3521102439
  0
ARC
  5
1DE
330
1F
100
AcDbEntity
  8
0
  6
Continuous
 62
     7
370
    25
100
AcDbCircle
 10
294.9725284314
 20
114.0304849885
 30
0.0
 40
1.229499999998418
100
AcDbArc
 50
61.3521102439
 51
241.3521102442
  0
SPLINE
  5
1DF
330
1F
100
AcDbEntity
  8
0
  6
Continuous
 62
     7
370
    25
100
AcDbSpline
210
0.0
220
0.0
230
1.0
 70
     8
 71
     3
 72
    15
 73
    11
 74
     0
 42
0.00000001
 43
0.00000001
 40
0.0
 40
0.0
 40
0.0
 40
0.0
 40
0.1250008621469456
 40
0.2499997581743763
 40
0.3750022297103111
 40
0.5000007610458885
 40
0.6250022873889498
 40
0.7500026698468534
 40
0.8750018793020174
 40
1.0
 40
1.0
 40
1.0
 40
1.0
 10
306.3830747316812
 20
115.1094727482926
 30
0.0
 10
306.250715476938
 20
115.0161030240169
 30
0.0
 10
305.98599904931
 20
114.8293650440635
 30
0.0
 10
305.7631427225153
 20
114.3836400173986
 30
0.0
 10
305.7180017121154
 20
113.8958805409779
 30
0.0
 10
305.8654580725467
 20
113.4256820100269
 30
0.0
 10
306.1814466874618
 20
113.0475531867415
 30
0.0
 10
306.6162790875605
 20
112.8220147163766
 30
0.0
 10
307.1117465909249
 20
112.7687074371847
 30
0.0
 10
307.4119040534319
 20
112.8905674750399
 30
0.0
 10
307.5619821310813
 20
112.9514972286126
 30
0.0
  0
SPLINE
  5
1E0
330
1F
100
AcDbEntity
  8
0
  6
Continuous
 62
     7
370
    25
100
AcDbSpline
210
0.0
220
0.0
230
1.0
 70
     8
 71
     3
 72
    15
 73
    11
 74
     0
 42
0.00000001
 43
0.00000001
 40
0.0
 40
0.0
 40
0.0
 40
0.0
 40
0.1250008621478411
 40
0.2499997581760627
 40
0.3750022297130167
 40
0.5000007610485673
 40
0.625002287390187
 40
0.7500026698476736
 40
0.8750018793025076
 40
0.9999999999999999
 40
0.9999999999999999
 40
0.9999999999999999
 40
0.9999999999999999
 10
307.5619821310813
 20
112.9514972286126
 30
0.0
 10
307.6943413858254
 20
113.0448669528892
 30
0.0
 10
307.959057813455
 20
113.2316049328441
 30
0.0
 10
308.1819141402498
 20
113.6773299595133
 30
0.0
 10
308.2270551506463
 20
114.1650894359367
 30
0.0
 10
308.0795987902129
 20
114.6352879668869
 30
0.0
 10
307.7636101752944
 20
115.0134167901656
 30
0.0
 10
307.3287777751989
 20
115.2389552605299
 30
0.0
 10
306.8333102718358
 20
115.29226253972
 30
0.0
 10
306.53315280933
 20
115.1704025018652
 30
0.0
 10
306.3830747316812
 20
115.1094727482926
 30
0.0
  0
ARC
  5
1E1
330
1F
100
AcDbEntity
  8
0
  6
Continuous
 62
     7
370
    25
100
AcDbCircle
 10
300.9725284314
 20
114.0304849885
 30
0.0
 40
1.229500000254864
100
AcDbArc
 50
61.3521102825
 51
241.3521102825
  0
ARC
  5
1E2
330
1F
100
AcDbEntity
  8
0
  6
Continuous
 62
     7
370
    25
100
AcDbCircle
 10
300.9725284314
 20
114.0304849885
 30
0.0
 40
1.229500000254864
100
AcDbArc
 50
241.3521102825
 51
61.3521102825
  0
LINE
  5
1E3
330
1F
100
AcDbEntity
  8
0
  6
Continuous
 62
     7
370
    25
100
AcDbLine
 10
290.9725284314
 20
109.5304849885
 30
0.0
 11
290.9725284314
 21
110.0304849885
 31
0.0
  0
LINE
  5
1E4
330
1F
100
AcDbEntity
  8
0
  6
Continuous
 62
     7
370
    25
100
AcDbLine
 10
310.9725284314
 20
109.5304849885
 30
0.0
 11
310.9725284314
 21
110.0304849878
 31
0.0
  0
LINE
  5
1E5
330
1F
100
AcDbEntity
  8
0
  6
Continuous
 62
     7
370
    25
100
AcDbLine
 10
290.9725284314
 20
109.5304849885
 30
0.0
 11
310.9725284314
 21
109.5304849885
 31
0.0
  0
LINE
  5
1E6
330
1F
100
AcDbEntity
  8
0
  6
Continuous
 62
     7
370
    25
100
AcDbLine
 10
290.9725284314
 20
118.5304849885
 30
0.0
 11
310.9725284314
 21
118.5304849885
 31
0.0
  0
LINE
  5
1E7
330
1F
100
AcDbEntity
  8
0
  6
Continuous
 62
     7
370
    25
100
AcDbLine
 10
310.9725284314
 20
118.5304849885
 30
0.0
 11
310.9725284314
 21
118.0304849885
 31
0.0
  0
LINE
  5
1E8
330
1F
100
AcDbEntity
  8
0
  6
Continuous
 62
     7
370
    25
100
AcDbLine
 10
290.9725284314
 20
118.5304849885
 30
0.0
 11
290.9725284314
 21
118.0304849885
 31
0.0
  0
LINE
  5
1E9
330
1F
100
AcDbEntity
  8
0
  6
Continuous
 62
     7
370
    25
100
AcDbLine
 10
290.9725284314
 20
118.4304849888
 30
0.0
 11
289.9725284314
 21
118.4304849885
 31
0.0
  0
LINE
  5
1EA
330
1F
100
AcDbEntity
  8
0
  6
Continuous
 62
     7
370
    25
100
AcDbLine
 10
290.9725284314
 20
118.2304849877
 30
0.0
 11
289.9725284314
 21
118.2304849885
 31
0.0
  0
LINE
  5
1EB
330
1F
100
AcDbEntity
  8
0
  6
Continuous
 62
     7
370
    25
100
AcDbLine
 10
289.9725284314
 20
118.4304849885
 30
0.0
 11
289.9725284314
 21
118.2304849885
 31
0.0
  0
LINE
  5
1EC
330
1F
100
AcDbEntity
  8
0
  6
Continuous
 62
     7
370
    25
100
AcDbLine
 10
289.9725284314
 20
118.2304849885
 30
0.0
 11
289.9725284314
 21
109.8304849892
 31
0.0
  0
LINE
  5
1ED
330
1F
100
AcDbEntity
  8
0
  6
Continuous
 62
     7
370
    25
100
AcDbLine
 10
290.9725284314
 20
109.8304849892
 30
0.0
 11
289.9725284314
 21
109.8304849892
 31
0.0
  0
LINE
  5
1EE
330
1F
100
AcDbEntity
  8
0
  6
Continuous
 62
     7
370
    25
100
AcDbLine
 10
289.9725284314
 20
109.6304849881
 30
0.0
 11
289.9725284314
 21
109.8304849892
 31
0.0
  0
LINE
  5
1EF
330
1F
100
AcDbEntity
  8
0
  6
Continuous
 62
     7
370
    25
100
AcDbLine
 10
290.9725284314
 20
109.6304849881
 30
0.0
 11
289.9725284314
 21
109.6304849881
 31
0.0
  0
LINE
  5
1F0
330
1F
100
AcDbEntity
  8
0
  6
Continuous
 62
     7
370
    25
100
AcDbLine
 10
310.9725284314
 20
109.8304849892
 30
0.0
 11
311.9725284314
 21
109.8304849892
 31
0.0
  0
LINE
  5
1F1
330
1F
100
AcDbEntity
  8
0
  6
Continuous
 62
     7
370
    25
100
AcDbLine
 10
310.9725284314
 20
118.2304849877
 30
0.0
 11
311.9725284314
 21
118.2304849877
 31
0.0
  0
LINE
  5
1F2
330
1F
100
AcDbEntity
  8
0
  6
Continuous
 62
     7
370
    25
100
AcDbLine
 10
311.9725284314
 20
118.2304849877
 30
0.0
 11
311.9725284314
 21
109.8304849892
 31
0.0
  0
LINE
  5
1F3
330
1F
100
AcDbEntity
  8
0
  6
Continuous
 62
     7
370
    25
100
AcDbLine
 10
311.9725284314
 20
118.4304849888
 30
0.0
 11
311.9725284314
 21
118.2304849877
 31
0.0
  0
LINE
  5
1F4
330
1F
100
AcDbEntity
  8
0
  6
Continuous
 62
     7
370
    25
100
AcDbLine
 10
310.9725284314
 20
118.4304849885
 30
0.0
 11
311.9725284314
 21
118.4304849888
 31
0.0
  0
LINE
  5
1F5
330
1F
100
AcDbEntity
  8
0
  6
Continuous
 62
     7
370
    25
100
AcDbLine
 10
310.9725284314
 20
109.6304849885
 30
0.0
 11
311.9725284314
 21
109.6304849881
 31
0.0
  0
LINE
  5
1F6
330
1F
100
AcDbEntity
  8
0
  6
Continuous
 62
     7
370
    25
100
AcDbLine
 10
311.9725284314
 20
109.6304849881
 30
0.0
 11
311.9725284314
 21
109.8304849892
 31
0.0
  0
SPLINE
  5
1F7
330
1F
100
AcDbEntity
  8
0
  6
Continuous
 62
     7
370
    25
100
AcDbSpline
210
0.0
220
0.0
230
1.0
 70
    24
 71
     3
 72
    13
 73
     9
 74
     0
 42
0.00000001
 43
0.00000001
 40
0.0
 40
0.0
 40
0.0
 40
0.0
 40
0.0516072492670078
 40
0.2412857994136069
 40
0.4309643495602052
 40
0.6206428997068029
 40
0.8103214498534008
 40
1.0
 40
1.0
 40
1.0
 40
1.0
 10
289.9725284311426
 20
110.3979558766048
 30
0.0
 10
289.9725284311347
 20
110.3928218999787
 30
0.0
 10
289.9725284310975
 20
110.3688183796983
 30
0.0
 10
289.9725284310313
 20
110.5033971713328
 30
0.0
 10
289.9725284309437
 20
110.7882992116617
 30
0.0
 10
289.9725284308562
 20
111.1978606538966
 30
0.0
 10
289.9725284307688
 20
111.6605453384729
 30
0.0
 10
289.9725284307104
 20
111.941398018041
 30
0.0
 10
289.9725284306812
 20
112.0818243578251
 30
0.0
  0
SPLINE
  5
1F8
330
1F
100
AcDbEntity
  8
0
  6
Continuous
 62
     7
370
    25
100
AcDbSpline
210
0.0
220
0.0
230
1.0
 70
    24
 71
     3
 72
    13
 73
     9
 74
     0
 42
0.00000001
 43
0.00000001
 40
0.0
 40
0.0
 40
0.0
 40
0.0
 40
0.0516072492670078
 40
0.2412857994136069
 40
0.4309643495602052
 40
0.6206428997068029
 40
0.8103214498534008
 40
1.0
 40
1.0
 40
1.0
 40
1.0
 10
289.9725284311426
 20
117.6630141003005
 30
0.0
 10
289.9725284311347
 20
117.6681480769266
 30
0.0
 10
289.9725284310975
 20
117.692151597207
 30
0.0
 10
289.9725284310313
 20
117.5575728055725
 30
0.0
 10
289.9725284309437
 20
117.2726707652436
 30
0.0
 10
289.9725284308562
 20
116.8631093230087
 30
0.0
 10
289.9725284307688
 20
116.4004246384324
 30
0.0
 10
289.9725284307104
 20
116.1195719588643
 30
0.0
 10
289.9725284306812
 20
115.9791456190802
 30
0.0
  0
SPLINE
  5
1F9
330
1F
100
AcDbEntity
  8
0
  6
Continuous
 62
     7
370
    25
100
AcDbSpline
210
0.0
220
0.0
230
1.0
 70
    24
 71
     3
 72
    13
 73
     9
 74
     0
 42
0.00000001
 43
0.00000001
 40
0.0
 40
0.0
 40
0.0
 40
0.0
 40
0.0516072492670078
 40
0.2412857994136069
 40
0.4309643495602052
 40
0.6206428997068029
 40
0.8103214498534008
 40
1.0
 40
1.0
 40
1.0
 40
1.0
 10
311.9725284311426
 20
110.3979558766048
 30
0.0
 10
311.9725284311346
 20
110.3928218999787
 30
0.0
 10
311.9725284310975
 20
110.3688183796983
 30
0.0
 10
311.9725284310313
 20
110.5033971713328
 30
0.0
 10
311.9725284309437
 20
110.7882992116617
 30
0.0
 10
311.9725284308562
 20
111.1978606538966
 30
0.0
 10
311.9725284307687
 20
111.6605453384729
 30
0.0
 10
311.9725284307104
 20
111.941398018041
 30
0.0
 10
311.9725284306812
 20
112.0818243578251
 30
0.0
  0
SPLINE
  5
1FA
330
1F
100
AcDbEntity
  8
0
  6
Continuous
 62
     7
370
    25
100
AcDbSpline
210
0.0
220
0.0
230
1.0
 70
    24
 71
     3
 72
    13
 73
     9
 74
     0
 42
0.00000001
 43
0.00000001
 40
0.0
 40
0.0
 40
0.0
 40
0.0
 40
0.0516072492670078
 40
0.2412857994136069
 40
0.4309643495602052
 40
0.6206428997068029
 40
0.8103214498534008
 40
1.0
 40
1.0
 40
1.0
 40
1.0
 10
311.9725284311426
 20
117.6630141003005
 30
0.0
 10
311.9725284311346
 20
117.6681480769266
 30
0.0
 10
311.9725284310975
 20
117.692151597207
 30
0.0
 10
311.9725284310313
 20
117.5575728055725
 30
0.0
 10
311.9725284309437
 20
117.2726707652436
 30
0.0
 10
311.9725284308562
 20
116.8631093230087
 30
0.0
 10
311.9725284307687
 20
116.4004246384324
 30
0.0
 10
311.9725284307104
 20
116.1195719588643
 30
0.0
 10
311.9725284306812
 20
115.9791456190802
 30
0.0
  0
ARC
  5
1FB
330
1F
100
AcDbEntity
  8
0
  6
Continuous
 62
     7
370
    25
100
AcDbCircle
 10
300.9725284314
 20
114.0304849885
 30
0.0
 40
1.200000000031992
100
AcDbArc
 50
331.3521102438
 51
77.9753008194
  0
ARC
  5
1FC
330
1F
100
AcDbEntity
  8
0
  6
Continuous
 62
     7
370
    25
100
AcDbCircle
 10
300.9725284314
 20
114.0304849885
 30
0.0
 40
1.200000000031992
100
AcDbArc
 50
282.0246991806
 51
331.3521102438
  0
ARC
  5
1FD
330
1F
100
AcDbEntity
  8
0
  6
Continuous
 62
     7
370
    25
100
AcDbCircle
 10
300.9725284314
 20
114.0304849885
 30
0.0
 40
1.200000000021446
100
AcDbArc
 50
151.3521102447
 51
257.9753008194
  0
ARC
  5
1FE
330
1F
100
AcDbEntity
  8
0
  6
Continuous
 62
     7
370
    25
100
AcDbCircle
 10
300.9725284314
 20
114.0304849885
 30
0.0
 40
1.200000000021446
100
AcDbArc
 50
102.0246991806
 51
151.3521102447
  0
LINE
  5
1FF
330
1F
100
AcDbEntity
  8
0
  6
Continuous
 62
     7
370
    25
100
AcDbLine
 10
300.7225284314
 20
115.2041544479
 30
0.0
 11
300.7225284314
 21
112.856815529
 31
0.0
  0
LINE
  5
200
330
1F
100
AcDbEntity
  8
0
  6
Continuous
 62
     7
370
    25
100
AcDbLine
 10
301.2225284314
 20
112.856815529
 30
0.0
 11
301.2225284314
 21
115.2041544479
 31
0.0
  0
LINE
  5
201
330
1F
100
AcDbEntity
  8
0
  6
Continuous
 62
     7
370
    25
100
AcDbLine
 10
290.9725284314
 20
109.3304849885
 30
0.0
 11
290.994966173
 21
109.2304825483
 31
0.0
  0
LINE
  5
202
330
1F
100
AcDbEntity
  8
0
  6
Continuous
 62
     7
370
    25
100
AcDbLine
 10
310.9725284314
 20
109.3304849894
 30
0.0
 11
310.9500909669
 21
109.2304837845
 31
0.0
  0
LINE
  5
203
330
1F
100
AcDbEntity
  8
0
  6
Continuous
 62
     7
370
    25
100
AcDbLine
 10
290.9725284314
 20
118.7304849885
 30
0.0
 11
290.9949662138
 21
118.8304876102
 31
0.0
  0
LINE
  5
204
330
1F
100
AcDbEntity
  8
0
  6
Continuous
 62
     7
370
    25
100
AcDbLine
 10
310.9725284314
 20
118.7304849885
 30
0.0
 11
310.9500906203
 21
118.830487738
 31
0.0
  0
LINE
  5
205
330
1F
100
AcDbEntity
  8
0
  6
Continuous
 62
     7
370
    25
100
AcDbLine
 10
290.9725284314
 20
118.830487547
 30
0.0
 11
290.9725284314
 21
118.5304849885
 31
0.0
  0
LINE
  5
206
330
1F
100
AcDbEntity
  8
0
  6
Continuous
 62
     7
370
    25
100
AcDbLine
 10
289.9725284314
 20
118.830487547
 30
0.0
 11
289.9725284314
 21
118.4304849885
 31
0.0
  0
LINE
  5
207
330
1F
100
AcDbEntity
  8
0
  6
Continuous
 62
     7
370
    25
100
AcDbLine
 10
310.9725284314
 20
118.830487547
 30
0.0
 11
310.9725284314
 21
118.5304849885
 31
0.0
  0
LINE
  5
208
330
1F
100
AcDbEntity
  8
0
  6
Continuous
 62
     7
370
    25
100
AcDbLine
 10
311.9725284314
 20
118.830487547
 30
0.0
 11
311.9725284314
 21
118.4304849888
 31
0.0
  0
LINE
  5
209
330
1F
100
AcDbEntity
  8
0
  6
Continuous
 62
     7
370
    25
100
AcDbLine
 10
310.9725284314
 20
109.2304819367
 30
0.0
 11
310.9725284314
 21
109.5304849885
 31
0.0
  0
LINE
  5
20A
330
1F
100
AcDbEntity
  8
0
  6
Continuous
 62
     7
370
    25
100
AcDbLine
 10
311.9725284314
 20
109.2304819367
 30
0.0
 11
311.9725284314
 21
109.6304849885
 31
0.0
  0
LINE
  5
20B
330
1F
100
AcDbEntity
  8
0
  6
Continuous
 62
     7
370
    25
100
AcDbLine
 10
290.9725284314
 20
109.2304819367
 30
0.0
 11
290.9725284314
 21
109.5304849885
 31
0.0
  0
LINE
  5
20C
330
1F
100
AcDbEntity
  8
0
  6
Continuous
 62
     7
370
    25
100
AcDbLine
 10
289.9725284314
 20
109.2304819367
 30
0.0
 11
289.9725284314
 21
109.6304849881
 31
0.0
  0
LINE
  5
20D
330
1F
100
AcDbEntity
  8
0
  6
Continuous
 62
     7
370
    25
100
AcDbLine
 10
281.1225284314
 20
119.0304903521
 30
0.0
 11
281.1225284314
 21
123.4304809073
 31
0.0
  0
LINE
  5
20E
330
1F
100
AcDbEntity
  8
0
  6
Continuous
 62
     7
370
    25
100
AcDbLine
 10
358.1225284314
 20
123.4304788849
 30
0.0
 11
281.1225284314
 21
123.4304809073
 31
0.0
  0
LINE
  5
20F
330
1F
100
AcDbEntity
  8
0
  6
Continuous
 62
     7
370
    25
100
AcDbLine
 10
358.1225284314
 20
119.0304849885
 30
0.0
 11
358.1225284314
 21
123.4304788849
 31
0.0
  0
LINE
  5
210
330
1F
100
AcDbEntity
  8
0
  6
Continuous
 62
     7
370
    25
100
AcDbLine
 10
358.1225284314
 20
119.0304849885
 30
0.0
 11
281.1225284314
 21
119.0304903521
 31
0.0
  0
LINE
  5
211
330
1F
100
AcDbEntity
  8
0
  6
Continuous
 62
     7
370
    25
100
AcDbLine
 10
358.1225284314
 20
124.0304858025
 30
0.0
 11
281.1225284314
 21
124.0304849885
 31
0.0
  0
LINE
  5
212
330
1F
100
AcDbEntity
  8
0
  6
Continuous
 62
     7
370
    25
100
AcDbLine
 10
358.1225284314
 20
123.4304788849
 30
0.0
 11
358.1225284314
 21
124.0304858025
 31
0.0
  0
LINE
  5
213
330
1F
100
AcDbEntity
  8
0
  6
Continuous
 62
     7
370
    25
100
AcDbLine
 10
281.1225284314
 20
123.4304809073
 30
0.0
 11
281.1225284314
 21
124.0304849885
 31
0.0
  0
LINE
  5
214
330
1F
100
AcDbEntity
  8
0
  6
Continuous
 62
     7
370
    25
100
AcDbLine
 10
358.1225284314
 20
118.8304880402
 30
0.0
 11
358.1225284314
 21
119.0304849885
 31
0.0
  0
LINE
  5
215
330
1F
100
AcDbEntity
  8
0
  6
Continuous
 62
     7
370
    25
100
AcDbLine
 10
358.1225284314
 20
118.8304880402
 30
0.0
 11
281.1225284314
 21
118.8304895966
 31
0.0
  0
LINE
  5
216
330
1F
100
AcDbEntity
  8
0
  6
Continuous
 62
     7
370
    25
100
AcDbLine
 10
281.1225284314
 20
118.8304895966
 30
0.0
 11
281.1225284314
 21
119.0304903521
 31
0.0
  0
LINE
  5
217
330
1F
100
AcDbEntity
  8
0
  6
Continuous
 62
     7
370
    25
100
AcDbLine
 10
358.1225284314
 20
104.6304826896
 30
0.0
 11
281.1225284314
 21
104.6304826896
 31
0.0
  0
LINE
  5
218
330
1F
100
AcDbEntity
  8
0
  6
Continuous
 62
     7
370
    25
100
AcDbLine
 10
358.1225284314
 20
104.0304849885
 30
0.0
 11
358.1225284314
 21
104.6304826896
 31
0.0
  0
LINE
  5
219
330
1F
100
AcDbEntity
  8
0
  6
Continuous
 62
     7
370
    25
100
AcDbLine
 10
358.1225284314
 20
104.0304849885
 30
0.0
 11
281.1225284314
 21
104.0304829397
 31
0.0
  0
LINE
  5
21A
330
1F
100
AcDbEntity
  8
0
  6
Continuous
 62
     7
370
    25
100
AcDbLine
 10
281.1225284314
 20
104.0304829397
 30
0.0
 11
281.1225284314
 21
104.6304826896
 31
0.0
  0
LINE
  5
21B
330
1F
100
AcDbEntity
  8
0
  6
Continuous
 62
     7
370
    25
100
AcDbLine
 10
358.1225284314
 20
109.2304746966
 30
0.0
 11
281.1225284314
 21
109.2304819367
 31
0.0
  0
LINE
  5
21C
330
1F
100
AcDbEntity
  8
0
  6
Continuous
 62
     7
370
    25
100
AcDbLine
 10
358.1225284314
 20
109.0304849885
 30
0.0
 11
358.1225284314
 21
109.2304746966
 31
0.0
  0
LINE
  5
21D
330
1F
100
AcDbEntity
  8
0
  6
Continuous
 62
     7
370
    25
100
AcDbLine
 10
358.1225284314
 20
109.0304849885
 30
0.0
 11
281.1225284314
 21
109.0304796248
 31
0.0
  0
LINE
  5
21E
330
1F
100
AcDbEntity
  8
0
  6
Continuous
 62
     7
370
    25
100
AcDbLine
 10
281.1225284314
 20
109.0304796248
 30
0.0
 11
281.1225284314
 21
109.2304819367
 31
0.0
  0
LINE
  5
21F
330
1F
100
AcDbEntity
  8
0
  6
Continuous
 62
     7
370
    25
100
AcDbLine
 10
358.1225284314
 20
104.6304826896
 30
0.0
 11
358.1225284314
 21
109.0304849885
 31
0.0
  0
LINE
  5
220
330
1F
100
AcDbEntity
  8
0
  6
Continuous
 62
     7
370
    25
100
AcDbLine
 10
281.1225284314
 20
104.6304826896
 30
0.0
 11
281.1225284314
 21
109.0304796248
 31
0.0
  0
LINE
  5
221
330
1F
100
AcDbEntity
  8
0
  6
Continuous
 62
     7
370
    25
100
AcDbLine
 10
358.1225284314
 20
118.2304819367
 30
0.0
 11
358.1225284314
 21
118.8304819605
 31
0.0
  0
LINE
  5
222
330
1F
100
AcDbEntity
  8
0
  6
Continuous
 62
     7
370
    25
100
AcDbLine
 10
281.1225284314
 20
118.2304819367
 30
0.0
 11
281.1225284314
 21
118.8304880402
 31
0.0
  0
LINE
  5
223
330
1F
100
AcDbEntity
  8
0
  6
Continuous
 62
     7
370
    25
100
AcDbLine
 10
358.1225284314
 20
109.2304819367
 30
0.0
 11
358.1225284314
 21
109.8304880141
 31
0.0
  0
LINE
  5
224
330
1F
100
AcDbEntity
  8
0
  6
Continuous
 62
     7
370
    25
100
AcDbLine
 10
281.1225284314
 20
109.2304880164
 30
0.0
 11
281.1225284314
 21
109.8304880141
 31
0.0
  0
LINE
  5
225
330
1F
100
AcDbEntity
  8
0
  6
Continuous
 62
     7
370
    25
100
AcDbLine
 10
358.1225284314
 20
124.0304849885
 30
0.0
 11
281.1225284314
 21
124.0304849885
 31
0.0
  0
LINE
  5
226
330
1F
100
AcDbEntity
  8
0
  6
Continuous
 62
     7
370
    25
100
AcDbLine
 10
358.1225284314
 20
104.0304849885
 30
0.0
 11
281.1225284314
 21
104.0304849885
 31
0.0
  0
SPLINE
  5
227
330
1F
100
AcDbEntity
  8
0
  6
Continuous
 62
     7
370
    25
100
AcDbSpline
210
0.0
220
0.0
230
1.0
 70
     8
 71
     3
 72
    22
 73
    18
 74
     0
 42
0.00000001
 43
0.00000001
 40
0.0
 40
0.0
 40
0.0
 40
0.0
 40
0.125
 40
0.125
 40
0.25
 40
0.25
 40
0.375
 40
0.375
 40
0.5
 40
0.5
 40
0.625
 40
0.625
 40
0.75
 40
0.75
 40
0.875
 40
0.875
 40
1.0
 40
1.0
 40
1.0
 40
1.0
 10
319.6225284313812
 20
110.3304849884526
 30
0.0
 10
320.1068572988096
 20
110.3304849884526
 30
0.0
 10
320.5909956035106
 20
110.4267860847799
 30
0.0
 10
321.4859186587536
 20
110.7974753515419
 30
0.0
 10
321.8963512952884
 20
111.0717176715794
 30
0.0
 10
322.5812957482545
 20
111.7566621245455
 30
0.0
 10
322.855538068292
 20
112.1670947610803
 30
0.0
 10
323.226227335054
 20
113.0620178163233
 30
0.0
 10
323.3225284313813
 20
113.5461561210242
 30
0.0
 10
323.3225284313813
 20
114.5148138558811
 30
0.0
 10
323.226227335054
 20
114.998952160582
 30
0.0
 10
322.855538068292
 20
115.893875215825
 30
0.0
 10
322.5812957482545
 20
116.3043078523598
 30
0.0
 10
321.8963512952884
 20
116.9892523053259
 30
0.0
 10
321.4859186587536
 20
117.2634946253634
 30
0.0
 10
320.5909956035106
 20
117.6341838921254
 30
0.0
 10
320.1068572988096
 20
117.7304849884526
 30
0.0
 10
319.6225284313812
 20
117.7304849884526
 30
0.0
  0
SPLINE
  5
228
330
1F
100
AcDbEntity
  8
0
  6
Continuous
 62
     7
370
    25
100
AcDbSpline
210
0.0
220
0.0
230
1.0
 70
     8
 71
     3
 72
    22
 73
    18
 74
     0
 42
0.00000001
 43
0.00000001
 40
0.0
 40
0.0
 40
0.0
 40
0.0
 40
0.125
 40
0.125
 40
0.25
 40
0.25
 40
0.375
 40
0.375
 40
0.5
 40
0.5
 40
0.625
 40
0.625
 40
0.75
 40
0.75
 40
0.875
 40
0.875
 40
1.0
 40
1.0
 40
1.0
 40
1.0
 10
319.6225284313812
 20
117.7304849884526
 30
0.0
 10
319.1381995639528
 20
117.7304849884526
 30
0.0
 10
318.6540612592519
 20
117.6341838921254
 30
0.0
 10
317.7591382040089
 20
117.2634946253634
 30
0.0
 10
317.3487055674741
 20
116.9892523053259
 30
0.0
 10
316.663761114508
 20
116.3043078523598
 30
0.0
 10
316.3895187944705
 20
115.893875215825
 30
0.0
 10
316.0188295277085
 20
114.998952160582
 30
0.0
 10
315.9225284313812
 20
114.5148138558811
 30
0.0
 10
315.9225284313812
 20
113.5461561210242
 30
0.0
 10
316.0188295277085
 20
113.0620178163233
 30
0.0
 10
316.3895187944705
 20
112.1670947610803
 30
0.0
 10
316.663761114508
 20
111.7566621245455
 30
0.0
 10
317.3487055674741
 20
111.0717176715794
 30
0.0
 10
317.7591382040089
 20
110.7974753515419
 30
0.0
 10
318.6540612592519
 20
110.4267860847799
 30
0.0
 10
319.1381995639529
 20
110.3304849884526
 30
0.0
 10
319.6225284313812
 20
110.3304849884526
 30
0.0
  0
ARC
  5
229
330
1F
100
AcDbEntity
  8
0
  6
Continuous
 62
     7
370
    25
100
AcDbCircle
 10
349.6225284314
 20
114.0304849885
 30
0.0
 40
2.500000000002188
100
AcDbArc
 50
270.0
 51
90.0
  0
LINE
  5
22A
330
1F
100
AcDbEntity
  8
0
  6
Continuous
 62
     7
370
    25
100
AcDbLine
 10
349.2725284308
 20
116.5304849885
 30
0.0
 11
349.6225284314
 21
116.5304849885
 31
0.0
  0
ARC
  5
22B
330
1F
100
AcDbEntity
  8
0
  6
Continuous
 62
     7
370
    25
100
AcDbCircle
 10
335.6225284314
 20
114.0304849885
 30
0.0
 40
2.499999999999984
100
AcDbArc
 50
162.3422389467
 51
197.6577610534
  0
LINE
  5
22C
330
1F
100
AcDbEntity
  8
0
  6
Continuous
 62
     7
370
    25
100
AcDbLine
 10
349.6225284314
 20
111.5304849885
 30
0.0
 11
349.2725284308
 21
111.5304849885
 31
0.0
  0
LINE
  5
22D
330
1F
100
AcDbEntity
  8
0
  6
Continuous
 62
     7
370
    25
100
AcDbLine
 10
289.9725284308
 20
111.5304849885
 30
0.0
 11
289.6225284314
 21
111.5304849885
 31
0.0
  0
ARC
  5
22E
330
1F
100
AcDbEntity
  8
0
  6
Continuous
 62
     7
370
    25
100
AcDbCircle
 10
303.6225284314
 20
114.0304849885
 30
0.0
 40
2.499999999999984
100
AcDbArc
 50
343.6380596732
 51
16.9590811417
  0
LINE
  5
22F
330
1F
100
AcDbEntity
  8
0
  6
Continuous
 62
     7
370
    25
100
AcDbLine
 10
289.6225284314
 20
116.5304849885
 30
0.0
 11
289.9725284308
 21
116.5304849885
 31
0.0
  0
ARC
  5
230
330
1F
100
AcDbEntity
  8
0
  6
Continuous
 62
     7
370
    25
100
AcDbCircle
 10
289.6225284314
 20
114.0304849885
 30
0.0
 40
2.500000000002188
100
AcDbArc
 50
90.0
 51
270.0
  0
LINE
  5
231
330
1F
100
AcDbEntity
  8
0
  6
Continuous
 62
     7
370
    25
100
AcDbLine
 10
358.1225284314
 20
109.8304880141
 30
0.0
 11
358.1225284314
 21
118.2304819367
 31
0.0
  0
LINE
  5
232
330
1F
100
AcDbEntity
  8
0
  6
Continuous
 62
     7
370
    25
100
AcDbLine
 10
281.1225284314
 20
109.8304880141
 30
0.0
 11
281.1225284314
 21
118.2304819367
 31
0.0
  0
LINE
  5
233
330
1F
100
AcDbEntity
  8
0
  6
Continuous
 62
     7
370
    25
100
AcDbLine
 10
319.622528432
 20
110.8550585075
 30
0.0
 11
322.3725284314
 21
112.4427717482
 31
0.0
  0
LINE
  5
234
330
1F
100
AcDbEntity
  8
0
  6
Continuous
 62
     7
370
    25
100
AcDbLine
 10
322.3725284314
 20
115.6181982287
 30
0.0
 11
319.6225284314
 21
117.205911469
 31
0.0
  0
LINE
  5
235
330
1F
100
AcDbEntity
  8
0
  6
Continuous
 62
     7
370
    25
100
AcDbLine
 10
322.3725284314
 20
112.4427717482
 30
0.0
 11
322.3725284314
 21
115.6181982287
 31
0.0
  0
LINE
  5
236
330
1F
100
AcDbEntity
  8
0
  6
Continuous
 62
     7
370
    25
100
AcDbLine
 10
316.8725284314
 20
112.4427717482
 30
0.0
 11
319.622528432
 21
110.8550585075
 31
0.0
  0
LINE
  5
237
330
1F
100
AcDbEntity
  8
0
  6
Continuous
 62
     7
370
    25
100
AcDbLine
 10
319.6225284314
 20
117.205911469
 30
0.0
 11
316.8725284314
 21
115.6181982287
 31
0.0
  0
LINE
  5
238
330
1F
100
AcDbEntity
  8
0
  6
Continuous
 62
     7
370
    25
100
AcDbLine
 10
316.8725284314
 20
115.6181982287
 30
0.0
 11
316.8725284314
 21
112.4427717482
 31
0.0
  0
LINE
  5
239
330
1F
100
AcDbEntity
  8
0
  6
Continuous
 62
     7
370
    25
100
AcDbLine
 10
279.1225284321
 20
129.5304849885
 30
0.0
 11
279.1225284321
 21
131.0304849879
 31
0.0
  0
LINE
  5
23A
330
1F
100
AcDbEntity
  8
0
  6
Continuous
 62
     7
370
    25
100
AcDbLine
 10
281.1225284321
 20
131.0304849879
 30
0.0
 11
279.1225284321
 21
131.0304849879
 31
0.0
  0
LINE
  5
23B
330
1F
100
AcDbEntity
  8
0
  6
Continuous
 62
     7
370
    25
100
AcDbLine
 10
281.1225284321
 20
129.5304849885
 30
0.0
 11
281.1225284321
 21
131.0304849879
 31
0.0
  0
LINE
  5
23C
330
1F
100
AcDbEntity
  8
0
  6
Continuous
 62
     7
370
    25
100
AcDbLine
 10
281.1225284321
 20
129.5304849885
 30
0.0
 11
279.1225284321
 21
129.5304849885
 31
0.0
  0
LINE
  5
23D
330
1F
100
AcDbEntity
  8
0
  6
Continuous
 62
     7
370
    25
100
AcDbLine
 10
281.1225284314
 20
98.5304849885
 30
0.0
 11
281.1225284315
 21
104.0304829397
 31
0.0
  0
LINE
  5
23E
330
1F
100
AcDbEntity
  8
0
  6
Continuous
 62
     7
370
    25
100
AcDbLine
 10
281.1225284314
 20
124.0304849885
 30
0.0
 11
281.1225284321
 21
129.5304849885
 31
0.0
  0
LINE
  5
23F
330
1F
100
AcDbEntity
  8
0
  6
Continuous
 62
     7
370
    25
100
AcDbLine
 10
281.1225284314
 20
98.5304849885
 30
0.0
 11
279.1225284314
 21
98.5304849885
 31
0.0
  0
LINE
  5
240
330
1F
100
AcDbEntity
  8
0
  6
Continuous
 62
     7
370
    25
100
AcDbLine
 10
279.1225284314
 20
98.5304849885
 30
0.0
 11
279.1225284321
 21
129.5304849885
 31
0.0
  0
LINE
  5
241
330
1F
100
AcDbEntity
  8
0
  6
Continuous
 62
     7
370
    25
100
AcDbLine
 10
281.1225284314
 20
97.0304849885
 30
0.0
 11
281.1225284314
 21
98.5304849885
 31
0.0
  0
LINE
  5
242
330
1F
100
AcDbEntity
  8
0
  6
Continuous
 62
     7
370
    25
100
AcDbLine
 10
281.1225284314
 20
97.0304849885
 30
0.0
 11
279.1225284321
 21
97.0304849891
 31
0.0
  0
LINE
  5
243
330
1F
100
AcDbEntity
  8
0
  6
Continuous
 62
     7
370
    25
100
AcDbLine
 10
279.1225284321
 20
97.0304849891
 30
0.0
 11
279.1225284314
 21
98.5304849885
 31
0.0
  0
LINE
  5
244
330
1F
100
AcDbEntity
  8
0
  6
Continuous
 62
     7
370
    25
100
AcDbLine
 10
281.1325284311
 20
98.5304849891
 30
0.0
 11
281.1325284311
 21
104.0304849885
 31
0.0
  0
LINE
  5
245
330
1F
100
AcDbEntity
  8
0
  6
Continuous
 62
     7
370
    25
100
AcDbLine
 10
281.1325284311
 20
124.0304849885
 30
0.0
 11
281.1325284311
 21
129.530484988
 31
0.0
  0
LINE
  5
246
330
1F
100
AcDbEntity
  8
0
  6
Continuous
 62
     7
370
    25
100
AcDbLine
 10
281.1325284311
 20
98.5304849891
 30
0.0
 11
281.1225284314
 21
98.5346271239
 31
0.0
  0
LINE
  5
247
330
1F
100
AcDbEntity
  8
0
  6
Continuous
 62
     7
370
    25
100
AcDbLine
 10
281.1225284314
 20
129.5263428531
 30
0.0
 11
281.1325284311
 21
129.530484988
 31
0.0
  0
LINE
  5
248
330
1F
100
AcDbEntity
  8
0
  6
Continuous
 62
     7
370
    25
100
AcDbLine
 10
281.1325284311
 20
129.530484988
 30
0.0
 11
358.1125284305
 21
129.5304849885
 31
0.0
  0
LINE
  5
249
330
1F
100
AcDbEntity
  8
0
  6
Continuous
 62
     7
370
    25
100
AcDbLine
 10
358.1125284316
 20
98.5304849885
 30
0.0
 11
358.1125284314
 21
104.0304849885
 31
0.0
  0
LINE
  5
24A
330
1F
100
AcDbEntity
  8
0
  6
Continuous
 62
     7
370
    25
100
AcDbLine
 10
358.1125284307
 20
124.0304849885
 30
0.0
 11
358.1125284305
 21
129.5304849885
 31
0.0
  0
LINE
  5
24B
330
1F
100
AcDbEntity
  8
0
  6
Continuous
 62
     7
370
    25
100
AcDbLine
 10
281.1325284311
 20
98.5304849891
 30
0.0
 11
358.1125284316
 21
98.5304849885
 31
0.0
  0
LINE
  5
24C
330
1F
100
AcDbEntity
  8
0
  6
Continuous
 62
     7
370
    25
100
AcDbLine
 10
281.1325284311
 20
131.0304849882
 30
0.0
 11
281.1225284314
 21
131.0204849887
 31
0.0
  0
LINE
  5
24D
330
1F
100
AcDbEntity
  8
0
  6
Continuous
 62
     7
370
    25
100
AcDbLine
 10
281.1325284311
 20
131.0304849882
 30
0.0
 11
281.1325284311
 21
129.530484988
 31
0.0
  0
LINE
  5
24E
330
1F
100
AcDbEntity
  8
0
  6
Continuous
 62
     7
370
    25
100
AcDbLine
 10
281.1325284311
 20
131.0304849882
 30
0.0
 11
358.1125284316
 21
131.0304849885
 31
0.0
  0
LINE
  5
24F
330
1F
100
AcDbEntity
  8
0
  6
Continuous
 62
     7
370
    25
100
AcDbLine
 10
358.1125284316
 20
131.0304849885
 30
0.0
 11
358.1125284305
 21
129.5304849885
 31
0.0
  0
LINE
  5
250
330
1F
100
AcDbEntity
  8
0
  6
Continuous
 62
     7
370
    25
100
AcDbLine
 10
281.1325284311
 20
98.5304849891
 30
0.0
 11
281.1325284311
 21
97.0304849882
 31
0.0
  0
LINE
  5
251
330
1F
100
AcDbEntity
  8
0
  6
Continuous
 62
     7
370
    25
100
AcDbLine
 10
358.1125284316
 20
98.5304849885
 30
0.0
 11
358.1125284305
 21
97.0304849891
 31
0.0
  0
LINE
  5
252
330
1F
100
AcDbEntity
  8
0
  6
Continuous
 62
     7
370
    25
100
AcDbLine
 10
281.1325284311
 20
97.0304849882
 30
0.0
 11
358.1125284305
 21
97.0304849891
 31
0.0
  0
LINE
  5
253
330
1F
100
AcDbEntity
  8
0
  6
Continuous
 62
     7
370
    25
100
AcDbLine
 10
358.1225284314
 20
129.5263428531
 30
0.0
 11
358.1125284305
 21
129.5304849885
 31
0.0
  0
LINE
  5
254
330
1F
100
AcDbEntity
  8
0
  6
Continuous
 62
     7
370
    25
100
AcDbLine
 10
358.1125284316
 20
131.0304849885
 30
0.0
 11
358.1225284314
 21
131.0204849887
 31
0.0
  0
LINE
  5
255
330
1F
100
AcDbEntity
  8
0
  6
Continuous
 62
     7
370
    25
100
AcDbLine
 10
360.1225284314
 20
129.5304849885
 30
0.0
 11
360.1225284321
 21
98.5304849885
 31
0.0
  0
LINE
  5
256
330
1F
100
AcDbEntity
  8
0
  6
Continuous
 62
     7
370
    25
100
AcDbLine
 10
358.1225284321
 20
98.5304849885
 30
0.0
 11
360.1225284321
 21
98.5304849885
 31
0.0
  0
LINE
  5
257
330
1F
100
AcDbEntity
  8
0
  6
Continuous
 62
     7
370
    25
100
AcDbLine
 10
358.1225284314
 20
129.5304849885
 30
0.0
 11
358.1225284315
 21
124.0304849885
 31
0.0
  0
LINE
  5
258
330
1F
100
AcDbEntity
  8
0
  6
Continuous
 62
     7
370
    25
100
AcDbLine
 10
358.122528432
 20
104.0304849885
 30
0.0
 11
358.1225284321
 21
98.5304849885
 31
0.0
  0
LINE
  5
259
330
1F
100
AcDbEntity
  8
0
  6
Continuous
 62
     7
370
    25
100
AcDbLine
 10
358.1225284314
 20
129.5304849885
 30
0.0
 11
360.1225284314
 21
129.5304849885
 31
0.0
  0
LINE
  5
25A
330
1F
100
AcDbEntity
  8
0
  6
Continuous
 62
     7
370
    25
100
AcDbLine
 10
360.1225284321
 20
131.0304849879
 30
0.0
 11
360.1225284314
 21
129.5304849885
 31
0.0
  0
LINE
  5
25B
330
1F
100
AcDbEntity
  8
0
  6
Continuous
 62
     7
370
    25
100
AcDbLine
 10
358.1225284314
 20
131.0304849885
 30
0.0
 11
358.1225284314
 21
129.5304849885
 31
0.0
  0
LINE
  5
25C
330
1F
100
AcDbEntity
  8
0
  6
Continuous
 62
     7
370
    25
100
AcDbLine
 10
358.1225284314
 20
131.0304849885
 30
0.0
 11
360.1225284321
 21
131.0304849879
 31
0.0
  0
LINE
  5
25D
330
1F
100
AcDbEntity
  8
0
  6
Continuous
 62
     7
370
    25
100
AcDbLine
 10
358.1125284316
 20
98.5304849885
 30
0.0
 11
358.1225284314
 21
98.5346271239
 31
0.0
  0
LINE
  5
25E
330
1F
100
AcDbEntity
  8
0
  6
Continuous
 62
     7
370
    25
100
AcDbLine
 10
358.1225284314
 20
97.0404849883
 30
0.0
 11
358.1125284305
 21
97.0304849891
 31
0.0
  0
LINE
  5
25F
330
1F
100
AcDbEntity
  8
0
  6
Continuous
 62
     7
370
    25
100
AcDbLine
 10
358.1225284321
 20
97.0304849891
 30
0.0
 11
360.1225284321
 21
97.0304849891
 31
0.0
  0
LINE
  5
260
330
1F
100
AcDbEntity
  8
0
  6
Continuous
 62
     7
370
    25
100
AcDbLine
 10
360.1225284321
 20
98.5304849885
 30
0.0
 11
360.1225284321
 21
97.0304849891
 31
0.0
  0
LINE
  5
261
330
1F
100
AcDbEntity
  8
0
  6
Continuous
 62
     7
370
    25
100
AcDbLine
 10
358.1225284321
 20
98.5304849885
 30
0.0
 11
358.1225284321
 21
97.0304849891
 31
0.0
  0
LINE
  5
262
330
1F
100
AcDbEntity
  8
0
  6
Continuous
 62
     7
370
    25
100
AcDbLine
 10
281.1225284314
 20
97.0404849883
 30
0.0
 11
281.1325284311
 21
97.0304849882
 31
0.0
  0
ARC
  5
263
330
1F
100
AcDbEntity
  8
0
  6
Continuous
 62
     7
370
    25
100
AcDbCircle
 10
319.6225284314
 20
114.0304849885
 30
0.0
 40
3.499999999999994
100
AcDbArc
 50
118.6478897564
 51
298.6478897564
  0
SPLINE
  5
264
330
1F
100
AcDbEntity
  8
0
  6
Continuous
 62
     7
370
    25
100
AcDbSpline
210
0.0
220
0.0
230
1.0
 70
     8
 71
     3
 72
    29
 73
    25
 74
     0
 42
0.00000001
 43
0.00000001
 40
0.0
 40
0.0
 40
0.0
 40
0.0
 40
0.0156533153618894
 40
0.0312749508495383
 40
0.0469027009023168
 40
0.0625743157210969
 40
0.0938269879223114
 40
0.1251299419845081
 40
0.1876098697399527
 40
0.2500897289771817
 40
0.3125695882144657
 40
0.375049515970038
 40
0.4375294437255282
 40
0.5000093029626878
 40
0.5624891621998794
 40
0.6249690899553029
 40
0.687449017710669
 40
0.7499288769477932
 40
0.8124087361850053
 40
0.874888663940476
 40
0.9061426568686379
 40
0.9374442901827612
 40
0.9687098850223974
 40
1.0
 40
1.0
 40
1.0
 40
1.0
 10
321.3005178164913
 20
110.9589460218326
 30
0.0
 10
321.350420471676
 20
110.9871271780588
 30
0.0
 10
321.4501247868377
 20
111.0434324562367
 30
0.0
 10
321.5941682205588
 20
111.1370452576856
 30
0.0
 10
321.7337896395395
 20
111.2371694234048
 30
0.0
 10
321.9130363739909
 20
111.3797661226612
 30
0.0
 10
322.1238946146388
 20
111.574273445497
 30
0.0
 10
322.4284924880416
 20
111.9166810440868
 30
0.0
 10
322.7442428606282
 20
112.3984349677158
 30
0.0
 10
323.0025844077828
 20
113.0387301642893
 30
0.0
 10
323.1311322787678
 20
113.7172241657841
 30
0.0
 10
323.124806225129
 20
114.4077306993249
 30
0.0
 10
322.9839323144892
 20
115.0837494574227
 30
0.0
 10
322.7138694756455
 20
115.7192922652255
 30
0.0
 10
322.324994127489
 20
116.2899276993397
 30
0.0
 10
321.832258742951
 20
116.7737230702457
 30
0.0
 10
321.254634454554
 20
117.1521301114038
 30
0.0
 10
320.6142506688698
 20
117.4105467994208
 30
0.0
 10
319.9358635983885
 20
117.5391348038257
 30
0.0
 10
319.3601072096361
 20
117.5336662061024
 30
0.0
 10
318.9073085971923
 20
117.4625338363646
 30
0.0
 10
318.5746528143525
 20
117.3753754906997
 30
0.0
 10
318.2507671555803
 20
117.2583076493548
 30
0.0
 10
318.0466417532441
 20
117.1541321311572
 30
0.0
 10
317.9445390462712
 20
117.1020239550726
 30
0.0
  0
DIMENSION
  5
265
330
1F
100
AcDbEntity
  8
0
  6
Continuous
 62
     7
370
    18
100
AcDbDimension
  2
_D_10
 10
294.9725284314
 20
152.5792788459
 30
0.0
 11
299.8338263914
 21
152.5792788459
 31
0.0
 70
   160
  1
<>
 71
     2
 42
-1.0
  3
SLDDIMSTYLE2
100
AcDbAlignedDimension
 13
306.9725284314
 23
114.0304849885
 33
0.0
 14
294.9725284314
 24
114.0304849885
 34
0.0
100
AcDbRotatedDimension
  0
DIMENSION
  5
271
330
1F
100
AcDbEntity
  8
0
  6
Continuous
 62
     7
370
    18
100
AcDbDimension
  2
_D_11
 10
294.9725284314
 20
138.9581019923
 30
0.0
 11
314.1571257632
 21
138.9581019923
 31
0.0
 70
   160
  1
<>
 71
     2
 42
-1.0
  3
SLDDIMSTYLE2
100
AcDbAlignedDimension
 13
300.9725284314
 23
114.0304849885
 33
0.0
 14
294.9725284314
 24
114.0304849885
 34
0.0
100
AcDbRotatedDimension
  0
DIMENSION
  5
27D
330
1F
100
AcDbEntity
  8
0
  6
Continuous
 62
     7
370
    18
100
AcDbDimension
  2
_D_12
 10
332.2725284314
 20
152.5792788459
 30
0.0
 11
337.6080178719
 21
152.5792788459
 31
0.0
 70
   160
  1
<>
 71
     2
 42
-1.0
  3
SLDDIMSTYLE2
100
AcDbAlignedDimension
 13
344.2725284314
 23
114.0304849885
 33
0.0
 14
332.2725284314
 24
114.0304849885
 34
0.0
100
AcDbRotatedDimension
  0
DIMENSION
  5
289
330
1F
100
AcDbEntity
  8
0
  6
Continuous
 62
     7
370
    18
100
AcDbDimension
  2
_D_13
 10
344.2725284314
 20
138.9581019923
 30
0.0
 11
354.7398073166
 21
138.9581019923
 31
0.0
 70
   160
  1
<>
 71
     2
 42
-1.0
  3
SLDDIMSTYLE2
100
AcDbAlignedDimension
 13
338.2725284314
 23
114.0304849885
 33
0.0
 14
344.2725284314
 24
114.0304849885
 34
0.0
100
AcDbRotatedDimension
  0
DIMENSION
  5
295
330
1F
100
AcDbEntity
  8
0
  6
Continuous
 62
     7
370
    18
100
AcDbDimension
  2
_D_14
 10
294.9725284314
 20
114.0304849885
 30
0.0
 11
232.3041827807
 21
145.5560445707
 31
0.0
 70
   164
  1
2x2-M3{\fGDT;x}5
 71
     1
 42
-1.0
  3
SLDDIMSTYLE1
100
AcDbRadialDimension
 15
293.9740396322
 25
114.7479042298
 35
0.0
 40
0.0
  0
DIMENSION
  5
2A0
330
1F
100
AcDbEntity
  8
0
  6
Continuous
 62
     7
370
    18
100
AcDbDimension
  2
_D_15
 10
338.2725284314
 20
114.0304849885
 30
0.0
 11
350.766770204
 21
85.1325300862
 31
0.0
 70
   164
  1
2X%%c3H8{\fGDT;x}2
 71
     1
 42
-1.0
  3
SLDDIMSTYLE1
100
AcDbRadialDimension
 15
337.7205646241
 25
112.9318466467
 35
0.0
 40
0.0
  0
SPLINE
  5
2AD
330
1F
100
AcDbEntity
  8
0
  6
Continuous
 62
     7
370
    25
100
AcDbSpline
210
0.0
220
0.0
230
1.0
 70
     8
 71
     3
 72
    11
 73
     7
 74
     0
 42
0.00000001
 43
0.00000001
 40
0.0
 40
0.0
 40
0.0
 40
0.0
 40
0.2799179385301298
 40
0.5595623068621399
 40
0.779700122180276
 40
1.0
 40
1.0
 40
1.0
 40
1.0
 10
178.1805318142214
 20
274.2976277186721
 30
0.0
 10
178.136617174102
 20
274.505242037193
 30
0.0
 10
178.0488308126444
 20
274.9202677680169
 30
0.0
 10
177.7045940655619
 20
275.4112933691214
 30
0.0
 10
177.2898177125932
 20
275.7688284967251
 30
0.0
 10
176.9825558308132
 20
275.8969375574526
 30
0.0
 10
176.8288683602143
 20
275.961015657183
 30
0.0
  0
SPLINE
  5
2AE
330
1F
100
AcDbEntity
  8
0
  6
Continuous
 62
     7
370
    25
100
AcDbSpline
210
0.0
220
0.0
230
1.0
 70
     8
 71
     3
 72
    11
 73
     7
 74
     0
 42
0.00000001
 43
0.00000001
 40
0.0
 40
0.0
 40
0.0
 40
0.0
 40
0.2799179385246362
 40
0.5595623068538274
 40
0.7797001221719126
 40
1.0
 40
1.0
 40
1.0
 40
1.0
 10
155.1805318142203
 20
274.2976277186776
 30
0.0
 10
155.1366171741062
 20
274.5052420371961
 30
0.0
 10
155.0488308126591
 20
274.920267768017
 30
0.0
 10
154.7045940655852
 20
275.4112933691229
 30
0.0
 10
154.2898177126112
 20
275.7688284967306
 30
0.0
 10
153.9825558308212
 20
275.8969375574537
 30
0.0
 10
153.8288683602143
 20
275.961015657183
 30
0.0
  0
SPLINE
  5
2AF
330
1F
100
AcDbEntity
  8
0
  6
Continuous
 62
     7
370
    25
100
AcDbSpline
210
0.0
220
0.0
230
1.0
 70
     8
 71
     3
 72
    11
 73
     7
 74
     0
 42
0.00000001
 43
0.00000001
 40
0.0
 40
0.0
 40
0.0
 40
0.0
 40
0.2799151660410964
 40
0.5595552793919802
 40
0.779699599727644
 40
1.0
 40
1.0
 40
1.0
 40
1.0
 10
174.02886836034
 20
275.961015657183
 30
0.0
 10
173.8346264129399
 20
275.8755650693523
 30
0.0
 10
173.446333385862
 20
275.7047478598952
 30
0.0
 10
173.0361430410751
 20
275.2673047064105
 30
0.0
 10
172.7710580761285
 20
274.7881425348911
 30
0.0
 10
172.7084966862028
 20
274.4611712802316
 30
0.0
 10
172.6772049063327
 20
274.2976277186705
 30
0.0
  0
SPLINE
  5
2B0
330
1F
100
AcDbEntity
  8
0
  6
Continuous
 62
     7
370
    25
100
AcDbSpline
210
0.0
220
0.0
230
1.0
 70
     8
 71
     3
 72
    11
 73
     7
 74
     0
 42
0.00000001
 43
0.00000001
 40
0.0
 40
0.0
 40
0.0
 40
0.0
 40
0.2799151660498808
 40
0.5595552793990639
 40
0.7796995997325312
 40
1.0
 40
1.0
 40
1.0
 40
1.0
 10
151.02886836034
 20
275.961015657183
 30
0.0
 10
150.8346264129312
 20
275.8755650693539
 30
0.0
 10
150.4463333858433
 20
275.7047478599033
 30
0.0
 10
150.0361430410547
 20
275.2673047064119
 30
0.0
 10
149.7710580761175
 20
274.7881425348938
 30
0.0
 10
149.7084966862
 20
274.4611712802377
 30
0.0
 10
149.6772049063342
 20
274.2976277186792
 30
0.0
  0
LINE
  5
2B1
330
1F
100
AcDbEntity
  8
0
  6
Continuous
 62
     7
370
    25
100
AcDbLine
 10
177.9288683603
 20
308.3110156572
 30
0.0
 11
176.7741009389
 21
308.3110156572
 31
0.0
  0
LINE
  5
2B2
330
1F
100
AcDbEntity
  8
0
  6
Continuous
 62
     7
370
    25
100
AcDbLine
 10
151.0836357816
 20
308.3110156572
 30
0.0
 11
176.7741009389
 21
308.3110156572
 31
0.0
  0
LINE
  5
2B3
330
1F
100
AcDbEntity
  8
0
  6
Continuous
 62
     7
370
    25
100
AcDbLine
 10
151.0836357816
 20
308.3110156572
 30
0.0
 11
149.9288683603
 21
308.3110156572
 31
0.0
  0
LINE
  5
2B4
330
1F
100
AcDbEntity
  8
0
  6
Continuous
 62
     7
370
    25
100
AcDbLine
 10
149.9288683603
 20
275.028852604
 30
0.0
 11
149.9288683603
 21
308.3110156572
 31
0.0
  0
LINE
  5
2B5
330
1F
100
AcDbEntity
  8
0
  6
Continuous
 62
     7
370
    25
100
AcDbLine
 10
151.0836357816
 20
308.3110156572
 30
0.0
 11
151.0836357816
 21
275.9610156572
 31
0.0
  0
LINE
  5
2B6
330
1F
100
AcDbEntity
  8
0
  6
Continuous
 62
     7
370
    25
100
AcDbLine
 10
176.7741009389
 20
275.9610156572
 30
0.0
 11
176.7741009389
 21
308.3110156572
 31
0.0
  0
LINE
  5
2B7
330
1F
100
AcDbEntity
  8
0
  6
Continuous
 62
     7
370
    25
100
AcDbLine
 10
177.9288683603
 20
308.3110156572
 30
0.0
 11
177.9288683603
 21
275.0239011631
 31
0.0
  0
LINE
  5
2B8
330
1F
100
AcDbEntity
  8
0
  6
Continuous
 62
     7
370
    25
100
AcDbLine
 10
153.9288683603
 20
326.3110156572
 30
0.0
 11
153.9288683603
 21
327.8110156572
 31
0.0
  0
ARC
  5
2B9
330
1F
100
AcDbEntity
  8
0
  6
Continuous
 62
     7
370
    25
100
AcDbCircle
 10
154.9288683603
 20
327.8110156572
 30
0.0
 40
1.000000000000057
100
AcDbArc
 50
90.0
 51
180.0
  0
LINE
  5
2BA
330
1F
100
AcDbEntity
  8
0
  6
Continuous
 62
     7
370
    25
100
AcDbLine
 10
154.9288683603
 20
328.8110156572
 30
0.0
 11
172.9288683603
 21
328.8110156572
 31
0.0
  0
LINE
  5
2BB
330
1F
100
AcDbEntity
  8
0
  6
Continuous
 62
     7
370
    25
100
AcDbLine
 10
153.9288683603
 20
308.3110156572
 30
0.0
 11
153.9288683603
 21
326.3110156572
 31
0.0
  0
ARC
  5
2BC
330
1F
100
AcDbEntity
  8
0
  6
Continuous
 62
     7
370
    25
100
AcDbCircle
 10
172.9288683603
 20
327.8110156572
 30
0.0
 40
1.000000000000057
100
AcDbArc
 50
0.0
 51
90.0
  0
LINE
  5
2BD
330
1F
100
AcDbEntity
  8
0
  6
Continuous
 62
     7
370
    25
100
AcDbLine
 10
173.9288683603
 20
327.8110156572
 30
0.0
 11
173.9288683603
 21
326.3110156572
 31
0.0
  0
LINE
  5
2BE
330
1F
100
AcDbEntity
  8
0
  6
Continuous
 62
     7
370
    25
100
AcDbLine
 10
173.9288683603
 20
326.3110156572
 30
0.0
 11
173.9288683603
 21
308.3110156572
 31
0.0
  0
LINE
  5
2BF
330
1F
100
AcDbEntity
  8
0
  6
Continuous
 62
     7
370
    25
100
AcDbLine
 10
148.9288683603
 20
271.3110156572
 30
0.0
 11
148.9288683603
 21
274.3110156572
 31
0.0
  0
LINE
  5
2C0
330
1F
100
AcDbEntity
  8
0
  6
Continuous
 62
     7
370
    25
100
AcDbLine
 10
147.9288683603
 20
271.3110156568
 30
0.0
 11
147.9288683603
 21
274.3110156568
 31
0.0
  0
LINE
  5
2C1
330
1F
100
AcDbEntity
  8
0
  6
Continuous
 62
     7
370
    25
100
AcDbLine
 10
148.9288683603
 20
274.3110156572
 30
0.0
 11
147.9288683603
 21
274.3110156568
 31
0.0
  0
LINE
  5
2C2
330
1F
100
AcDbEntity
  8
0
  6
Continuous
 62
     7
370
    25
100
AcDbLine
 10
178.9288683603
 20
271.3110156568
 30
0.0
 11
178.9288683603
 21
274.3110156568
 31
0.0
  0
LINE
  5
2C3
330
1F
100
AcDbEntity
  8
0
  6
Continuous
 62
     7
370
    25
100
AcDbLine
 10
178.9288683603
 20
274.3110156568
 30
0.0
 11
148.9288683603
 21
274.3110156572
 31
0.0
  0
LINE
  5
2C4
330
1F
100
AcDbEntity
  8
0
  6
Continuous
 62
     7
370
    25
100
AcDbLine
 10
179.9288683603
 20
271.3110156568
 30
0.0
 11
179.9288683603
 21
274.3110156568
 31
0.0
  0
LINE
  5
2C5
330
1F
100
AcDbEntity
  8
0
  6
Continuous
 62
     7
370
    25
100
AcDbLine
 10
179.9288683603
 20
274.3110156568
 30
0.0
 11
178.9288683603
 21
274.3110156568
 31
0.0
  0
LINE
  5
2C6
330
1F
100
AcDbEntity
  8
0
  6
Continuous
 62
     7
370
    25
100
AcDbLine
 10
174.2002527727
 20
275.9610156572
 30
0.0
 11
176.8288678756
 21
275.9610156572
 31
0.0
  0
LINE
  5
2C7
330
1F
100
AcDbEntity
  8
0
  6
Continuous
 62
     7
370
    25
100
AcDbLine
 10
151.2002527727
 20
275.9610156572
 30
0.0
 11
153.8288678756
 21
275.9610156572
 31
0.0
  0
LINE
  5
2C8
330
1F
100
AcDbEntity
  8
0
  6
Continuous
 62
     7
370
    25
100
AcDbLine
 10
174.0288688372
 20
275.9610156572
 30
0.0
 11
174.2002527727
 21
275.9610156572
 31
0.0
  0
LINE
  5
2C9
330
1F
100
AcDbEntity
  8
0
  6
Continuous
 62
     7
370
    25
100
AcDbLine
 10
151.0288688372
 20
275.9610156572
 30
0.0
 11
151.2002527727
 21
275.9610156572
 31
0.0
  0
ARC
  5
2CA
330
1F
100
AcDbEntity
  8
0
  6
Continuous
 62
     7
370
    25
100
AcDbCircle
 10
161.4288683603
 20
228.8110156572
 30
0.0
 40
1.150000000000026
100
AcDbArc
 50
298.6478897481
 51
118.6478897481
  0
SPLINE
  5
2CB
330
1F
100
AcDbEntity
  8
0
  6
Continuous
 62
     7
370
    25
100
AcDbSpline
210
0.0
220
0.0
230
1.0
 70
     8
 71
     3
 72
    15
 73
    11
 74
     0
 42
0.00000001
 43
0.00000001
 40
0.0
 40
0.0
 40
0.0
 40
0.0
 40
0.1249999999999955
 40
0.2499999999999968
 40
0.3749999999999963
 40
0.4999999999999976
 40
0.6249999999999982
 40
0.7499999999999983
 40
0.8749999999999988
 40
0.9999999999999999
 40
0.9999999999999999
 40
0.9999999999999999
 40
0.9999999999999999
 10
160.8775289908823
 20
229.8202356033569
 30
0.0
 10
160.7537276838816
 20
229.7329049973011
 30
0.0
 10
160.5061250698801
 20
229.5582437851895
 30
0.0
 10
160.2976834200838
 20
229.1413384577634
 30
0.0
 10
160.2554589645634
 20
228.6851190917762
 30
0.0
 10
160.3933743172176
 20
228.2453226832561
 30
0.0
 10
160.6889342511486
 20
227.8916479019955
 30
0.0
 10
161.0956435810112
 20
227.6806821807316
 30
0.0
 10
161.5590788214749
 20
227.6308248713134
 30
0.0
 10
161.8398314269247
 20
227.7448054311024
 30
0.0
 10
161.9802077296496
 20
227.8017957109969
 30
0.0
  0
SPLINE
  5
2CC
330
1F
100
AcDbEntity
  8
0
  6
Continuous
 62
     7
370
    25
100
AcDbSpline
210
0.0
220
0.0
230
1.0
 70
     8
 71
     3
 72
    15
 73
    11
 74
     0
 42
0.00000001
 43
0.00000001
 40
0.0
 40
0.0
 40
0.0
 40
0.0
 40
0.1249999999999955
 40
0.2499999999999968
 40
0.3749999999999963
 40
0.4999999999999976
 40
0.6249999999999982
 40
0.7499999999999983
 40
0.8749999999999988
 40
0.9999999999999999
 40
0.9999999999999999
 40
0.9999999999999999
 40
0.9999999999999999
 10
166.980207729672
 20
229.8202356033569
 30
0.0
 10
167.1040090366727
 20
229.7329049973011
 30
0.0
 10
167.3516116506742
 20
229.5582437851895
 30
0.0
 10
167.5600533004705
 20
229.1413384577634
 30
0.0
 10
167.6022777559909
 20
228.6851190917762
 30
0.0
 10
167.4643624033367
 20
228.2453226832561
 30
0.0
 10
167.1688024694057
 20
227.8916479019955
 30
0.0
 10
166.7620931395431
 20
227.6806821807316
 30
0.0
 10
166.2986578990794
 20
227.6308248713134
 30
0.0
 10
166.0179052936296
 20
227.7448054311024
 30
0.0
 10
165.8775289909047
 20
227.8017957109969
 30
0.0
  0
ARC
  5
2CD
330
1F
100
AcDbEntity
  8
0
  6
Continuous
 62
     7
370
    25
100
AcDbCircle
 10
166.4288683603
 20
228.8110156572
 30
0.0
 40
1.150000000000017
100
AcDbArc
 50
61.3521102443
 51
241.3521102447
  0
LINE
  5
2CE
330
1F
100
AcDbEntity
  8
0
  6
Continuous
 62
     7
370
    25
100
AcDbLine
 10
159.5288683599
 20
231.0110156565
 30
0.0
 11
159.5288683599
 21
230.5908115535
 31
0.0
  0
LINE
  5
2CF
330
1F
100
AcDbEntity
  8
0
  6
Continuous
 62
     7
370
    25
100
AcDbLine
 10
159.728868361
 20
231.2110156576
 30
0.0
 11
159.5288683599
 21
231.0110156565
 31
0.0
  0
LINE
  5
2D0
330
1F
100
AcDbEntity
  8
0
  6
Continuous
 62
     7
370
    25
100
AcDbLine
 10
159.728868361
 20
231.2110156576
 30
0.0
 11
168.1288683595
 21
231.2110156576
 31
0.0
  0
LINE
  5
2D1
330
1F
100
AcDbEntity
  8
0
  6
Continuous
 62
     7
370
    25
100
AcDbLine
 10
168.1288683595
 20
231.2110156576
 30
0.0
 11
168.3288683603
 21
231.0110156579
 31
0.0
  0
LINE
  5
2D2
330
1F
100
AcDbEntity
  8
0
  6
Continuous
 62
     7
370
    25
100
AcDbLine
 10
168.3288683603
 20
231.0110156579
 30
0.0
 11
168.3288683603
 21
230.5908115543
 31
0.0
  0
ARC
  5
2D3
330
1F
100
AcDbEntity
  8
0
  6
Continuous
 62
     7
370
    25
100
AcDbCircle
 10
168.1288683603
 20
229.6110156572
 30
0.0
 40
0.9999999999870184
100
AcDbArc
 50
281.536959033
 51
78.463040967
  0
LINE
  5
2D4
330
1F
100
AcDbEntity
  8
0
  6
Continuous
 62
     7
370
    25
100
AcDbLine
 10
168.3288683603
 20
228.6312197601
 30
0.0
 11
168.3288683603
 21
226.7110156571
 31
0.0
  0
LINE
  5
2D5
330
1F
100
AcDbEntity
  8
0
  6
Continuous
 62
     7
370
    25
100
AcDbLine
 10
168.3288683603
 20
226.7110156571
 30
0.0
 11
168.1288683603
 21
226.5110156572
 31
0.0
  0
LINE
  5
2D6
330
1F
100
AcDbEntity
  8
0
  6
Continuous
 62
     7
370
    25
100
AcDbLine
 10
168.1288683603
 20
226.5110156572
 30
0.0
 11
159.728868361
 21
226.5110156572
 31
0.0
  0
LINE
  5
2D7
330
1F
100
AcDbEntity
  8
0
  6
Continuous
 62
     7
370
    25
100
AcDbLine
 10
159.5288683599
 20
226.7110156576
 30
0.0
 11
159.728868361
 21
226.5110156572
 31
0.0
  0
LINE
  5
2D8
330
1F
100
AcDbEntity
  8
0
  6
Continuous
 62
     7
370
    25
100
AcDbLine
 10
159.5288683599
 20
228.6312197606
 30
0.0
 11
159.5288683599
 21
226.7110156576
 31
0.0
  0
ARC
  5
2D9
330
1F
100
AcDbEntity
  8
0
  6
Continuous
 62
     7
370
    25
100
AcDbCircle
 10
159.7288683603
 20
229.6110156572
 30
0.0
 40
0.9999999995711022
100
AcDbArc
 50
101.5369590629
 51
258.4630409405
  0
ARC
  5
2DA
330
1F
100
AcDbEntity
  8
0
  6
Continuous
 62
     7
370
    25
100
AcDbCircle
 10
166.4288683603
 20
228.8110156572
 30
0.0
 40
1.250000000405386
100
AcDbArc
 50
61.3521102225
 51
241.3521102225
  0
ARC
  5
2DB
330
1F
100
AcDbEntity
  8
0
  6
Continuous
 62
     7
370
    25
100
AcDbCircle
 10
166.4288683603
 20
228.8110156572
 30
0.0
 40
1.250000000405386
100
AcDbArc
 50
241.3521102225
 51
61.3521102225
  0
ARC
  5
2DC
330
1F
100
AcDbEntity
  8
0
  6
Continuous
 62
     7
370
    25
100
AcDbCircle
 10
161.4288683603
 20
228.8110156572
 30
0.0
 40
1.2500000004054
100
AcDbArc
 50
298.6478897775
 51
118.6478897775
  0
ARC
  5
2DD
330
1F
100
AcDbEntity
  8
0
  6
Continuous
 62
     7
370
    25
100
AcDbCircle
 10
161.4288683603
 20
228.8110156572
 30
0.0
 40
1.2500000004054
100
AcDbArc
 50
118.6478897775
 51
298.6478897775
  0
ARC
  5
2DE
330
1F
100
AcDbEntity
  8
0
  6
Continuous
 62
     7
370
    25
100
AcDbCircle
 10
159.2788683603
 20
229.6110156572
 30
0.0
 40
0.9999999999999942
100
AcDbArc
 50
261.3730734416
 51
278.6269265601
  0
SPLINE
  5
2DF
330
1F
100
AcDbEntity
  8
0
  6
Continuous
 62
     7
370
    25
100
AcDbSpline
210
0.0
220
0.0
230
1.0
 70
     8
 71
     3
 72
    10
 73
     6
 74
     0
 42
0.00000001
 43
0.00000001
 40
0.0
 40
0.0
 40
0.0
 40
0.0
 40
0.4356541054828728
 40
0.8713082109658215
 40
1.0
 40
1.0
 40
1.0
 40
1.0
 10
159.4288683602771
 20
230.5997016538472
 30
0.0
 10
159.3575280078176
 20
230.605444537191
 30
0.0
 10
159.2148473028986
 20
230.6169303038787
 30
0.0
 10
159.0486305997173
 20
230.593383145509
 30
0.0
 10
158.9634230109999
 20
230.5565659784596
 30
0.0
 10
158.943992521405
 20
230.5481702992479
 30
0.0
  0
LINE
  5
2E0
330
1F
100
AcDbEntity
  8
0
  6
Continuous
 62
     7
370
    25
100
AcDbLine
 10
158.2969360935
 20
229.7783059153
 30
0.0
 11
158.2788683603
 21
229.6110156572
 31
0.0
  0
ARC
  5
2E1
330
1F
100
AcDbEntity
  8
0
  6
Continuous
 62
     7
370
    25
100
AcDbCircle
 10
168.5788683603
 20
229.6110156572
 30
0.0
 40
1.0
100
AcDbArc
 50
0.0
 51
98.6269265578
  0
ARC
  5
2E2
330
1F
100
AcDbEntity
  8
0
  6
Continuous
 62
     7
370
    25
100
AcDbCircle
 10
168.5788683603
 20
229.6110156572
 30
0.0
 40
1.0
100
AcDbArc
 50
278.6269265584
 51
0.0
  0
LINE
  5
2E3
330
1F
100
AcDbEntity
  8
0
  6
Continuous
 62
     7
370
    25
100
AcDbLine
 10
168.7288683603
 20
228.6223296605
 30
0.0
 11
168.4288683603
 21
228.6223296605
 31
0.0
  0
LINE
  5
2E4
330
1F
100
AcDbEntity
  8
0
  6
Continuous
 62
     7
370
    25
100
AcDbLine
 10
168.328868361
 20
231.3110156572
 30
0.0
 11
168.4288683603
 21
231.2110156572
 31
0.0
  0
LINE
  5
2E5
330
1F
100
AcDbEntity
  8
0
  6
Continuous
 62
     7
370
    25
100
AcDbLine
 10
168.4288683603
 20
231.2110156572
 30
0.0
 11
168.4288683603
 21
230.5649548586
 31
0.0
  0
LINE
  5
2E6
330
1F
100
AcDbEntity
  8
0
  6
Continuous
 62
     7
370
    25
100
AcDbLine
 10
159.4288683603
 20
231.2110156576
 30
0.0
 11
159.4288683603
 21
230.5649548593
 31
0.0
  0
LINE
  5
2E7
330
1F
100
AcDbEntity
  8
0
  6
Continuous
 62
     7
370
    25
100
AcDbLine
 10
159.5288683603
 20
231.3110156572
 30
0.0
 11
168.328868361
 21
231.3110156572
 31
0.0
  0
LINE
  5
2E8
330
1F
100
AcDbEntity
  8
0
  6
Continuous
 62
     7
370
    25
100
AcDbLine
 10
159.5288683603
 20
231.3110156572
 30
0.0
 11
159.4288683603
 21
231.2110156576
 31
0.0
  0
LINE
  5
2E9
330
1F
100
AcDbEntity
  8
0
  6
Continuous
 62
     7
370
    25
100
AcDbLine
 10
168.4288683603
 20
228.6570764566
 30
0.0
 11
168.4288683603
 21
226.3110156572
 31
0.0
  0
LINE
  5
2EA
330
1F
100
AcDbEntity
  8
0
  6
Continuous
 62
     7
370
    25
100
AcDbLine
 10
168.4288683603
 20
226.3110156572
 30
0.0
 11
167.9288683603
 21
225.8110156572
 31
0.0
  0
LINE
  5
2EB
330
1F
100
AcDbEntity
  8
0
  6
Continuous
 62
     7
370
    25
100
AcDbLine
 10
167.9288683603
 20
225.8110156572
 30
0.0
 11
159.9288683603
 21
225.8110156572
 31
0.0
  0
LINE
  5
2EC
330
1F
100
AcDbEntity
  8
0
  6
Continuous
 62
     7
370
    25
100
AcDbLine
 10
159.4288683603
 20
226.3110156572
 30
0.0
 11
159.9288683603
 21
225.8110156572
 31
0.0
  0
LINE
  5
2ED
330
1F
100
AcDbEntity
  8
0
  6
Continuous
 62
     7
370
    25
100
AcDbLine
 10
159.4288683603
 20
228.6570764566
 30
0.0
 11
159.4288683603
 21
226.3110156572
 31
0.0
  0
LINE
  5
2EE
330
1F
100
AcDbEntity
  8
0
  6
Continuous
 62
     7
370
    25
100
AcDbLine
 10
168.7288729684
 20
228.2110187401
 30
0.0
 11
168.9288737239
 21
228.0110179677
 31
0.0
  0
LINE
  5
2EF
330
1F
100
AcDbEntity
  8
0
  6
Continuous
 62
     7
370
    25
100
AcDbLine
 10
168.728871412
 20
228.6038409835
 30
0.0
 11
168.7288729684
 21
228.2110187401
 31
0.0
  0
ARC
  5
2F0
330
1F
100
AcDbEntity
  8
0
  6
Continuous
 62
     7
370
    25
100
AcDbCircle
 10
168.5083666512
 20
229.6815143135
 30
0.0
 40
1.100000979882296
100
AcDbArc
 50
281.5637835373
 51
356.3253965131
  0
ARC
  5
2F1
330
1F
100
AcDbEntity
  8
0
  6
Continuous
 62
     7
370
    25
100
AcDbCircle
 10
168.50836665
 20
229.5405154736
 30
0.0
 40
1.100000082477625
100
AcDbArc
 50
3.6746500622
 51
78.4362324421
  0
LINE
  5
2F2
330
1F
100
AcDbEntity
  8
0
  6
Continuous
 62
     7
370
    25
100
AcDbLine
 10
168.728871412
 20
231.0110125532
 30
0.0
 11
168.7288709188
 21
230.6181879292
 31
0.0
  0
ARC
  5
2F3
330
1F
100
AcDbEntity
  8
0
  6
Continuous
 62
     7
370
    25
100
AcDbCircle
 10
168.1288653082
 20
231.0110126051
 30
0.0
 40
0.6000061038999718
100
AcDbArc
 50
359.999995044
 51
89.9999999704
  0
LINE
  5
2F4
330
1F
100
AcDbEntity
  8
0
  6
Continuous
 62
     7
370
    25
100
AcDbLine
 10
159.728871386
 20
231.611018709
 30
0.0
 11
168.1288653085
 21
231.611018709
 31
0.0
  0
ARC
  5
2F5
330
1F
100
AcDbEntity
  8
0
  6
Continuous
 62
     7
370
    25
100
AcDbCircle
 10
159.7288714092
 20
231.0110126083
 30
0.0
 40
0.6000061007000004
100
AcDbArc
 50
90.0000022164
 51
180.0000002769
  0
LINE
  5
2F6
330
1F
100
AcDbEntity
  8
0
  6
Continuous
 62
     7
370
    25
100
AcDbLine
 10
159.1288653085
 20
230.618188805
 30
0.0
 11
159.1288713882
 21
231.0110126054
 31
0.0
  0
ARC
  5
2F7
330
1F
100
AcDbEntity
  8
0
  6
Continuous
 62
     7
370
    25
100
AcDbCircle
 10
159.3493700693
 20
229.540515475
 30
0.0
 40
1.100000979882235
100
AcDbArc
 50
101.5637835373
 51
176.3253965131
  0
ARC
  5
2F8
330
1F
100
AcDbEntity
  8
0
  6
Continuous
 62
     7
370
    25
100
AcDbCircle
 10
159.3493700705
 20
229.6815143149
 30
0.0
 40
1.100000082487608
100
AcDbArc
 50
183.6746500622
 51
258.4362324421
  0
LINE
  5
2F9
330
1F
100
AcDbEntity
  8
0
  6
Continuous
 62
     7
370
    25
100
AcDbLine
 10
159.1288653085
 20
228.2110130555
 30
0.0
 11
159.1288658018
 21
228.6038418593
 31
0.0
  0
LINE
  5
2FA
330
1F
100
AcDbEntity
  8
0
  6
Continuous
 62
     7
370
    25
100
AcDbLine
 10
158.9288629966
 20
228.0110179677
 30
0.0
 11
159.1288653085
 21
228.2110130555
 31
0.0
  0
LINE
  5
2FB
330
1F
100
AcDbEntity
  8
0
  6
Continuous
 62
     7
370
    25
100
AcDbLine
 10
154.5288660614
 20
228.0110126054
 30
0.0
 11
158.9288629966
 21
228.0110179677
 31
0.0
  0
LINE
  5
2FC
330
1F
100
AcDbEntity
  8
0
  6
Continuous
 62
     7
370
    25
100
AcDbLine
 10
153.9288663115
 20
228.6110166612
 30
0.0
 11
154.5288660614
 21
228.0110126054
 31
0.0
  0
LINE
  5
2FD
330
1F
100
AcDbEntity
  8
0
  6
Continuous
 62
     7
370
    25
100
AcDbLine
 10
153.9288744701
 20
231.5751227241
 30
0.0
 11
153.9288663115
 21
228.6110166612
 31
0.0
  0
ARC
  5
2FE
330
1F
100
AcDbEntity
  8
0
  6
Continuous
 62
     7
370
    25
100
AcDbCircle
 10
153.0288744638
 20
232.0110126054
 30
0.0
 40
1.000000000006867
100
AcDbArc
 50
334.1580680681
 51
25.8421008444
  0
LINE
  5
2FF
330
1F
100
AcDbEntity
  8
0
  6
Continuous
 62
     7
370
    25
100
AcDbLine
 10
153.9288683603
 20
234.8110156572
 30
0.0
 11
153.9288683603
 21
232.4469028032
 31
0.0
  0
LINE
  5
300
330
1F
100
AcDbEntity
  8
0
  6
Continuous
 62
     7
370
    25
100
AcDbLine
 10
173.9288683603
 20
232.4469024866
 30
0.0
 11
173.9288683603
 21
234.8110156572
 31
0.0
  0
ARC
  5
301
330
1F
100
AcDbEntity
  8
0
  6
Continuous
 62
     7
370
    25
100
AcDbCircle
 10
174.828862254
 20
232.0110126051
 30
0.0
 40
0.9999946364289638
100
AcDbArc
 50
154.1579153961
 51
205.8421008937
  0
LINE
  5
302
330
1F
100
AcDbEntity
  8
0
  6
Continuous
 62
     7
370
    25
100
AcDbLine
 10
173.9288683603
 20
228.6110154251
 30
0.0
 11
173.9288683603
 21
231.5751224077
 31
0.0
  0
LINE
  5
303
330
1F
100
AcDbEntity
  8
0
  6
Continuous
 62
     7
370
    25
100
AcDbLine
 10
173.3288642791
 20
228.0110105818
 30
0.0
 11
173.9288683603
 21
228.6110154251
 31
0.0
  0
LINE
  5
304
330
1F
100
AcDbEntity
  8
0
  6
Continuous
 62
     7
370
    25
100
AcDbLine
 10
168.9288737239
 20
228.0110179677
 30
0.0
 11
173.3288642791
 21
228.0110105818
 31
0.0
  0
LINE
  5
305
330
1F
100
AcDbEntity
  8
0
  6
Continuous
 62
     7
370
    25
100
AcDbLine
 10
148.4288683603
 20
234.8110156572
 30
0.0
 11
179.4288683603
 21
234.8110156572
 31
0.0
  0
LINE
  5
306
330
1F
100
AcDbEntity
  8
0
  6
Continuous
 62
     7
370
    25
100
AcDbLine
 10
146.9288683609
 20
236.3110156566
 30
0.0
 11
148.4288683603
 21
234.8110156572
 31
0.0
  0
LINE
  5
307
330
1F
100
AcDbEntity
  8
0
  6
Continuous
 62
     7
370
    25
100
AcDbLine
 10
146.9288683609
 20
269.8110156578
 30
0.0
 11
146.9288683609
 21
236.3110156566
 31
0.0
  0
LINE
  5
308
330
1F
100
AcDbEntity
  8
0
  6
Continuous
 62
     7
370
    25
100
AcDbLine
 10
179.4288683609
 20
271.3110156565
 30
0.0
 11
148.4288683603
 21
271.3110156572
 31
0.0
  0
LINE
  5
309
330
1F
100
AcDbEntity
  8
0
  6
Continuous
 62
     7
370
    25
100
AcDbLine
 10
180.9288683603
 20
269.8110156572
 30
0.0
 11
179.4288683609
 21
271.3110156565
 31
0.0
  0
LINE
  5
30A
330
1F
100
AcDbEntity
  8
0
  6
Continuous
 62
     7
370
    25
100
AcDbLine
 10
180.9288683597
 20
236.3110156566
 30
0.0
 11
180.9288683603
 21
269.8110156572
 31
0.0
  0
LINE
  5
30B
330
1F
100
AcDbEntity
  8
0
  6
Continuous
 62
     7
370
    25
100
AcDbLine
 10
179.4288683603
 20
234.8110156572
 30
0.0
 11
180.9288683597
 21
236.3110156566
 31
0.0
  0
ARC
  5
30C
330
1F
100
AcDbEntity
  8
0
  6
Continuous
 62
     7
370
    25
100
AcDbCircle
 10
154.9288683603
 20
268.3110156572
 30
0.0
 40
2.499999999844006
100
AcDbArc
 50
118.6478897401
 51
298.6478897407
  0
ARC
  5
30D
330
1F
100
AcDbEntity
  8
0
  6
Continuous
 62
     7
370
    25
100
AcDbCircle
 10
154.9288683603
 20
268.3110156572
 30
0.0
 40
2.499999999844006
100
AcDbArc
 50
298.6478897407
 51
118.6478897401
  0
ARC
  5
30E
330
1F
100
AcDbEntity
  8
0
  6
Continuous
 62
     7
370
    25
100
AcDbCircle
 10
149.9288683603
 20
243.3110156572
 30
0.0
 40
2.499999999972212
100
AcDbArc
 50
118.6478897566
 51
298.6478897566
  0
ARC
  5
30F
330
1F
100
AcDbEntity
  8
0
  6
Continuous
 62
     7
370
    25
100
AcDbCircle
 10
149.9288683603
 20
243.3110156572
 30
0.0
 40
2.499999999972212
100
AcDbArc
 50
298.6478897566
 51
118.6478897566
  0
ARC
  5
310
330
1F
100
AcDbEntity
  8
0
  6
Continuous
 62
     7
370
    25
100
AcDbCircle
 10
172.9288683603
 20
268.3110156572
 30
0.0
 40
2.49999999999983
100
AcDbArc
 50
118.6478897565
 51
298.6478897563
  0
ARC
  5
311
330
1F
100
AcDbEntity
  8
0
  6
Continuous
 62
     7
370
    25
100
AcDbCircle
 10
172.9288683603
 20
268.3110156572
 30
0.0
 40
2.49999999999983
100
AcDbArc
 50
298.6478897563
 51
118.6478897565
  0
ARC
  5
312
330
1F
100
AcDbEntity
  8
0
  6
Continuous
 62
     7
370
    25
100
AcDbCircle
 10
177.9288683603
 20
243.3110156572
 30
0.0
 40
2.499999999972212
100
AcDbArc
 50
118.6478897566
 51
298.6478897566
  0
ARC
  5
313
330
1F
100
AcDbEntity
  8
0
  6
Continuous
 62
     7
370
    25
100
AcDbCircle
 10
177.9288683603
 20
243.3110156572
 30
0.0
 40
2.499999999972212
100
AcDbArc
 50
298.6478897566
 51
118.6478897566
  0
ARC
  5
314
330
1F
100
AcDbEntity
  8
0
  6
Continuous
 62
     7
370
    25
100
AcDbCircle
 10
177.9288683603
 20
238.8110156572
 30
0.0
 40
1.75
100
AcDbArc
 50
180.0
 51
0.0
  0
ARC
  5
315
330
1F
100
AcDbEntity
  8
0
  6
Continuous
 62
     7
370
    25
100
AcDbCircle
 10
177.9288683603
 20
238.8110156572
 30
0.0
 40
1.75
100
AcDbArc
 50
0.0
 51
180.0
  0
ARC
  5
316
330
1F
100
AcDbEntity
  8
0
  6
Continuous
 62
     7
370
    25
100
AcDbCircle
 10
149.9288683603
 20
238.8110156572
 30
0.0
 40
1.75
100
AcDbArc
 50
180.0
 51
0.0
  0
ARC
  5
317
330
1F
100
AcDbEntity
  8
0
  6
Continuous
 62
     7
370
    25
100
AcDbCircle
 10
149.9288683603
 20
238.8110156572
 30
0.0
 40
1.75
100
AcDbArc
 50
0.0
 51
180.0
  0
ARC
  5
318
330
1F
100
AcDbEntity
  8
0
  6
Continuous
 62
     7
370
    25
100
AcDbCircle
 10
149.9288683603
 20
252.8110156572
 30
0.0
 40
1.75
100
AcDbArc
 50
180.0
 51
0.0
  0
ARC
  5
319
330
1F
100
AcDbEntity
  8
0
  6
Continuous
 62
     7
370
    25
100
AcDbCircle
 10
149.9288683603
 20
252.8110156572
 30
0.0
 40
1.75
100
AcDbArc
 50
0.0
 51
180.0
  0
ARC
  5
31A
330
1F
100
AcDbEntity
  8
0
  6
Continuous
 62
     7
370
    25
100
AcDbCircle
 10
149.9288683603
 20
266.8110156572
 30
0.0
 40
1.75
100
AcDbArc
 50
180.0
 51
0.0
  0
ARC
  5
31B
330
1F
100
AcDbEntity
  8
0
  6
Continuous
 62
     7
370
    25
100
AcDbCircle
 10
149.9288683603
 20
266.8110156572
 30
0.0
 40
1.75
100
AcDbArc
 50
0.0
 51
180.0
  0
ARC
  5
31C
330
1F
100
AcDbEntity
  8
0
  6
Continuous
 62
     7
370
    25
100
AcDbCircle
 10
177.9288683603
 20
266.8110156572
 30
0.0
 40
1.75
100
AcDbArc
 50
180.0
 51
0.0
  0
ARC
  5
31D
330
1F
100
AcDbEntity
  8
0
  6
Continuous
 62
     7
370
    25
100
AcDbCircle
 10
177.9288683603
 20
266.8110156572
 30
0.0
 40
1.75
100
AcDbArc
 50
0.0
 51
180.0
  0
ARC
  5
31E
330
1F
100
AcDbEntity
  8
0
  6
Continuous
 62
     7
370
    25
100
AcDbCircle
 10
178.4288683603
 20
252.8110156572
 30
0.0
 40
1.750000000000028
100
AcDbArc
 50
270.0
 51
90.0
  0
LINE
  5
31F
330
1F
100
AcDbEntity
  8
0
  6
Continuous
 62
     7
370
    25
100
AcDbLine
 10
178.4288683603
 20
254.5610156572
 30
0.0
 11
177.4288683603
 21
254.5610156572
 31
0.0
  0
ARC
  5
320
330
1F
100
AcDbEntity
  8
0
  6
Continuous
 62
     7
370
    25
100
AcDbCircle
 10
177.4288683603
 20
252.8110156572
 30
0.0
 40
1.750000000000028
100
AcDbArc
 50
90.0
 51
270.0
  0
LINE
  5
321
330
1F
100
AcDbEntity
  8
0
  6
Continuous
 62
     7
370
    25
100
AcDbLine
 10
177.4288683603
 20
251.0610156572
 30
0.0
 11
178.4288683603
 21
251.0610156572
 31
0.0
  0
LINE
  5
322
330
1F
100
AcDbEntity
  8
0
  6
Continuous
 62
     7
370
    25
100
AcDbLine
 10
148.4288683603
 20
271.3110156572
 30
0.0
 11
146.9288683609
 21
269.8110156578
 31
0.0
  0
SPLINE
  5
323
330
1F
100
AcDbEntity
  8
0
  6
Continuous
 62
     7
370
    25
100
AcDbSpline
210
0.0
220
0.0
230
1.0
 70
     8
 71
     3
 72
    28
 73
    24
 74
     0
 42
0.00000001
 43
0.00000001
 40
0.0
 40
0.0
 40
0.0
 40
0.0
 40
0.0209984545423791
 40
0.0418196572288687
 40
0.0625535362635573
 40
0.0832911559125878
 40
0.1041235313882826
 40
0.125140446898947
 40
0.187559577305617
 40
0.2501057880367075
 40
0.3125698591974013
 40
0.3750711270279021
 40
0.4375071386853995
 40
0.5000326740881803
 40
0.5624762047889345
 40
0.6249942206423743
 40
0.6874133510490419
 40
0.7499595617802194
 40
0.8124236329413707
 40
0.8749249007717063
 40
0.9167166328111906
 40
0.9581653153220515
 40
0.9999999999999999
 40
0.9999999999999999
 40
0.9999999999999999
 40
0.9999999999999999
 10
155.8877194374871
 20
266.555850533403
 30
0.0
 10
155.9258826711564
 20
266.5776180032472
 30
0.0
 10
156.0018869955495
 20
266.6209691996786
 30
0.0
 10
156.1099300545154
 20
266.6950035671851
 30
0.0
 10
156.2127198115878
 20
266.7751851075681
 30
0.0
 10
156.3098889559432
 20
266.8621650446479
 30
0.0
 10
156.4015305408901
 20
266.9557827486021
 30
0.0
 10
156.5436819115595
 20
267.1212821139792
 30
0.0
 10
156.7128135983113
 20
267.3781765485073
 30
0.0
 10
156.8592848629098
 20
267.7444181570675
 30
0.0
 10
156.9339963123036
 20
268.1320050434892
 30
0.0
 10
156.929586292357
 20
268.5264629542145
 30
0.0
 10
156.8503641771522
 20
268.9130517157325
 30
0.0
 10
156.6951209824777
 20
269.2757290243465
 30
0.0
 10
156.47376734703
 20
269.602480011397
 30
0.0
 10
156.1914204839997
 20
269.8779411249411
 30
0.0
 10
155.8617689232142
 20
270.094907366485
 30
0.0
 10
155.4954339649663
 20
270.2414518217481
 30
0.0
 10
155.1079450504359
 20
270.31611848738
 30
0.0
 10
154.7566752571709
 20
270.312288577113
 30
0.0
 10
154.4557697849064
 20
270.2600759292651
 30
0.0
 10
154.2044451639883
 20
270.1833186407172
 30
0.0
 10
154.04840098815
 20
270.1053471950299
 30
0.0
 10
153.9700172830672
 20
270.066180780963
 30
0.0
  0
ARC
  5
324
330
1F
100
AcDbEntity
  8
0
  6
Continuous
 62
     7
370
    25
100
AcDbCircle
 10
154.9288683603
 20
268.3110156572
 30
0.0
 40
2.000000000000036
100
AcDbArc
 50
118.6478897566
 51
298.6478897355
  0
LINE
  5
325
330
1F
100
AcDbEntity
  8
0
  6
Continuous
 62
     7
370
    25
100
AcDbLine
 10
155.3288683606
 20
267.6610156568
 30
0.0
 11
155.3288683606
 21
267.0360156568
 31
0.0
  0
ARC
  5
326
330
1F
100
AcDbEntity
  8
0
  6
Continuous
 62
     7
370
    25
100
AcDbCircle
 10
155.5788683583
 20
267.6610156592
 30
0.0
 40
0.2499999976100185
100
AcDbArc
 50
89.9999994523
 51
180.0000005477
  0
LINE
  5
327
330
1F
100
AcDbEntity
  8
0
  6
Continuous
 62
     7
370
    25
100
AcDbLine
 10
156.2038683606
 20
267.9110156568
 30
0.0
 11
155.5788683606
 21
267.9110156568
 31
0.0
  0
LINE
  5
328
330
1F
100
AcDbEntity
  8
0
  6
Continuous
 62
     7
370
    25
100
AcDbLine
 10
156.2038683606
 20
268.7110156576
 30
0.0
 11
156.2038683606
 21
267.9110156568
 31
0.0
  0
LINE
  5
329
330
1F
100
AcDbEntity
  8
0
  6
Continuous
 62
     7
370
    25
100
AcDbLine
 10
155.5788683606
 20
268.7110156576
 30
0.0
 11
156.2038683606
 21
268.7110156576
 31
0.0
  0
ARC
  5
32A
330
1F
100
AcDbEntity
  8
0
  6
Continuous
 62
     7
370
    25
100
AcDbCircle
 10
155.5788683583
 20
268.9610156552
 30
0.0
 40
0.2499999976100185
100
AcDbArc
 50
179.9999994523
 51
270.0000005478
  0
LINE
  5
32B
330
1F
100
AcDbEntity
  8
0
  6
Continuous
 62
     7
370
    25
100
AcDbLine
 10
155.3288683606
 20
269.5860156576
 30
0.0
 11
155.3288683606
 21
268.9610156576
 31
0.0
  0
LINE
  5
32C
330
1F
100
AcDbEntity
  8
0
  6
Continuous
 62
     7
370
    25
100
AcDbLine
 10
154.5288683599
 20
269.5860156576
 30
0.0
 11
155.3288683606
 21
269.5860156576
 31
0.0
  0
LINE
  5
32D
330
1F
100
AcDbEntity
  8
0
  6
Continuous
 62
     7
370
    25
100
AcDbLine
 10
154.5288683599
 20
268.9610156576
 30
0.0
 11
154.5288683599
 21
269.5860156576
 31
0.0
  0
ARC
  5
32E
330
1F
100
AcDbEntity
  8
0
  6
Continuous
 62
     7
370
    25
100
AcDbCircle
 10
154.2788683623
 20
268.9610156552
 30
0.0
 40
0.2499999976100185
100
AcDbArc
 50
269.9999994523
 51
0.0000005477
  0
LINE
  5
32F
330
1F
100
AcDbEntity
  8
0
  6
Continuous
 62
     7
370
    25
100
AcDbLine
 10
153.6538683599
 20
268.7110156576
 30
0.0
 11
154.2788683599
 21
268.7110156576
 31
0.0
  0
LINE
  5
330
330
1F
100
AcDbEntity
  8
0
  6
Continuous
 62
     7
370
    25
100
AcDbLine
 10
153.6538683599
 20
267.9110156568
 30
0.0
 11
153.6538683599
 21
268.7110156576
 31
0.0
  0
LINE
  5
331
330
1F
100
AcDbEntity
  8
0
  6
Continuous
 62
     7
370
    25
100
AcDbLine
 10
154.2788683599
 20
267.9110156568
 30
0.0
 11
153.6538683599
 21
267.9110156568
 31
0.0
  0
ARC
  5
332
330
1F
100
AcDbEntity
  8
0
  6
Continuous
 62
     7
370
    25
100
AcDbCircle
 10
154.2788683623
 20
267.6610156591
 30
0.0
 40
0.2499999976700451
100
AcDbArc
 50
0.0011379721
 51
90.0000005455
  0
LINE
  5
333
330
1F
100
AcDbEntity
  8
0
  6
Continuous
 62
     7
370
    25
100
AcDbLine
 10
154.5288683599
 20
267.0360156568
 30
0.0
 11
154.5288683599
 21
267.6610206245
 31
0.0
  0
LINE
  5
334
330
1F
100
AcDbEntity
  8
0
  6
Continuous
 62
     7
370
    25
100
AcDbLine
 10
155.3288683606
 20
267.0360156568
 30
0.0
 11
154.5288683599
 21
267.0360156568
 31
0.0
  0
ARC
  5
335
330
1F
100
AcDbEntity
  8
0
  6
Continuous
 62
     7
370
    25
100
AcDbCircle
 10
149.9288683603
 20
243.3110156572
 30
0.0
 40
2.000000000000004
100
AcDbArc
 50
298.6478897561
 51
118.6478897561
  0
SPLINE
  5
336
330
1F
100
AcDbEntity
  8
0
  6
Continuous
 62
     7
370
    25
100
AcDbSpline
210
0.0
220
0.0
230
1.0
 70
     8
 71
     3
 72
    28
 73
    24
 74
     0
 42
0.00000001
 43
0.00000001
 40
0.0
 40
0.0
 40
0.0
 40
0.0
 40
0.0209984545421774
 40
0.0418196572286323
 40
0.0625535362634617
 40
0.0832911559128252
 40
0.1041235313890531
 40
0.1251404469004565
 40
0.1875595773059065
 40
0.2501057880374057
 40
0.3125698591977532
 40
0.3750711270270906
 40
0.4375071386845748
 40
0.5000326740860714
 40
0.5624762047876293
 40
0.6249942206414681
 40
0.6874133510484159
 40
0.7499595617797569
 40
0.8124236329390934
 40
0.874924900770383
 40
0.9167166328088969
 40
0.9581653153201942
 40
1.0
 40
1.0
 40
1.0
 40
1.0
 10
148.9700172830772
 20
245.066180780983
 30
0.0
 10
148.9318540494077
 20
245.0444133111397
 30
0.0
 10
148.8558497250139
 20
245.00106211471
 30
0.0
 10
148.7478066660468
 20
244.9270277472049
 30
0.0
 10
148.6450169089727
 20
244.8468462068221
 30
0.0
 10
148.547847764615
 20
244.7598662697412
 30
0.0
 10
148.4562061796652
 20
244.6662485657846
 30
0.0
 10
148.3140548089947
 20
244.5007492004075
 30
0.0
 10
148.1449231222429
 20
244.2438547658786
 30
0.0
 10
147.9984518576462
 20
243.8776131573193
 30
0.0
 10
147.923740408249
 20
243.4900262708998
 30
0.0
 10
147.9281504281904
 20
243.0955683601768
 30
0.0
 10
148.0073725433879
 20
242.7089795986614
 30
0.0
 10
148.1626157380584
 20
242.3463022900456
 30
0.0
 10
148.3839693735044
 20
242.0195513029928
 30
0.0
 10
148.6663162365347
 20
241.7440901894427
 30
0.0
 10
148.99596779732
 20
241.5271239478938
 30
0.0
 10
149.3623027555632
 20
241.380579492624
 30
0.0
 10
149.7497916700922
 20
241.3059128269875
 30
0.0
 10
150.1010614633542
 20
241.3097427372466
 30
0.0
 10
150.4019669356219
 20
241.3619553850859
 30
0.0
 10
150.6532915565446
 20
241.4387126736307
 30
0.0
 10
150.8093357323897
 20
241.5166841193162
 30
0.0
 10
150.8877194374771
 20
241.555850533383
 30
0.0
  0
LINE
  5
337
330
1F
100
AcDbEntity
  8
0
  6
Continuous
 62
     7
370
    25
100
AcDbLine
 10
150.3288683607
 20
242.6610156568
 30
0.0
 11
150.3288683607
 21
242.0360156568
 31
0.0
  0
ARC
  5
338
330
1F
100
AcDbEntity
  8
0
  6
Continuous
 62
     7
370
    25
100
AcDbCircle
 10
150.5788683583
 20
242.6610156592
 30
0.0
 40
0.249999997600014
100
AcDbArc
 50
89.99999945
 51
180.00000055
  0
LINE
  5
339
330
1F
100
AcDbEntity
  8
0
  6
Continuous
 62
     7
370
    25
100
AcDbLine
 10
151.2038683607
 20
242.9110156568
 30
0.0
 11
150.5788683607
 21
242.9110156568
 31
0.0
  0
LINE
  5
33A
330
1F
100
AcDbEntity
  8
0
  6
Continuous
 62
     7
370
    25
100
AcDbLine
 10
151.2038683607
 20
243.7110156576
 30
0.0
 11
151.2038683607
 21
242.9110156568
 31
0.0
  0
LINE
  5
33B
330
1F
100
AcDbEntity
  8
0
  6
Continuous
 62
     7
370
    25
100
AcDbLine
 10
150.5788683607
 20
243.7110156576
 30
0.0
 11
151.2038683607
 21
243.7110156576
 31
0.0
  0
ARC
  5
33C
330
1F
100
AcDbEntity
  8
0
  6
Continuous
 62
     7
370
    25
100
AcDbCircle
 10
150.5788683583
 20
243.9610156552
 30
0.0
 40
0.249999997600014
100
AcDbArc
 50
179.99999945
 51
270.00000055
  0
LINE
  5
33D
330
1F
100
AcDbEntity
  8
0
  6
Continuous
 62
     7
370
    25
100
AcDbLine
 10
150.3288683607
 20
244.5860156576
 30
0.0
 11
150.3288683607
 21
243.9610156576
 31
0.0
  0
LINE
  5
33E
330
1F
100
AcDbEntity
  8
0
  6
Continuous
 62
     7
370
    25
100
AcDbLine
 10
149.5288683599
 20
244.5860156576
 30
0.0
 11
150.3288683607
 21
244.5860156576
 31
0.0
  0
LINE
  5
33F
330
1F
100
AcDbEntity
  8
0
  6
Continuous
 62
     7
370
    25
100
AcDbLine
 10
149.5288683599
 20
243.9610156576
 30
0.0
 11
149.5288683599
 21
244.5860156576
 31
0.0
  0
ARC
  5
340
330
1F
100
AcDbEntity
  8
0
  6
Continuous
 62
     7
370
    25
100
AcDbCircle
 10
149.2788683623
 20
243.9610156552
 30
0.0
 40
0.2499999975999856
100
AcDbArc
 50
269.99999945
 51
0.00000055
  0
LINE
  5
341
330
1F
100
AcDbEntity
  8
0
  6
Continuous
 62
     7
370
    25
100
AcDbLine
 10
148.6538683599
 20
243.7110156576
 30
0.0
 11
149.2788683599
 21
243.7110156576
 31
0.0
  0
LINE
  5
342
330
1F
100
AcDbEntity
  8
0
  6
Continuous
 62
     7
370
    25
100
AcDbLine
 10
148.6538683599
 20
242.9110156568
 30
0.0
 11
148.6538683599
 21
243.7110156576
 31
0.0
  0
LINE
  5
343
330
1F
100
AcDbEntity
  8
0
  6
Continuous
 62
     7
370
    25
100
AcDbLine
 10
149.2788683599
 20
242.9110156568
 30
0.0
 11
148.6538683599
 21
242.9110156568
 31
0.0
  0
ARC
  5
344
330
1F
100
AcDbEntity
  8
0
  6
Continuous
 62
     7
370
    25
100
AcDbCircle
 10
149.2788683623
 20
242.6610156592
 30
0.0
 40
0.2499999976028035
100
AcDbArc
 50
359.9997279596
 51
90.00000055
  0
LINE
  5
345
330
1F
100
AcDbEntity
  8
0
  6
Continuous
 62
     7
370
    25
100
AcDbLine
 10
149.5288683599
 20
242.0360156568
 30
0.0
 11
149.5288683599
 21
242.6610144722
 31
0.0
  0
LINE
  5
346
330
1F
100
AcDbEntity
  8
0
  6
Continuous
 62
     7
370
    25
100
AcDbLine
 10
150.3288683607
 20
242.0360156568
 30
0.0
 11
149.5288683599
 21
242.0360156568
 31
0.0
  0
ARC
  5
347
330
1F
100
AcDbEntity
  8
0
  6
Continuous
 62
     7
370
    25
100
AcDbCircle
 10
177.9288683603
 20
243.3110156572
 30
0.0
 40
2.000000000000017
100
AcDbArc
 50
298.6478897561
 51
118.6478897561
  0
LINE
  5
348
330
1F
100
AcDbEntity
  8
0
  6
Continuous
 62
     7
370
    25
100
AcDbLine
 10
177.5288683599
 20
242.0360156568
 30
0.0
 11
178.3288683607
 21
242.0360156568
 31
0.0
  0
LINE
  5
349
330
1F
100
AcDbEntity
  8
0
  6
Continuous
 62
     7
370
    25
100
AcDbLine
 10
178.3288683607
 20
242.0360156568
 30
0.0
 11
178.3288683607
 21
242.6610144722
 31
0.0
  0
ARC
  5
34A
330
1F
100
AcDbEntity
  8
0
  6
Continuous
 62
     7
370
    25
100
AcDbCircle
 10
178.5788683583
 20
242.6610156592
 30
0.0
 40
0.249999997602832
100
AcDbArc
 50
89.99999945
 51
180.0002720404
  0
LINE
  5
34B
330
1F
100
AcDbEntity
  8
0
  6
Continuous
 62
     7
370
    25
100
AcDbLine
 10
178.5788683607
 20
242.9110156568
 30
0.0
 11
179.2038683607
 21
242.9110156568
 31
0.0
  0
LINE
  5
34C
330
1F
100
AcDbEntity
  8
0
  6
Continuous
 62
     7
370
    25
100
AcDbLine
 10
179.2038683607
 20
242.9110156568
 30
0.0
 11
179.2038683607
 21
243.7110156576
 31
0.0
  0
LINE
  5
34D
330
1F
100
AcDbEntity
  8
0
  6
Continuous
 62
     7
370
    25
100
AcDbLine
 10
179.2038683607
 20
243.7110156576
 30
0.0
 11
178.5788683607
 21
243.7110156576
 31
0.0
  0
ARC
  5
34E
330
1F
100
AcDbEntity
  8
0
  6
Continuous
 62
     7
370
    25
100
AcDbCircle
 10
178.5788683583
 20
243.9610156552
 30
0.0
 40
0.249999997600014
100
AcDbArc
 50
179.99999945
 51
270.00000055
  0
LINE
  5
34F
330
1F
100
AcDbEntity
  8
0
  6
Continuous
 62
     7
370
    25
100
AcDbLine
 10
178.3288683607
 20
243.9610156576
 30
0.0
 11
178.3288683607
 21
244.5860156576
 31
0.0
  0
LINE
  5
350
330
1F
100
AcDbEntity
  8
0
  6
Continuous
 62
     7
370
    25
100
AcDbLine
 10
178.3288683607
 20
244.5860156576
 30
0.0
 11
177.5288683599
 21
244.5860156576
 31
0.0
  0
LINE
  5
351
330
1F
100
AcDbEntity
  8
0
  6
Continuous
 62
     7
370
    25
100
AcDbLine
 10
177.5288683599
 20
244.5860156576
 30
0.0
 11
177.5288683599
 21
243.9610156576
 31
0.0
  0
ARC
  5
352
330
1F
100
AcDbEntity
  8
0
  6
Continuous
 62
     7
370
    25
100
AcDbCircle
 10
177.2788683623
 20
243.9610156552
 30
0.0
 40
0.2499999975999856
100
AcDbArc
 50
269.99999945
 51
0.00000055
  0
LINE
  5
353
330
1F
100
AcDbEntity
  8
0
  6
Continuous
 62
     7
370
    25
100
AcDbLine
 10
177.2788683599
 20
243.7110156576
 30
0.0
 11
176.6538683599
 21
243.7110156576
 31
0.0
  0
LINE
  5
354
330
1F
100
AcDbEntity
  8
0
  6
Continuous
 62
     7
370
    25
100
AcDbLine
 10
176.6538683599
 20
243.7110156576
 30
0.0
 11
176.6538683599
 21
242.9110156568
 31
0.0
  0
LINE
  5
355
330
1F
100
AcDbEntity
  8
0
  6
Continuous
 62
     7
370
    25
100
AcDbLine
 10
176.6538683599
 20
242.9110156568
 30
0.0
 11
177.2788683599
 21
242.9110156568
 31
0.0
  0
ARC
  5
356
330
1F
100
AcDbEntity
  8
0
  6
Continuous
 62
     7
370
    25
100
AcDbCircle
 10
177.2788683623
 20
242.6610156592
 30
0.0
 40
0.249999997600014
100
AcDbArc
 50
359.99999945
 51
90.00000055
  0
LINE
  5
357
330
1F
100
AcDbEntity
  8
0
  6
Continuous
 62
     7
370
    25
100
AcDbLine
 10
177.5288683599
 20
242.6610156568
 30
0.0
 11
177.5288683599
 21
242.0360156568
 31
0.0
  0
SPLINE
  5
358
330
1F
100
AcDbEntity
  8
0
  6
Continuous
 62
     7
370
    25
100
AcDbSpline
210
0.0
220
0.0
230
1.0
 70
     8
 71
     3
 72
    28
 73
    24
 74
     0
 42
0.00000001
 43
0.00000001
 40
0.0
 40
0.0
 40
0.0
 40
0.0
 40
0.0209984545420546
 40
0.0418196572284347
 40
0.0625535362632406
 40
0.0832911559126289
 40
0.1041235313889273
 40
0.1251404469004471
 40
0.1875595773055506
 40
0.2501057880373975
 40
0.3125698591976159
 40
0.3750711270270884
 40
0.4375071386839557
 40
0.5000326740860455
 40
0.5624762047867451
 40
0.6249942206414562
 40
0.6874133510481126
 40
0.7499595617797575
 40
0.8124236329389778
 40
0.874924900770377
 40
0.9167166328088304
 40
0.9581653153201283
 40
0.9999999999999999
 40
0.9999999999999999
 40
0.9999999999999999
 40
0.9999999999999999
 10
176.9700172830771
 20
245.066180780983
 30
0.0
 10
176.9318540494079
 20
245.0444133111399
 30
0.0
 10
176.8558497250146
 20
245.0010621147104
 30
0.0
 10
176.7478066660478
 20
244.9270277472054
 30
0.0
 10
176.6450169089738
 20
244.8468462068227
 30
0.0
 10
176.547847764616
 20
244.7598662697417
 30
0.0
 10
176.4562061796658
 20
244.6662485657849
 30
0.0
 10
176.3140548089951
 20
244.5007492004085
 30
0.0
 10
176.1449231222431
 20
244.2438547658793
 30
0.0
 10
175.9984518576466
 20
243.8776131573203
 30
0.0
 10
175.9237404082488
 20
243.4900262709001
 30
0.0
 10
175.9281504281901
 20
243.0955683601782
 30
0.0
 10
176.0073725433887
 20
242.7089795986631
 30
0.0
 10
176.1626157380568
 20
242.3463022900483
 30
0.0
 10
176.3839693735027
 20
242.0195513029938
 30
0.0
 10
176.6663162365329
 20
241.7440901894444
 30
0.0
 10
176.9959677973192
 20
241.5271239478937
 30
0.0
 10
177.3623027555625
 20
241.3805794926243
 30
0.0
 10
177.749791670092
 20
241.3059128269876
 30
0.0
 10
178.1010614633538
 20
241.3097427372466
 30
0.0
 10
178.4019669356217
 20
241.3619553850857
 30
0.0
 10
178.6532915565444
 20
241.4387126736306
 30
0.0
 10
178.8093357323896
 20
241.5166841193162
 30
0.0
 10
178.8877194374772
 20
241.555850533383
 30
0.0
  0
ARC
  5
359
330
1F
100
AcDbEntity
  8
0
  6
Continuous
 62
     7
370
    25
100
AcDbCircle
 10
172.9288683603
 20
268.3110156572
 30
0.0
 40
2.000000000000023
100
AcDbArc
 50
118.6478897566
 51
298.6478897355
  0
LINE
  5
35A
330
1F
100
AcDbEntity
  8
0
  6
Continuous
 62
     7
370
    25
100
AcDbLine
 10
172.5288683599
 20
267.0360156568
 30
0.0
 11
173.3288683606
 21
267.0360156568
 31
0.0
  0
LINE
  5
35B
330
1F
100
AcDbEntity
  8
0
  6
Continuous
 62
     7
370
    25
100
AcDbLine
 10
173.3288683606
 20
267.0360156568
 30
0.0
 11
173.3288683606
 21
267.6610206245
 31
0.0
  0
ARC
  5
35C
330
1F
100
AcDbEntity
  8
0
  6
Continuous
 62
     7
370
    25
100
AcDbCircle
 10
173.5788683583
 20
267.6610156591
 30
0.0
 40
0.2499999976700451
100
AcDbArc
 50
89.9999994545
 51
179.9988620279
  0
LINE
  5
35D
330
1F
100
AcDbEntity
  8
0
  6
Continuous
 62
     7
370
    25
100
AcDbLine
 10
173.5788683606
 20
267.9110156568
 30
0.0
 11
174.2038683607
 21
267.9110156568
 31
0.0
  0
LINE
  5
35E
330
1F
100
AcDbEntity
  8
0
  6
Continuous
 62
     7
370
    25
100
AcDbLine
 10
174.2038683607
 20
267.9110156568
 30
0.0
 11
174.2038683607
 21
268.7110156576
 31
0.0
  0
LINE
  5
35F
330
1F
100
AcDbEntity
  8
0
  6
Continuous
 62
     7
370
    25
100
AcDbLine
 10
174.2038683607
 20
268.7110156576
 30
0.0
 11
173.5788683606
 21
268.7110156576
 31
0.0
  0
ARC
  5
360
330
1F
100
AcDbEntity
  8
0
  6
Continuous
 62
     7
370
    25
100
AcDbCircle
 10
173.5788683583
 20
268.9610156552
 30
0.0
 40
0.2499999976100185
100
AcDbArc
 50
179.9999994523
 51
270.0000005477
  0
LINE
  5
361
330
1F
100
AcDbEntity
  8
0
  6
Continuous
 62
     7
370
    25
100
AcDbLine
 10
173.3288683606
 20
268.9610156576
 30
0.0
 11
173.3288683606
 21
269.5860156576
 31
0.0
  0
LINE
  5
362
330
1F
100
AcDbEntity
  8
0
  6
Continuous
 62
     7
370
    25
100
AcDbLine
 10
173.3288683606
 20
269.5860156576
 30
0.0
 11
172.5288683599
 21
269.5860156576
 31
0.0
  0
LINE
  5
363
330
1F
100
AcDbEntity
  8
0
  6
Continuous
 62
     7
370
    25
100
AcDbLine
 10
172.5288683599
 20
269.5860156576
 30
0.0
 11
172.5288683599
 21
268.9610156576
 31
0.0
  0
ARC
  5
364
330
1F
100
AcDbEntity
  8
0
  6
Continuous
 62
     7
370
    25
100
AcDbCircle
 10
172.2788683623
 20
268.9610156552
 30
0.0
 40
0.2499999976100185
100
AcDbArc
 50
269.9999994523
 51
0.0000005477
  0
LINE
  5
365
330
1F
100
AcDbEntity
  8
0
  6
Continuous
 62
     7
370
    25
100
AcDbLine
 10
172.2788683599
 20
268.7110156576
 30
0.0
 11
171.6538683599
 21
268.7110156576
 31
0.0
  0
LINE
  5
366
330
1F
100
AcDbEntity
  8
0
  6
Continuous
 62
     7
370
    25
100
AcDbLine
 10
171.6538683599
 20
268.7110156576
 30
0.0
 11
171.6538683599
 21
267.9110156568
 31
0.0
  0
LINE
  5
367
330
1F
100
AcDbEntity
  8
0
  6
Continuous
 62
     7
370
    25
100
AcDbLine
 10
171.6538683599
 20
267.9110156568
 30
0.0
 11
172.2788683599
 21
267.9110156568
 31
0.0
  0
ARC
  5
368
330
1F
100
AcDbEntity
  8
0
  6
Continuous
 62
     7
370
    25
100
AcDbCircle
 10
172.2788683623
 20
267.6610156592
 30
0.0
 40
0.2499999976100185
100
AcDbArc
 50
359.9999994523
 51
90.0000005477
  0
LINE
  5
369
330
1F
100
AcDbEntity
  8
0
  6
Continuous
 62
     7
370
    25
100
AcDbLine
 10
172.5288683599
 20
267.6610156568
 30
0.0
 11
172.5288683599
 21
267.0360156568
 31
0.0
  0
SPLINE
  5
36A
330
1F
100
AcDbEntity
  8
0
  6
Continuous
 62
     7
370
    25
100
AcDbSpline
210
0.0
220
0.0
230
1.0
 70
     8
 71
     3
 72
    28
 73
    24
 74
     0
 42
0.00000001
 43
0.00000001
 40
0.0
 40
0.0
 40
0.0
 40
0.0
 40
0.0209984545422165
 40
0.041819657228621
 40
0.0625535362633097
 40
0.0832911559124389
 40
0.1041235313883362
 40
0.1251404468993149
 40
0.1875595773049046
 40
0.2501057880364284
 40
0.3125698591970703
 40
0.375071127027398
 40
0.4375071386847469
 40
0.5000326740869258
 40
0.5624762047871046
 40
0.6249942206414464
 40
0.6874133510482909
 40
0.7499595617801799
 40
0.8124236329413319
 40
0.8749249007719384
 40
0.9167166328113867
 40
0.9581653153221712
 40
1.0
 40
1.0
 40
1.0
 40
1.0
 10
173.8877194374872
 20
266.555850533403
 30
0.0
 10
173.9258826711565
 20
266.5776180032465
 30
0.0
 10
174.0018869955499
 20
266.6209691996767
 30
0.0
 10
174.1099300545164
 20
266.6950035671822
 30
0.0
 10
174.2127198115894
 20
266.7751851075648
 30
0.0
 10
174.3098889559456
 20
266.8621650446451
 30
0.0
 10
174.4015305408936
 20
266.9557827486004
 30
0.0
 10
174.5436819115624
 20
267.1212821139772
 30
0.0
 10
174.7128135983124
 20
267.3781765485064
 30
0.0
 10
174.8592848629086
 20
267.7444181570667
 30
0.0
 10
174.9339963123047
 20
268.1320050434891
 30
0.0
 10
174.9295862923637
 20
268.5264629542144
 30
0.0
 10
174.8503641771657
 20
268.9130517157326
 30
0.0
 10
174.6951209824959
 20
269.2757290243468
 30
0.0
 10
174.4737673470473
 20
269.6024800113975
 30
0.0
 10
174.1914204840128
 20
269.8779411249402
 30
0.0
 10
173.8617689232219
 20
270.0949073664841
 30
0.0
 10
173.4954339649714
 20
270.2414518217477
 30
0.0
 10
173.1079450504383
 20
270.3161184873805
 30
0.0
 10
172.7566752571719
 20
270.312288577113
 30
0.0
 10
172.4557697849065
 20
270.260075929265
 30
0.0
 10
172.2044451639883
 20
270.1833186407171
 30
0.0
 10
172.0484009881499
 20
270.1053471950299
 30
0.0
 10
171.9700172830672
 20
270.066180780963
 30
0.0
  0
LINE
  5
36B
330
1F
100
AcDbEntity
  8
0
  6
Continuous
 62
     7
370
    25
100
AcDbLine
 10
146.9388683603
 20
270.5068735218
 30
0.0
 11
146.9388683601
 21
269.821015657
 31
0.0
  0
LINE
  5
36C
330
1F
100
AcDbEntity
  8
0
  6
Continuous
 62
     7
370
    25
100
AcDbLine
 10
146.9388683603
 20
270.5068735218
 30
0.0
 11
147.7330104964
 21
271.3010156574
 31
0.0
  0
LINE
  5
36D
330
1F
100
AcDbEntity
  8
0
  6
Continuous
 62
     7
370
    25
100
AcDbLine
 10
148.4188683606
 20
271.3010156575
 30
0.0
 11
147.7330104964
 21
271.3010156574
 31
0.0
  0
LINE
  5
36E
330
1F
100
AcDbEntity
  8
0
  6
Continuous
 62
     7
370
    25
100
AcDbLine
 10
147.7330104964
 20
271.3010156574
 30
0.0
 11
147.7288683603
 21
271.3110156567
 31
0.0
  0
LINE
  5
36F
330
1F
100
AcDbEntity
  8
0
  6
Continuous
 62
     7
370
    25
100
AcDbLine
 10
146.9288683606
 20
270.5110156572
 30
0.0
 11
146.9388683603
 21
270.5068735218
 31
0.0
  0
LINE
  5
370
330
1F
100
AcDbEntity
  8
0
  6
Continuous
 62
     7
370
    25
100
AcDbLine
 10
146.9288683606
 20
270.5110156572
 30
0.0
 11
147.7288683603
 21
271.3110156567
 31
0.0
  0
LINE
  5
371
330
1F
100
AcDbEntity
  8
0
  6
Continuous
 62
     7
370
    25
100
AcDbLine
 10
146.9288683606
 20
270.5110156572
 30
0.0
 11
146.9288683606
 21
269.8110156575
 31
0.0
  0
LINE
  5
372
330
1F
100
AcDbEntity
  8
0
  6
Continuous
 62
     7
370
    25
100
AcDbLine
 10
180.1288683603
 20
271.3110156567
 30
0.0
 11
179.4288683607
 21
271.3110156567
 31
0.0
  0
LINE
  5
373
330
1F
100
AcDbEntity
  8
0
  6
Continuous
 62
     7
370
    25
100
AcDbLine
 10
148.4288683598
 20
271.3110156567
 30
0.0
 11
147.7288683603
 21
271.3110156567
 31
0.0
  0
LINE
  5
374
330
1F
100
AcDbEntity
  8
0
  6
Continuous
 62
     7
370
    25
100
AcDbLine
 10
180.1288683603
 20
271.3110156567
 30
0.0
 11
180.1247262242
 21
271.3010156574
 31
0.0
  0
LINE
  5
375
330
1F
100
AcDbEntity
  8
0
  6
Continuous
 62
     7
370
    25
100
AcDbLine
 10
180.1247262242
 20
271.3010156574
 30
0.0
 11
179.4388683606
 21
271.3010156569
 31
0.0
  0
ARC
  5
376
330
1F
100
AcDbEntity
  8
0
  6
Continuous
 62
     7
370
    25
100
AcDbCircle
 10
149.9288683603
 20
266.8110156572
 30
0.0
 40
1.500000000563858
100
AcDbArc
 50
118.6478897271
 51
298.6478897271
  0
ARC
  5
377
330
1F
100
AcDbEntity
  8
0
  6
Continuous
 62
     7
370
    25
100
AcDbCircle
 10
149.9288683603
 20
266.8110156572
 30
0.0
 40
1.500000000563858
100
AcDbArc
 50
298.6478897271
 51
118.6478897271
  0
ARC
  5
378
330
1F
100
AcDbEntity
  8
0
  6
Continuous
 62
     7
370
    25
100
AcDbCircle
 10
149.9288683603
 20
266.8110156572
 30
0.0
 40
1.229499999998495
100
AcDbArc
 50
118.6478897558
 51
298.6478897561
  0
ARC
  5
379
330
1F
100
AcDbEntity
  8
0
  6
Continuous
 62
     7
370
    25
100
AcDbCircle
 10
149.9288683603
 20
266.8110156572
 30
0.0
 40
1.229499999998495
100
AcDbArc
 50
298.6478897561
 51
118.6478897558
  0
ARC
  5
37A
330
1F
100
AcDbEntity
  8
0
  6
Continuous
 62
     7
370
    25
100
AcDbCircle
 10
149.9288683603
 20
252.8110156572
 30
0.0
 40
1.5
100
AcDbArc
 50
0.0
 51
180.0
  0
ARC
  5
37B
330
1F
100
AcDbEntity
  8
0
  6
Continuous
 62
     7
370
    25
100
AcDbCircle
 10
149.9288683603
 20
252.8110156572
 30
0.0
 40
1.5
100
AcDbArc
 50
180.0
 51
0.0
  0
ARC
  5
37C
330
1F
100
AcDbEntity
  8
0
  6
Continuous
 62
     7
370
    25
100
AcDbCircle
 10
149.9288683603
 20
238.8110156572
 30
0.0
 40
1.500000000563833
100
AcDbArc
 50
118.6478897271
 51
298.6478897271
  0
ARC
  5
37D
330
1F
100
AcDbEntity
  8
0
  6
Continuous
 62
     7
370
    25
100
AcDbCircle
 10
149.9288683603
 20
238.8110156572
 30
0.0
 40
1.500000000563833
100
AcDbArc
 50
298.6478897271
 51
118.6478897271
  0
ARC
  5
37E
330
1F
100
AcDbEntity
  8
0
  6
Continuous
 62
     7
370
    25
100
AcDbCircle
 10
177.9288683603
 20
266.8110156572
 30
0.0
 40
1.500000000563858
100
AcDbArc
 50
118.6478897271
 51
298.6478897271
  0
ARC
  5
37F
330
1F
100
AcDbEntity
  8
0
  6
Continuous
 62
     7
370
    25
100
AcDbCircle
 10
177.9288683603
 20
266.8110156572
 30
0.0
 40
1.500000000563858
100
AcDbArc
 50
298.6478897271
 51
118.6478897271
  0
LINE
  5
380
330
1F
100
AcDbEntity
  8
0
  6
Continuous
 62
     7
370
    25
100
AcDbLine
 10
180.1247262242
 20
271.3010156574
 30
0.0
 11
180.9188683603
 21
270.5068735206
 31
0.0
  0
LINE
  5
381
330
1F
100
AcDbEntity
  8
0
  6
Continuous
 62
     7
370
    25
100
AcDbLine
 10
180.9188683605
 20
269.821015657
 30
0.0
 11
180.9188683603
 21
270.5068735206
 31
0.0
  0
ARC
  5
382
330
1F
100
AcDbEntity
  8
0
  6
Continuous
 62
     7
370
    25
100
AcDbCircle
 10
177.9288683603
 20
266.8110156572
 30
0.0
 40
1.229499999998495
100
AcDbArc
 50
118.6478897558
 51
298.6478897561
  0
LINE
  5
383
330
1F
100
AcDbEntity
  8
0
  6
Continuous
 62
     7
370
    25
100
AcDbLine
 10
180.1288683603
 20
271.3110156567
 30
0.0
 11
180.92886836
 21
270.5110156579
 31
0.0
  0
LINE
  5
384
330
1F
100
AcDbEntity
  8
0
  6
Continuous
 62
     7
370
    25
100
AcDbLine
 10
180.9188683603
 20
270.5068735206
 30
0.0
 11
180.92886836
 21
270.5110156579
 31
0.0
  0
ARC
  5
385
330
1F
100
AcDbEntity
  8
0
  6
Continuous
 62
     7
370
    25
100
AcDbCircle
 10
149.9288683603
 20
238.8110156572
 30
0.0
 40
1.229499999954557
100
AcDbArc
 50
118.647889757
 51
298.647889757
  0
ARC
  5
386
330
1F
100
AcDbEntity
  8
0
  6
Continuous
 62
     7
370
    25
100
AcDbCircle
 10
149.9288683603
 20
238.8110156572
 30
0.0
 40
1.229499999954557
100
AcDbArc
 50
298.647889757
 51
118.647889757
  0
ARC
  5
387
330
1F
100
AcDbEntity
  8
0
  6
Continuous
 62
     7
370
    25
100
AcDbCircle
 10
177.9288683603
 20
266.8110156572
 30
0.0
 40
1.229499999998495
100
AcDbArc
 50
298.6478897561
 51
118.6478897558
  0
LINE
  5
388
330
1F
100
AcDbEntity
  8
0
  6
Continuous
 62
     7
370
    25
100
AcDbLine
 10
180.92886836
 20
269.8110156575
 30
0.0
 11
180.92886836
 21
270.5110156579
 31
0.0
  0
LINE
  5
389
330
1F
100
AcDbEntity
  8
0
  6
Continuous
 62
     7
370
    25
100
AcDbLine
 10
177.4288683603
 20
251.3110156572
 30
0.0
 11
178.4288683603
 21
251.3110156572
 31
0.0
  0
ARC
  5
38A
330
1F
100
AcDbEntity
  8
0
  6
Continuous
 62
     7
370
    25
100
AcDbCircle
 10
178.4288683603
 20
252.8110156572
 30
0.0
 40
1.5
100
AcDbArc
 50
270.0
 51
90.0
  0
LINE
  5
38B
330
1F
100
AcDbEntity
  8
0
  6
Continuous
 62
     7
370
    25
100
AcDbLine
 10
178.4288683603
 20
254.3110156572
 30
0.0
 11
177.4288683603
 21
254.3110156572
 31
0.0
  0
ARC
  5
38C
330
1F
100
AcDbEntity
  8
0
  6
Continuous
 62
     7
370
    25
100
AcDbCircle
 10
177.4288683603
 20
252.8110156572
 30
0.0
 40
1.5
100
AcDbArc
 50
90.0
 51
270.0
  0
ARC
  5
38D
330
1F
100
AcDbEntity
  8
0
  6
Continuous
 62
     7
370
    25
100
AcDbCircle
 10
177.9288683603
 20
238.8110156572
 30
0.0
 40
1.500000000563833
100
AcDbArc
 50
118.6478897271
 51
298.6478897271
  0
ARC
  5
38E
330
1F
100
AcDbEntity
  8
0
  6
Continuous
 62
     7
370
    25
100
AcDbCircle
 10
177.9288683603
 20
238.8110156572
 30
0.0
 40
1.500000000563833
100
AcDbArc
 50
298.6478897271
 51
118.6478897271
  0
ARC
  5
38F
330
1F
100
AcDbEntity
  8
0
  6
Continuous
 62
     7
370
    25
100
AcDbCircle
 10
177.9288683603
 20
238.8110156572
 30
0.0
 40
1.229499999954557
100
AcDbArc
 50
118.647889757
 51
298.647889757
  0
ARC
  5
390
330
1F
100
AcDbEntity
  8
0
  6
Continuous
 62
     7
370
    25
100
AcDbCircle
 10
177.9288683603
 20
238.8110156572
 30
0.0
 40
1.229499999954557
100
AcDbArc
 50
298.647889757
 51
118.647889757
  0
LINE
  5
391
330
1F
100
AcDbEntity
  8
0
  6
Continuous
 62
     7
370
    25
100
AcDbLine
 10
160.7534418792
 20
231.611018709
 30
0.0
 11
160.7534418792
 21
231.3110156572
 31
0.0
  0
LINE
  5
392
330
1F
100
AcDbEntity
  8
0
  6
Continuous
 62
     7
370
    25
100
AcDbLine
 10
162.3411551202
 20
231.611018709
 30
0.0
 11
162.3411551202
 21
231.3110156572
 31
0.0
  0
LINE
  5
393
330
1F
100
AcDbEntity
  8
0
  6
Continuous
 62
     7
370
    25
100
AcDbLine
 10
165.5165816003
 20
231.611018709
 30
0.0
 11
165.5165816003
 21
231.3110156572
 31
0.0
  0
LINE
  5
394
330
1F
100
AcDbEntity
  8
0
  6
Continuous
 62
     7
370
    25
100
AcDbLine
 10
167.1042948411
 20
231.611018709
 30
0.0
 11
167.1042948411
 21
231.3110156572
 31
0.0
  0
DIMENSION
  5
395
330
1F
100
AcDbEntity
  8
0
  6
Continuous
 62
     7
370
    18
100
AcDbDimension
  2
_D_16
 10
70.0856694104
 20
328.8110156572
 30
0.0
 11
70.0856694104
 21
283.438277494
 31
0.0
 70
   160
  1
<>
 71
     2
 42
-1.0
  3
SLDDIMSTYLE0
100
AcDbAlignedDimension
 13
154.5288660614
 23
228.0110126054
 33
0.0
 14
154.9288683603
 24
328.8110156572
 34
0.0
 50
90.0
100
AcDbRotatedDimension
  0
DIMENSION
  5
39F
330
1F
100
AcDbEntity
  8
0
  6
Continuous
 62
     7
370
    18
100
AcDbDimension
  2
_D_17
 10
200.9288933603
 20
228.0110179677
 30
0.0
 11
200.9288933603
 21
244.8033450343
 31
0.0
 70
   160
  1
<>
 71
     2
 42
-1.0
  3
SLDDIMSTYLE2
100
AcDbAlignedDimension
 13
167.9288683603
 23
225.8110156572
 33
0.0
 14
158.9288629966
 24
228.0110179677
 34
0.0
 50
90.0
100
AcDbRotatedDimension
  0
DIMENSION
  5
3AB
330
1F
100
AcDbEntity
  8
0
  6
Continuous
 62
     7
370
    18
100
AcDbDimension
  2
_D_18
 10
218.8015007028
 20
234.8110156572
 30
0.0
 11
218.8015007028
 21
249.535736452
 31
0.0
 70
   160
  1
<>
 71
     2
 42
-1.0
  3
SLDDIMSTYLE2
100
AcDbAlignedDimension
 13
167.9288683603
 23
225.8110156572
 33
0.0
 14
179.4288683603
 24
234.8110156572
 34
0.0
 50
90.0
100
AcDbRotatedDimension
  0
DIMENSION
  5
3B7
330
1F
100
AcDbEntity
  8
0
  6
Continuous
 62
     7
370
    18
100
AcDbDimension
  2
_D_19
 10
118.7798238889
 20
274.3110156568
 30
0.0
 11
118.7798238889
 21
254.8950360382
 31
0.0
 70
   160
  1
<>
 71
     2
 42
-1.0
  3
SLDDIMSTYLE2
100
AcDbAlignedDimension
 13
148.4288683603
 23
234.8110156572
 33
0.0
 14
147.9288683603
 24
274.3110156568
 34
0.0
 50
90.0
100
AcDbRotatedDimension
  0
DIMENSION
  5
3C1
330
1F
100
AcDbEntity
  8
0
  6
Continuous
 62
     7
370
    18
100
AcDbDimension
  2
_D_20
 10
118.7798238889
 20
308.3110156572
 30
0.0
 11
118.7798238889
 21
295.4876869536
 31
0.0
 70
   160
  1
<>
 71
     2
 42
-1.0
  3
SLDDIMSTYLE2
100
AcDbAlignedDimension
 13
147.9288683603
 23
274.3110156568
 33
0.0
 14
151.0836357816
 24
308.3110156572
 34
0.0
 50
90.0
100
AcDbRotatedDimension
  0
DIMENSION
  5
3CD
330
1F
100
AcDbEntity
  8
0
  6
Continuous
 62
     7
370
    18
100
AcDbDimension
  2
_D_21
 10
180.9288683603
 20
388.6207381353
 30
0.0
 11
164.0666818364
 21
388.6207381353
 31
0.0
 70
   160
  1
<>
 71
     2
 42
-1.0
  3
SLDDIMSTYLE2
100
AcDbAlignedDimension
 13
146.9288683609
 23
269.8110156578
 33
0.0
 14
180.9288683603
 24
269.8110156572
 34
0.0
 50
0.0
100
AcDbRotatedDimension
  0
DIMENSION
  5
3D9
330
1F
100
AcDbEntity
  8
0
  6
Continuous
 62
     7
370
    18
100
AcDbDimension
  2
_D_22
 10
177.9288683603
 20
369.0544577372
 30
0.0
 11
160.1100683766
 21
369.0544577372
 31
0.0
 70
   160
  1
{\fGDT;o}<>
 71
     2
 42
-1.0
  3
SLDDIMSTYLE2
100
AcDbAlignedDimension
 13
149.9288683603
 23
308.3110156572
 33
0.0
 14
177.9288683603
 24
308.3110156572
 34
0.0
 50
0.0
100
AcDbRotatedDimension
  0
DIMENSION
  5
3ED
330
1F
100
AcDbEntity
  8
0
  6
Continuous
 62
     7
370
    18
100
AcDbDimension
  2
_D_23
 10
173.9288683603
 20
348.8110156572
 30
0.0
 11
164.0666818364
 21
348.8110156572
 31
0.0
 70
   160
  1
<>
 71
     2
 42
-1.0
  3
SLDDIMSTYLE2
100
AcDbAlignedDimension
 13
153.9288683603
 23
326.3110156572
 33
0.0
 14
173.9288683603
 24
326.3110156572
 34
0.0
 50
0.0
100
AcDbRotatedDimension
  0
DIMENSION
  5
3F9
330
1F
100
AcDbEntity
  8
0
  6
Continuous
 62
     7
370
    18
100
AcDbDimension
  2
_D_24
 10
149.9288683603
 20
252.8110156572
 30
0.0
 11
88.0776478044
 21
205.1999820912
 31
0.0
 70
   164
  1
2-%%c3H8{\fGDT;x}3
 71
     1
 42
-1.0
  3
SLDDIMSTYLE1
100
AcDbRadialDimension
 15
149.0003651104
 25
251.3276472892
 35
0.0
 40
0.0
  0
DIMENSION
  5
406
330
1F
100
AcDbEntity
  8
0
  6
Continuous
 62
     7
370
    18
100
AcDbDimension
  2
_D_25
 10
177.9288683603
 20
175.2655410391
 30
0.0
 11
164.0666818364
 21
175.2655410391
 31
0.0
 70
   160
  1
<>
 71
     2
 42
-1.0
  3
SLDDIMSTYLE2
100
AcDbAlignedDimension
 13
149.9288683603
 23
238.8110156572
 33
0.0
 14
177.9288683603
 24
238.8110156572
 34
0.0
 50
0.0
100
AcDbRotatedDimension
  0
DIMENSION
  5
412
330
1F
100
AcDbEntity
  8
0
  6
Continuous
 62
     7
370
    18
100
AcDbDimension
  2
_D_26
 10
239.196325636
 20
266.8110156572
 30
0.0
 11
239.196325636
 21
252.5871014774
 31
0.0
 70
   160
  1
<>
 71
     2
 42
-1.0
  3
SLDDIMSTYLE2
100
AcDbAlignedDimension
 13
177.9288683603
 23
238.8110156572
 33
0.0
 14
177.9288683603
 24
266.8110156572
 34
0.0
 50
90.0
100
AcDbRotatedDimension
  0
DIMENSION
  5
41E
330
1F
100
AcDbEntity
  8
0
  6
Continuous
 62
     7
370
    18
100
AcDbDimension
  2
_D_27
 10
239.196325636
 20
238.8110156572
 30
0.0
 11
239.196325636
 21
213.2240932638
 31
0.0
 70
   160
  1
<>
 71
     2
 42
-1.0
  3
SLDDIMSTYLE2
100
AcDbAlignedDimension
 13
167.9288683603
 23
225.8110156572
 33
0.0
 14
177.9288683603
 24
238.8110156572
 34
0.0
 50
90.0
100
AcDbRotatedDimension
  0
DIMENSION
  5
42A
330
1F
100
AcDbEntity
  8
0
  6
Continuous
 62
     7
370
    18
100
AcDbDimension
  2
_D_28
 10
168.4443593017
 20
252.8110156572
 30
0.0
 11
168.4443593017
 21
244.8033450343
 31
0.0
 70
   160
  1
<>
 71
     2
 42
-1.0
  3
SLDDIMSTYLE2
100
AcDbAlignedDimension
 13
177.9288683603
 23
238.8110156572
 33
0.0
 14
178.4288683603
 24
252.8110156572
 34
0.0
 50
90.0
100
AcDbRotatedDimension
  0
DIMENSION
  5
436
330
1F
100
AcDbEntity
  8
0
  6
Continuous
 62
     7
370
    18
100
AcDbDimension
  2
_D_29
 10
173.9288683603
 20
190.2724130502
 30
0.0
 11
164.0666818364
 21
190.2724130502
 31
0.0
 70
   160
  1
<>
 71
     2
 42
-1.0
  3
SLDDIMSTYLE2
100
AcDbAlignedDimension
 13
153.9288663115
 23
228.6110166612
 33
0.0
 14
173.9288683603
 24
228.6110154251
 34
0.0
 50
0.0
100
AcDbRotatedDimension
  0
DIMENSION
  5
442
330
1F
100
AcDbEntity
  8
0
  6
Continuous
 62
     7
370
    18
100
AcDbDimension
  2
_D_30
 10
168.4288683603
 20
205.8109906572
 30
0.0
 11
164.0666818364
 21
205.8109906572
 31
0.0
 70
   160
  1
<>
 71
     2
 42
-1.0
  3
SLDDIMSTYLE2
100
AcDbAlignedDimension
 13
159.4288683603
 23
226.3110156572
 33
0.0
 14
168.4288683603
 24
226.3110156572
 34
0.0
 50
0.0
100
AcDbRotatedDimension
  0
ENDSEC
  0
SECTION
  2
OBJECTS
  0
DICTIONARY
  5
C
330
0
100
AcDbDictionary
281
     1
  3
ACAD_GROUP
350
D
  3
ACAD_LAYOUT
350
1A
  3
ACAD_MLINESTYLE
350
17
  3
ACAD_PLOTSETTINGS
350
19
  3
ACAD_PLOTSTYLENAME
350
E
  3
ACAD_SCALELIST
350
47
  3
DWGPROPS
350
44E
  0
DICTIONARY
  5
D
102
{ACAD_REACTORS
330
C
102
}
330
C
100
AcDbDictionary
281
     1
  0
DICTIONARY
  5
1A
102
{ACAD_REACTORS
330
C
102
}
330
C
100
AcDbDictionary
281
     1
  3
Layout1
350
1E
  3
Layout2
350
26
  3
Model
350
22
  0
DICTIONARY
  5
17
102
{ACAD_REACTORS
330
C
102
}
330
C
100
AcDbDictionary
281
     1
  3
Standard
350
18
  0
DICTIONARY
  5
19
102
{ACAD_REACTORS
330
C
102
}
330
C
100
AcDbDictionary
281
     1
  0
ACDBDICTIONARYWDFLT
  5
E
102
{ACAD_REACTORS
330
C
102
}
330
C
100
AcDbDictionary
281
     1
  3
Normal
350
F
100
AcDbDictionaryWithDefault
340
F
  0
DICTIONARY
  5
47
102
{ACAD_REACTORS
330
C
102
}
330
C
100
AcDbDictionary
281
     1
  3
A0
350
48
  3
A1
350
49
  3
A2
350
4A
  3
A3
350
4B
  3
A4
350
4C
  3
A5
350
4D
  3
A6
350
4E
  3
A7
350
4F
  3
A8
350
50
  3
A9
350
51
  3
B0
350
52
  3
B1
350
53
  3
B2
350
54
  3
B3
350
55
  3
B4
350
56
  3
B5
350
57
  3
B6
350
58
  3
B7
350
59
  3
B8
350
5A
  3
B9
350
5B
  3
C0
350
5C
  3
C1
350
5D
  3
C2
350
5E
  3
C3
350
5F
  3
C4
350
60
  3
C5
350
61
  3
C6
350
62
  3
C7
350
63
  3
C8
350
64
  3
C9
350
65
  3
D0
350
66
  3
D1
350
67
  3
D2
350
68
  0
XRECORD
  5
44E
102
{ACAD_REACTORS
330
C
102
}
330
C
100
AcDbXrecord
280
     1
  1
DWGPROPS COOKIE
  2

  3

  4

  6

  7

  8
A1882076
  9

300
=
301
=
302
=
303
=
304
=
305
=
306
=
307
=
308
=
309
=
 40
0.0
 41
2459780.236878935
 42
2459780.236882025
  1

 90
        0
  0
LAYOUT
  5
1E
102
{ACAD_REACTORS
330
1A
102
}
330
1A
100
AcDbPlotSettings
  1

  2
none_device
  4

  6

 40
0.0
 41
0.0
 42
0.0
 43
0.0
 44
0.0
 45
0.0
 46
0.0
 47
0.0
 48
0.0
 49
0.0
140
0.0
141
0.0
142
1.0
143
1.0
 70
   688
 72
     1
 73
     0
 74
     5
  7

 75
    16
147
1.0
148
0.0
149
0.0
100
AcDbLayout
  1
Layout1
 70
     1
 71
     1
 10
0.0
 20
0.0
 11
420.0
 21
297.0
 12
0.0
 22
0.0
 32
0.0
 14
1.0000000000E+20
 24
1.0000000000E+20
 34
1.0000000000E+20
 15
-1.0000000000E+20
 25
-1.0000000000E+20
 35
-1.0000000000E+20
146
0.0
 13
0.0
 23
0.0
 33
0.0
 16
1.0
 26
0.0
 36
0.0
 17
0.0
 27
1.0
 37
0.0
 76
     0
330
1B
  0
LAYOUT
  5
26
102
{ACAD_REACTORS
330
1A
102
}
330
1A
100
AcDbPlotSettings
  1

  2
none_device
  4

  6

 40
0.0
 41
0.0
 42
0.0
 43
0.0
 44
0.0
 45
0.0
 46
0.0
 47
0.0
 48
0.0
 49
0.0
140
0.0
141
0.0
142
1.0
143
1.0
 70
   688
 72
     1
 73
     0
 74
     5
  7

 75
    16
147
1.0
148
0.0
149
0.0
100
AcDbLayout
  1
Layout2
 70
     1
 71
     2
 10
0.0
 20
0.0
 11
0.0
 21
0.0
 12
0.0
 22
0.0
 32
0.0
 14
0.0
 24
0.0
 34
0.0
 15
0.0
 25
0.0
 35
0.0
146
0.0
 13
0.0
 23
0.0
 33
0.0
 16
1.0
 26
0.0
 36
0.0
 17
0.0
 27
1.0
 37
0.0
 76
     0
330
23
  0
LAYOUT
  5
22
102
{ACAD_REACTORS
330
1A
102
}
330
1A
100
AcDbPlotSettings
  1

  2
none_device
  4
Letter_(8.50_x_11.00_Inches)
  6

 40
6.35
 41
6.35
 42
6.35000508
 43
6.35000508
 44
215.9
 45
279.4
 46
0.0
 47
0.0
 48
0.0
 49
0.0
140
0.0
141
0.0
142
1.0
143
1.0
 70
  1712
 72
     1
 73
     0
 74
     0
  7

 75
     0
147
1.0
148
0.0
149
0.0
100
AcDbLayout
  1
Model
 70
     1
 71
     0
 10
0.0
 20
0.0
 11
594.0
 21
420.0
 12
0.0
 22
0.0
 32
0.0
 14
0.0
 24
0.0
 34
0.0
 15
594.0
 25
420.0
 35
0.0
146
0.0
 13
0.0
 23
0.0
 33
0.0
 16
1.0
 26
0.0
 36
0.0
 17
0.0
 27
1.0
 37
0.0
 76
     0
330
1F
331
29
  0
MLINESTYLE
  5
18
102
{ACAD_REACTORS
330
17
102
}
330
17
100
AcDbMlineStyle
  2
Standard
 70
     0
  3

 62
   256
 51
90.0
 52
90.0
 71
     2
 49
0.5
 62
   256
  6
BYLAYER
 49
-0.5
 62
   256
  6
BYLAYER
  0
ACDBPLACEHOLDER
  5
F
102
{ACAD_REACTORS
330
E
102
}
330
E
  0
SCALE
  5
48
102
{ACAD_REACTORS
330
47
102
}
330
47
100
AcDbScale
 70
     0
300
1:1
140
1.0
141
1.0
290
     1
  0
SCALE
  5
49
102
{ACAD_REACTORS
330
47
102
}
330
47
100
AcDbScale
 70
     0
300
1:2
140
1.0
141
2.0
290
     0
  0
SCALE
  5
4A
102
{ACAD_REACTORS
330
47
102
}
330
47
100
AcDbScale
 70
     0
300
1:4
140
1.0
141
4.0
290
     0
  0
SCALE
  5
4B
102
{ACAD_REACTORS
330
47
102
}
330
47
100
AcDbScale
 70
     0
300
1:5
140
1.0
141
5.0
290
     0
  0
SCALE
  5
4C
102
{ACAD_REACTORS
330
47
102
}
330
47
100
AcDbScale
 70
     0
300
1:8
140
1.0
141
8.0
290
     0
  0
SCALE
  5
4D
102
{ACAD_REACTORS
330
47
102
}
330
47
100
AcDbScale
 70
     0
300
1:10
140
1.0
141
10.0
290
     0
  0
SCALE
  5
4E
102
{ACAD_REACTORS
330
47
102
}
330
47
100
AcDbScale
 70
     0
300
1:16
140
1.0
141
16.0
290
     0
  0
SCALE
  5
4F
102
{ACAD_REACTORS
330
47
102
}
330
47
100
AcDbScale
 70
     0
300
1:20
140
1.0
141
20.0
290
     0
  0
SCALE
  5
50
102
{ACAD_REACTORS
330
47
102
}
330
47
100
AcDbScale
 70
     0
300
1:30
140
1.0
141
30.0
290
     0
  0
SCALE
  5
51
102
{ACAD_REACTORS
330
47
102
}
330
47
100
AcDbScale
 70
     0
300
1:40
140
1.0
141
40.0
290
     0
  0
SCALE
  5
52
102
{ACAD_REACTORS
330
47
102
}
330
47
100
AcDbScale
 70
     0
300
1:50
140
1.0
141
50.0
290
     0
  0
SCALE
  5
53
102
{ACAD_REACTORS
330
47
102
}
330
47
100
AcDbScale
 70
     0
300
1:100
140
1.0
141
100.0
290
     0
  0
SCALE
  5
54
102
{ACAD_REACTORS
330
47
102
}
330
47
100
AcDbScale
 70
     0
300
2:1
140
2.0
141
1.0
290
     0
  0
SCALE
  5
55
102
{ACAD_REACTORS
330
47
102
}
330
47
100
AcDbScale
 70
     0
300
4:1
140
4.0
141
1.0
290
     0
  0
SCALE
  5
56
102
{ACAD_REACTORS
330
47
102
}
330
47
100
AcDbScale
 70
     0
300
8:1
140
8.0
141
1.0
290
     0
  0
SCALE
  5
57
102
{ACAD_REACTORS
330
47
102
}
330
47
100
AcDbScale
 70
     0
300
10:1
140
10.0
141
1.0
290
     0
  0
SCALE
  5
58
102
{ACAD_REACTORS
330
47
102
}
330
47
100
AcDbScale
 70
     0
300
100:1
140
100.0
141
1.0
290
     0
  0
SCALE
  5
59
102
{ACAD_REACTORS
330
47
102
}
330
47
100
AcDbScale
 70
     0
300
1/128" = 1'-0"
140
0.0078125
141
12.0
290
     0
  0
SCALE
  5
5A
102
{ACAD_REACTORS
330
47
102
}
330
47
100
AcDbScale
 70
     0
300
1/64" = 1'-0"
140
0.015625
141
12.0
290
     0
  0
SCALE
  5
5B
102
{ACAD_REACTORS
330
47
102
}
330
47
100
AcDbScale
 70
     0
300
1/32" = 1'-0"
140
0.03125
141
12.0
290
     0
  0
SCALE
  5
5C
102
{ACAD_REACTORS
330
47
102
}
330
47
100
AcDbScale
 70
     0
300
1/16" = 1'-0"
140
0.0625
141
12.0
290
     0
  0
SCALE
  5
5D
102
{ACAD_REACTORS
330
47
102
}
330
47
100
AcDbScale
 70
     0
300
3/32" = 1'-0"
140
0.09375
141
12.0
290
     0
  0
SCALE
  5
5E
102
{ACAD_REACTORS
330
47
102
}
330
47
100
AcDbScale
 70
     0
300
1/8" = 1'-0"
140
0.125
141
12.0
290
     0
  0
SCALE
  5
5F
102
{ACAD_REACTORS
330
47
102
}
330
47
100
AcDbScale
 70
     0
300
3/16" = 1'-0"
140
0.1875
141
12.0
290
     0
  0
SCALE
  5
60
102
{ACAD_REACTORS
330
47
102
}
330
47
100
AcDbScale
 70
     0
300
1/4" = 1'-0"
140
0.25
141
12.0
290
     0
  0
SCALE
  5
61
102
{ACAD_REACTORS
330
47
102
}
330
47
100
AcDbScale
 70
     0
300
3/8" = 1'-0"
140
0.375
141
12.0
290
     0
  0
SCALE
  5
62
102
{ACAD_REACTORS
330
47
102
}
330
47
100
AcDbScale
 70
     0
300
1/2" = 1'-0"
140
0.5
141
12.0
290
     0
  0
SCALE
  5
63
102
{ACAD_REACTORS
330
47
102
}
330
47
100
AcDbScale
 70
     0
300
3/4" = 1'-0"
140
0.75
141
12.0
290
     0
  0
SCALE
  5
64
102
{ACAD_REACTORS
330
47
102
}
330
47
100
AcDbScale
 70
     0
300
1" = 1'-0"
140
1.0
141
12.0
290
     0
  0
SCALE
  5
65
102
{ACAD_REACTORS
330
47
102
}
330
47
100
AcDbScale
 70
     0
300
1-1/2" = 1'-0"
140
1.5
141
12.0
290
     0
  0
SCALE
  5
66
102
{ACAD_REACTORS
330
47
102
}
330
47
100
AcDbScale
 70
     0
300
3" = 1'-0"
140
3.0
141
12.0
290
     0
  0
SCALE
  5
67
102
{ACAD_REACTORS
330
47
102
}
330
47
100
AcDbScale
 70
     0
300
6" = 1'-0"
140
6.0
141
12.0
290
     0
  0
SCALE
  5
68
102
{ACAD_REACTORS
330
47
102
}
330
47
100
AcDbScale
 70
     0
300
1'-0" = 1'-0"
140
12.0
141
12.0
290
     0
  0
ENDSEC
  0
EOF
