  0
SECTION
  2
HEADER
  9
$ACADVER
  1
AC1003
  9
$INSBASE
 10
0.0
 20
0.0
  9
$EXTMIN
 10
-1.029541
 20
0.0
  9
$EXTMAX
 10
579.970459
 20
415.0
  9
$LIMMIN
 10
0.0
 20
0.0
  9
$LIMMAX
 10
12.0
 20
9.0
  9
$ORTHOMODE
 70
     0
  9
$REGENMODE
 70
     1
  9
$FILLMODE
 70
     1
  9
$QTEXTMODE
 70
     0
  9
$DRAGMODE
 70
     2
  9
$LTSCALE
 40
7.13993
  9
$OSMODE
 70
    37
  9
$ATTMODE
 70
     1
  9
$TEXTSIZE
 40
3.2
  9
$TRACEWID
 40
1.0
  9
$TEXTSTYLE
  7
STANDARD
  9
$CLAYER
  8
0
  9
$CELTYPE
  6
BYLAYER
  9
$CECOLOR
 62
   256
  9
$DIMSCALE
 40
1.0
  9
$DIMASZ
 40
2.5
  9
$DIMEXO
 40
0.625
  9
$DIMDLI
 40
3.75
  9
$DIMRND
 40
0.0
  9
$DIMDLE
 40
0.0
  9
$DIMEXE
 40
1.25
  9
$DIMTP
 40
0.0
  9
$DIMTM
 40
0.0
  9
$DIMTXT
 40
2.5
  9
$DIMCEN
 40
0.09
  9
$DIMTSZ
 40
0.0
  9
$DIMTOL
 70
     0
  9
$DIMLIM
 70
     0
  9
$DIMTIH
 70
     0
  9
$DIMTOH
 70
     0
  9
$DIMSE1
 70
     0
  9
$DIMSE2
 70
     0
  9
$DIMTAD
 70
     0
  9
$DIMZIN
 70
     8
  9
$DIMBLK
  1

  9
$DIMASO
 70
     1
  9
$DIMSHO
 70
     0
  9
$DIMPOST
  1

  9
$DIMAPOST
  1

  9
$DIMALT
 70
     0
  9
$DIMALTD
 70
     3
  9
$DIMALTF
 40
0.03937
  9
$DIMLFAC
 40
1.0
  9
$DIMTOFL
 70
     1
  9
$DIMTVP
 40
0.0
  9
$DIMTIX
 70
     0
  9
$DIMSOXD
 70
     0
  9
$DIMSAH
 70
     0
  9
$DIMBLK1
  1

  9
$DIMBLK2
  1

  9
$LUNITS
 70
     2
  9
$LUPREC
 70
     4
  9
$SKETCHINC
 40
1.0
  9
$FILLETRAD
 40
0.0
  9
$AUNITS
 70
     0
  9
$AUPREC
 70
     0
  9
$MENU
  1
acad
  9
$ELEVATION
 40
0.0
  9
$THICKNESS
 40
0.0
  9
$LIMCHECK
 70
     0
  9
$CHAMFERA
 40
0.0
  9
$CHAMFERB
 40
0.0
  9
$SKPOLY
 70
     0
  9
$TDCREATE
 40
2458592.758058183
  9
$TDUPDATE
 40
2458592.758060521
  9
$TDINDWG
 40
0.0000000116
  9
$TDUSRTIMER
 40
0.0000000116
  9
$USRTIMER
 70
     1
  9
$ANGBASE
 50
0.0
  9
$ANGDIR
 70
     0
  9
$PDMODE
 70
     0
  9
$PDSIZE
 40
0.0
  9
$PLINEWID
 40
0.0
  9
$COORDS
 70
     1
  9
$SURFTAB1
 70
     6
  9
$SURFTAB2
 70
     6
  9
$SURFTYPE
 70
     6
  9
$SURFU
 70
     6
  9
$SURFV
 70
     6
  9
$UCSNAME
  2

  9
$UCSORG
 10
0.0
 20
0.0
 30
0.0
  9
$UCSXDIR
 10
1.0
 20
0.0
 30
0.0
  9
$UCSYDIR
 10
0.0
 20
1.0
 30
0.0
  9
$USERI1
 70
     0
  9
$USERI2
 70
     0
  9
$USERI3
 70
     0
  9
$USERI4
 70
     0
  9
$USERI5
 70
     0
  9
$USERR1
 40
0.0
  9
$USERR2
 40
0.0
  9
$USERR3
 40
0.0
  9
$USERR4
 40
0.0
  9
$USERR5
 40
0.0
  9
$WORLDVIEW
 70
     1
  0
ENDSEC
  0
SECTION
  2
TABLES
  0
TABLE
  2
LTYPE
 70
     5
  0
LTYPE
  2
CONTINUOUS
 70
     0
  3
Solid line
 72
    65
 73
     0
 40
0.0
  0
LTYPE
  2
DASHED
 70
     0
  3
DASHED
 72
    83
 73
     2
 40
0.75
 49
0.5
 49
-0.25
  0
LTYPE
  2
HIDDEN
 70
     0
  3
HIDDEN
 72
    83
 73
     2
 40
0.375
 49
0.25
 49
-0.125
  0
LTYPE
  2
CENTER
 70
     0
  3
CENTER
 72
    83
 73
     4
 40
2.0
 49
1.25
 49
-0.25
 49
0.25
 49
-0.25
  0
LTYPE
  2
PHANTOM
 70
     0
  3
PHANTOM
 72
    83
 73
     6
 40
2.5
 49
1.25
 49
-0.25
 49
0.25
 49
-0.25
 49
0.25
 49
-0.25
  0
ENDTAB
  0
TABLE
  2
LAYER
 70
     2
  0
LAYER
  2
0
 70
     0
 62
     7
  6
CONTINUOUS
  0
LAYER
  2
001
 70
     0
 62
     7
  6
CONTINUOUS
  0
ENDTAB
  0
TABLE
  2
STYLE
 70
     2
  0
STYLE
  2
STANDARD
 70
     0
 40
0.0
 41
1.0
 50
0.0
 71
     0
 42
0.2
  3
TXT
  4
BIGFONT
  0
STYLE
  2
TATEGAKI
 70
     4
 40
1.0
 41
1.0
 50
0.0
 71
     0
 42
3.2
  3
TXT
  4
BIGFONT
  0
ENDTAB
  0
TABLE
  2
VIEW
 70
     0
  0
ENDTAB
  0
ENDSEC
  0
SECTION
  2
BLOCKS
  0
BLOCK
  8
0
  2
JZB-1
 70
     0
 10
0.0
 20
0.0
  0
LINE
  8
001
 62
    12
 10
574.97046
 20
10.0
 11
574.97046
 21
395.043277
  0
LINE
  8
001
 62
    12
 10
25.97046
 20
395.043277
 11
25.97046
 21
10.0
  0
LINE
  8
001
 10
560.47046
 20
10.0
 11
560.47046
 21
7.5
  0
LINE
  8
001
 10
570.47046
 20
10.0
 11
570.47046
 21
7.5
  0
LINE
  8
001
 62
     4
 10
450.47046
 20
10.0
 11
450.47046
 21
6.25
  0
LINE
  8
001
 62
     4
 10
500.47046
 20
10.0
 11
500.47046
 21
6.25
  0
LINE
  8
001
 62
     4
 10
550.47046
 20
10.0
 11
550.47046
 21
6.25
  0
LINE
  8
001
 10
490.47046
 20
10.0
 11
490.47046
 21
7.5
  0
LINE
  8
001
 10
480.47046
 20
10.0
 11
480.47046
 21
7.5
  0
LINE
  8
001
 10
470.47046
 20
10.0
 11
470.47046
 21
7.5
  0
LINE
  8
001
 10
460.47046
 20
10.0
 11
460.47046
 21
7.5
  0
LINE
  8
001
 10
540.47046
 20
10.0
 11
540.47046
 21
7.5
  0
LINE
  8
001
 10
530.47046
 20
10.0
 11
530.47046
 21
7.5
  0
LINE
  8
001
 10
520.47046
 20
10.0
 11
520.47046
 21
7.5
  0
LINE
  8
001
 10
510.47046
 20
10.0
 11
510.47046
 21
7.5
  0
LINE
  8
001
 62
     4
 10
574.97046
 20
60.0
 11
578.72046
 21
60.0
  0
LINE
  8
001
 62
     4
 10
574.97046
 20
110.0
 11
578.72046
 21
110.0
  0
LINE
  8
001
 10
574.97046
 20
20.0
 11
577.47046
 21
20.0
  0
LINE
  8
001
 10
574.97046
 20
30.0
 11
577.47046
 21
30.0
  0
LINE
  8
001
 10
574.97046
 20
40.0
 11
577.47046
 21
40.0
  0
LINE
  8
001
 10
574.97046
 20
50.0
 11
577.47046
 21
50.0
  0
LINE
  8
001
 10
574.97046
 20
70.0
 11
577.47046
 21
70.0
  0
LINE
  8
001
 10
574.97046
 20
80.0
 11
577.47046
 21
80.0
  0
LINE
  8
001
 10
574.97046
 20
90.0
 11
577.47046
 21
90.0
  0
LINE
  8
001
 10
574.97046
 20
100.0
 11
577.47046
 21
100.0
  0
LINE
  8
001
 10
440.47046
 20
10.0
 11
440.47046
 21
7.5
  0
LINE
  8
001
 62
     4
 10
25.97046
 20
60.0
 11
22.22046
 21
60.0
  0
LINE
  8
001
 62
     4
 10
25.97046
 20
110.0
 11
22.22046
 21
110.0
  0
LINE
  8
001
 10
25.97046
 20
20.0
 11
23.47046
 21
20.0
  0
LINE
  8
001
 10
25.97046
 20
30.0
 11
23.47046
 21
30.0
  0
LINE
  8
001
 10
25.97046
 20
40.0
 11
23.47046
 21
40.0
  0
LINE
  8
001
 10
25.97046
 20
50.0
 11
23.47046
 21
50.0
  0
LINE
  8
001
 10
25.97046
 20
70.0
 11
23.47046
 21
70.0
  0
LINE
  8
001
 10
25.97046
 20
80.0
 11
23.47046
 21
80.0
  0
LINE
  8
001
 10
25.97046
 20
90.0
 11
23.47046
 21
90.0
  0
LINE
  8
001
 10
25.97046
 20
100.0
 11
23.47046
 21
100.0
  0
LINE
  8
001
 62
     4
 10
50.47046
 20
10.0
 11
50.47046
 21
6.25
  0
LINE
  8
001
 10
30.47046
 20
10.0
 11
30.47046
 21
7.5
  0
LINE
  8
001
 10
40.47046
 20
10.0
 11
40.47046
 21
7.5
  0
LINE
  8
001
 10
60.47046
 20
10.0
 11
60.47046
 21
7.5
  0
LINE
  8
001
 10
70.47046
 20
10.0
 11
70.47046
 21
7.5
  0
LINE
  8
001
 10
80.47046
 20
10.0
 11
80.47046
 21
7.5
  0
LINE
  8
001
 62
     4
 10
100.47046
 20
10.0
 11
100.47046
 21
6.25
  0
LINE
  8
001
 62
     4
 10
150.47046
 20
10.0
 11
150.47046
 21
6.25
  0
LINE
  8
001
 62
     4
 10
200.47046
 20
10.0
 11
200.47046
 21
6.25
  0
LINE
  8
001
 62
     4
 10
250.47046
 20
6.25
 11
250.47046
 21
10.0
  0
LINE
  8
001
 62
     4
 10
350.47046
 20
6.25
 11
350.47046
 21
10.0
  0
LINE
  8
001
 62
     4
 10
400.47046
 20
10.0
 11
400.47046
 21
6.25
  0
LINE
  8
001
 10
90.47046
 20
10.0
 11
90.47046
 21
7.5
  0
LINE
  8
001
 10
110.47046
 20
10.0
 11
110.47046
 21
7.5
  0
LINE
  8
001
 10
120.47046
 20
10.0
 11
120.47046
 21
7.5
  0
LINE
  8
001
 10
130.47046
 20
10.0
 11
130.47046
 21
7.5
  0
LINE
  8
001
 10
140.47046
 20
10.0
 11
140.47046
 21
7.5
  0
LINE
  8
001
 10
160.47046
 20
10.0
 11
160.47046
 21
7.5
  0
LINE
  8
001
 10
170.47046
 20
10.0
 11
170.47046
 21
7.5
  0
LINE
  8
001
 10
180.47046
 20
10.0
 11
180.47046
 21
7.5
  0
LINE
  8
001
 10
190.47046
 20
10.0
 11
190.47046
 21
7.5
  0
LINE
  8
001
 10
210.47046
 20
10.0
 11
210.47046
 21
7.5
  0
LINE
  8
001
 10
220.47046
 20
10.0
 11
220.47046
 21
7.5
  0
LINE
  8
001
 10
230.47046
 20
10.0
 11
230.47046
 21
7.5
  0
LINE
  8
001
 10
240.47046
 20
10.0
 11
240.47046
 21
7.5
  0
LINE
  8
001
 10
260.47046
 20
10.0
 11
260.47046
 21
7.5
  0
LINE
  8
001
 10
270.47046
 20
10.0
 11
270.47046
 21
7.5
  0
LINE
  8
001
 10
280.47046
 20
10.0
 11
280.47046
 21
7.5
  0
LINE
  8
001
 10
290.47046
 20
10.0
 11
290.47046
 21
7.5
  0
LINE
  8
001
 10
340.47046
 20
10.0
 11
340.47046
 21
7.5
  0
LINE
  8
001
 10
330.47046
 20
10.0
 11
330.47046
 21
7.5
  0
LINE
  8
001
 10
320.47046
 20
10.0
 11
320.47046
 21
7.5
  0
LINE
  8
001
 10
310.47046
 20
10.0
 11
310.47046
 21
7.5
  0
LINE
  8
001
 10
390.47046
 20
10.0
 11
390.47046
 21
7.5
  0
LINE
  8
001
 10
380.47046
 20
10.0
 11
380.47046
 21
7.5
  0
LINE
  8
001
 10
370.47046
 20
10.0
 11
370.47046
 21
7.5
  0
LINE
  8
001
 10
360.47046
 20
10.0
 11
360.47046
 21
7.5
  0
LINE
  8
001
 10
430.47046
 20
10.0
 11
430.47046
 21
7.5
  0
LINE
  8
001
 10
420.47046
 20
10.0
 11
420.47046
 21
7.5
  0
LINE
  8
001
 10
410.47046
 20
10.0
 11
410.47046
 21
7.5
  0
LINE
  8
001
 62
    12
 10
300.47046
 20
10.0
 11
300.47046
 21
5.0
  0
LINE
  8
001
 62
    12
 10
25.97046
 20
10.0
 11
574.97046
 21
10.0
  0
LINE
  8
001
 62
     4
 10
22.22046
 20
160.0
 11
25.97046
 21
160.0
  0
LINE
  8
001
 62
     4
 10
22.22046
 20
260.0
 11
25.97046
 21
260.0
  0
LINE
  8
001
 62
     4
 10
25.97046
 20
310.0
 11
22.22046
 21
310.0
  0
LINE
  8
001
 62
     4
 10
25.97046
 20
360.0
 11
22.22046
 21
360.0
  0
LINE
  8
001
 10
25.97046
 20
120.0
 11
23.47046
 21
120.0
  0
LINE
  8
001
 10
25.97046
 20
130.0
 11
23.47046
 21
130.0
  0
LINE
  8
001
 10
25.97046
 20
140.0
 11
23.47046
 21
140.0
  0
LINE
  8
001
 10
25.97046
 20
150.0
 11
23.47046
 21
150.0
  0
LINE
  8
001
 10
25.97046
 20
170.0
 11
23.47046
 21
170.0
  0
LINE
  8
001
 10
25.97046
 20
180.0
 11
23.47046
 21
180.0
  0
LINE
  8
001
 10
25.97046
 20
190.0
 11
23.47046
 21
190.0
  0
LINE
  8
001
 10
25.97046
 20
200.0
 11
23.47046
 21
200.0
  0
LINE
  8
001
 10
25.97046
 20
250.0
 11
23.47046
 21
250.0
  0
LINE
  8
001
 10
25.97046
 20
240.0
 11
23.47046
 21
240.0
  0
LINE
  8
001
 10
25.97046
 20
230.0
 11
23.47046
 21
230.0
  0
LINE
  8
001
 10
25.97046
 20
220.0
 11
23.47046
 21
220.0
  0
LINE
  8
001
 10
25.97046
 20
300.0
 11
23.47046
 21
300.0
  0
LINE
  8
001
 10
25.97046
 20
290.0
 11
23.47046
 21
290.0
  0
LINE
  8
001
 10
25.97046
 20
280.0
 11
23.47046
 21
280.0
  0
LINE
  8
001
 10
25.97046
 20
270.0
 11
23.47046
 21
270.0
  0
LINE
  8
001
 10
25.97046
 20
350.0
 11
23.47046
 21
350.0
  0
LINE
  8
001
 10
25.97046
 20
340.0
 11
23.47046
 21
340.0
  0
LINE
  8
001
 10
25.97046
 20
330.0
 11
23.47046
 21
330.0
  0
LINE
  8
001
 10
25.97046
 20
320.0
 11
23.47046
 21
320.0
  0
LINE
  8
001
 10
25.97046
 20
390.0
 11
23.47046
 21
390.0
  0
LINE
  8
001
 10
25.97046
 20
380.0
 11
23.47046
 21
380.0
  0
LINE
  8
001
 10
25.97046
 20
370.0
 11
23.47046
 21
370.0
  0
LINE
  8
001
 62
    12
 10
25.97046
 20
210.0
 11
20.97046
 21
210.0
  0
LINE
  8
001
 10
560.47046
 20
395.043277
 11
560.47046
 21
397.543277
  0
LINE
  8
001
 10
570.47046
 20
395.043277
 11
570.47046
 21
397.543277
  0
LINE
  8
001
 62
     4
 10
150.47046
 20
395.043277
 11
150.47046
 21
398.793277
  0
LINE
  8
001
 62
     4
 10
200.47046
 20
395.043277
 11
200.47046
 21
398.793277
  0
LINE
  8
001
 62
     4
 10
250.47046
 20
398.793277
 11
250.47046
 21
395.043277
  0
LINE
  8
001
 62
     4
 10
350.47046
 20
398.793277
 11
350.47046
 21
395.043277
  0
LINE
  8
001
 62
     4
 10
400.47046
 20
395.043277
 11
400.47046
 21
398.793277
  0
LINE
  8
001
 62
     4
 10
450.47046
 20
395.043277
 11
450.47046
 21
398.793277
  0
LINE
  8
001
 62
     4
 10
500.47046
 20
395.043277
 11
500.47046
 21
398.793277
  0
LINE
  8
001
 62
     4
 10
550.47046
 20
395.043277
 11
550.47046
 21
398.793277
  0
LINE
  8
001
 10
160.47046
 20
395.043277
 11
160.47046
 21
397.543277
  0
LINE
  8
001
 10
170.47046
 20
395.043277
 11
170.47046
 21
397.543277
  0
LINE
  8
001
 10
180.47046
 20
395.043277
 11
180.47046
 21
397.543277
  0
LINE
  8
001
 10
190.47046
 20
395.043277
 11
190.47046
 21
397.543277
  0
LINE
  8
001
 10
210.47046
 20
395.043277
 11
210.47046
 21
397.543277
  0
LINE
  8
001
 10
220.47046
 20
395.043277
 11
220.47046
 21
397.543277
  0
LINE
  8
001
 10
230.47046
 20
395.043277
 11
230.47046
 21
397.543277
  0
LINE
  8
001
 10
240.47046
 20
395.043277
 11
240.47046
 21
397.543277
  0
LINE
  8
001
 10
260.47046
 20
395.043277
 11
260.47046
 21
397.543277
  0
LINE
  8
001
 10
270.47046
 20
395.043277
 11
270.47046
 21
397.543277
  0
LINE
  8
001
 10
280.47046
 20
395.043277
 11
280.47046
 21
397.543277
  0
LINE
  8
001
 10
290.47046
 20
395.043277
 11
290.47046
 21
397.543277
  0
LINE
  8
001
 10
340.47046
 20
395.043277
 11
340.47046
 21
397.543277
  0
LINE
  8
001
 10
330.47046
 20
395.043277
 11
330.47046
 21
397.543277
  0
LINE
  8
001
 10
320.47046
 20
395.043277
 11
320.47046
 21
397.543277
  0
LINE
  8
001
 10
310.47046
 20
395.043277
 11
310.47046
 21
397.543277
  0
LINE
  8
001
 10
390.47046
 20
395.043277
 11
390.47046
 21
397.543277
  0
LINE
  8
001
 10
380.47046
 20
395.043277
 11
380.47046
 21
397.543277
  0
LINE
  8
001
 10
370.47046
 20
395.043277
 11
370.47046
 21
397.543277
  0
LINE
  8
001
 10
360.47046
 20
395.043277
 11
360.47046
 21
397.543277
  0
LINE
  8
001
 10
440.47046
 20
395.043277
 11
440.47046
 21
397.543277
  0
LINE
  8
001
 10
430.47046
 20
395.043277
 11
430.47046
 21
397.543277
  0
LINE
  8
001
 10
420.47046
 20
395.043277
 11
420.47046
 21
397.543277
  0
LINE
  8
001
 10
410.47046
 20
395.043277
 11
410.47046
 21
397.543277
  0
LINE
  8
001
 10
490.47046
 20
395.043277
 11
490.47046
 21
397.543277
  0
LINE
  8
001
 10
480.47046
 20
395.043277
 11
480.47046
 21
397.543277
  0
LINE
  8
001
 10
470.47046
 20
395.043277
 11
470.47046
 21
397.543277
  0
LINE
  8
001
 10
460.47046
 20
395.043277
 11
460.47046
 21
397.543277
  0
LINE
  8
001
 10
540.47046
 20
395.043277
 11
540.47046
 21
397.543277
  0
LINE
  8
001
 10
530.47046
 20
395.043277
 11
530.47046
 21
397.543277
  0
LINE
  8
001
 10
520.47046
 20
395.043277
 11
520.47046
 21
397.543277
  0
LINE
  8
001
 10
510.47046
 20
395.043277
 11
510.47046
 21
397.543277
  0
LINE
  8
001
 62
    12
 10
300.47046
 20
395.043277
 11
300.47046
 21
400.043277
  0
LINE
  8
001
 62
     4
 10
578.72046
 20
160.0
 11
574.97046
 21
160.0
  0
LINE
  8
001
 62
     4
 10
578.72046
 20
260.0
 11
574.97046
 21
260.0
  0
LINE
  8
001
 62
     4
 10
574.97046
 20
310.0
 11
578.72046
 21
310.0
  0
LINE
  8
001
 62
     4
 10
574.97046
 20
360.0
 11
578.72046
 21
360.0
  0
LINE
  8
001
 10
574.97046
 20
120.0
 11
577.47046
 21
120.0
  0
LINE
  8
001
 10
574.97046
 20
130.0
 11
577.47046
 21
130.0
  0
LINE
  8
001
 10
574.97046
 20
140.0
 11
577.47046
 21
140.0
  0
LINE
  8
001
 10
574.97046
 20
150.0
 11
577.47046
 21
150.0
  0
LINE
  8
001
 10
574.97046
 20
170.0
 11
577.47046
 21
170.0
  0
LINE
  8
001
 10
574.97046
 20
180.0
 11
577.47046
 21
180.0
  0
LINE
  8
001
 10
574.97046
 20
190.0
 11
577.47046
 21
190.0
  0
LINE
  8
001
 10
574.97046
 20
200.0
 11
577.47046
 21
200.0
  0
LINE
  8
001
 10
574.97046
 20
250.0
 11
577.47046
 21
250.0
  0
LINE
  8
001
 10
574.97046
 20
240.0
 11
577.47046
 21
240.0
  0
LINE
  8
001
 10
574.97046
 20
230.0
 11
577.47046
 21
230.0
  0
LINE
  8
001
 10
574.97046
 20
220.0
 11
577.47046
 21
220.0
  0
LINE
  8
001
 10
574.97046
 20
300.0
 11
577.47046
 21
300.0
  0
LINE
  8
001
 10
574.97046
 20
290.0
 11
577.47046
 21
290.0
  0
LINE
  8
001
 10
574.97046
 20
280.0
 11
577.47046
 21
280.0
  0
LINE
  8
001
 10
574.97046
 20
270.0
 11
577.47046
 21
270.0
  0
LINE
  8
001
 10
574.97046
 20
350.0
 11
577.47046
 21
350.0
  0
LINE
  8
001
 10
574.97046
 20
340.0
 11
577.47046
 21
340.0
  0
LINE
  8
001
 10
574.97046
 20
330.0
 11
577.47046
 21
330.0
  0
LINE
  8
001
 10
574.97046
 20
320.0
 11
577.47046
 21
320.0
  0
LINE
  8
001
 10
574.97046
 20
390.0
 11
577.47046
 21
390.0
  0
LINE
  8
001
 10
574.97046
 20
380.0
 11
577.47046
 21
380.0
  0
LINE
  8
001
 10
574.97046
 20
370.0
 11
577.47046
 21
370.0
  0
LINE
  8
001
 62
    12
 10
574.97046
 20
210.0
 11
579.97046
 21
210.0
  0
LINE
  8
001
 62
    12
 10
25.97046
 20
395.043277
 11
574.97046
 21
395.043277
  0
ENDBLK
  8
0
  0
BLOCK
  8
0
  2
JZB-2
 70
     0
 10
0.0
 20
0.0
  0
LINE
  8
001
 62
    15
 10
546.441331
 20
75.5
 11
536.441331
 21
65.5
  0
LINE
  8
001
 62
    15
 10
574.97046
 20
104.029128
 11
549.97046
 21
79.029128
  0
LINE
  8
001
 62
    15
 10
542.198691
 20
75.5
 11
532.198691
 21
65.5
  0
LINE
  8
001
 62
    15
 10
574.97046
 20
108.271769
 11
549.97046
 21
83.271769
  0
LINE
  8
001
 62
    15
 10
533.713409
 20
75.5
 11
524.97046
 21
66.75705
  0
LINE
  8
001
 62
    15
 10
574.97046
 20
116.75705
 11
549.97046
 21
91.75705
  0
LINE
  8
001
 62
    15
 10
537.95605
 20
75.5
 11
527.95605
 21
65.5
  0
LINE
  8
001
 62
    15
 10
574.97046
 20
112.51441
 11
549.97046
 21
87.51441
  0
LINE
  8
001
 62
    15
 10
529.470769
 20
75.5
 11
524.97046
 21
70.999691
  0
LINE
  8
001
 62
    15
 10
574.97046
 20
120.999691
 11
549.97046
 21
95.999691
  0
LINE
  8
001
 62
    15
 10
574.97046
 20
99.786488
 11
540.683972
 21
65.5
  0
LINE
  8
001
 62
    15
 10
574.97046
 20
95.543847
 11
544.926613
 21
65.5
  0
LINE
  8
001
 62
    15
 10
574.97046
 20
91.301206
 11
549.169253
 21
65.5
  0
LINE
  8
001
 62
    15
 10
574.97046
 20
87.058566
 11
553.411894
 21
65.5
  0
LINE
  8
001
 62
    15
 10
574.97046
 20
82.815925
 11
557.654535
 21
65.5
  0
LINE
  8
001
 62
    15
 10
574.97046
 20
78.573284
 11
561.897175
 21
65.5
  0
LINE
  8
001
 62
    15
 10
574.97046
 20
74.330644
 11
566.139816
 21
65.5
  0
LINE
  8
001
 62
    15
 10
574.97046
 20
70.088003
 11
570.382457
 21
65.5
  0
LINE
  8
001
 62
    15
 10
575.228128
 20
125.5
 11
549.97046
 21
100.242332
  0
LINE
  8
001
 62
    15
 10
570.985487
 20
125.5
 11
549.97046
 21
104.484972
  0
LINE
  8
001
 62
    15
 10
566.742846
 20
125.5
 11
549.97046
 21
108.727613
  0
LINE
  8
001
 62
    15
 10
562.500206
 20
125.5
 11
549.97046
 21
112.970254
  0
LINE
  8
001
 62
    15
 10
554.014924
 20
125.5
 11
549.97046
 21
121.455535
  0
LINE
  8
001
 62
    15
 10
558.257565
 20
125.5
 11
549.97046
 21
117.212894
  0
LINE
  8
001
 62
    15
 10
574.97046
 20
125.5
 11
550.029952
 21
125.5
  0
LINE
  8
001
 62
    15
 10
549.97046
 20
75.5
 11
524.97046
 21
75.5
  0
LINE
  8
001
 62
    15
 10
524.97046
 20
75.5
 11
524.97046
 21
65.5
  0
LINE
  8
001
 62
    15
 10
549.97046
 20
125.5
 11
549.97046
 21
75.5
  0
ENDBLK
  8
0
  0
BLOCK
  8
0
  2
JZB-3
 70
     0
 10
0.0
 20
0.0
  0
LINE
  8
001
  6
PHANTOM
 62
    15
 10
574.97046
 20
207.0
 11
549.97046
 21
207.0
  0
LINE
  8
001
 62
    15
 10
553.757256
 20
207.0
 11
549.97046
 21
203.213203
  0
LINE
  8
001
 62
    15
 10
557.999897
 20
207.0
 11
549.97046
 21
198.970563
  0
LINE
  8
001
 62
    15
 10
562.242538
 20
207.0
 11
549.97046
 21
194.727922
  0
LINE
  8
001
 62
    15
 10
566.485178
 20
207.0
 11
549.97046
 21
190.485281
  0
LINE
  8
001
 62
    15
 10
574.97046
 20
185.786797
 11
571.183663
 21
182.0
  0
LINE
  8
001
 62
    15
 10
574.97046
 20
190.029437
 11
566.941022
 21
182.0
  0
LINE
  8
001
 62
    15
 10
574.97046
 20
194.272078
 11
562.698382
 21
182.0
  0
LINE
  8
001
 62
    15
 10
574.97046
 20
198.514719
 11
558.455741
 21
182.0
  0
LINE
  8
001
 62
    15
 10
574.97046
 20
202.757359
 11
554.2131
 21
182.0
  0
LINE
  8
001
 62
    15
 10
570.727819
 20
207.0
 11
549.97046
 21
186.242641
  0
LINE
  8
001
 62
    15
 10
549.97046
 20
182.0
 11
574.97046
 21
207.0
  0
LINE
  8
001
  6
PHANTOM
 62
    15
 10
574.97046
 20
182.0
 11
549.97046
 21
182.0
  0
LINE
  8
001
  6
PHANTOM
 62
    15
 10
549.97046
 20
207.0
 11
549.97046
 21
182.0
  0
ENDBLK
  8
0
  0
BLOCK
  8
0
  2
JZB-4
 70
     0
 10
0.0
 20
0.0
  0
TEXT
  8
001
 10
131.201251
 20
397.423585
 40
1.3
  1
０．８
 41
0.833333
  0
TEXT
  8
001
 10
120.217111
 20
403.708074
 40
1.3
  1
仕上げ記号
 41
0.833333
  0
TEXT
  8
001
 10
80.703774
 20
407.865124
 40
1.3
  1
面取許容差
 41
0.833333
  0
TEXT
  8
001
 10
85.484381
 20
395.293083
 40
1.3
  1
%%p１０
 41
0.882353
  0
TEXT
  8
001
 10
85.484381
 20
397.371608
 40
1.3
  1
%%p２０
 41
0.882353
  0
TEXT
  8
001
 10
85.484381
 20
399.450133
 40
1.3
  1
%%p３０
 41
0.882353
  0
TEXT
  8
001
 10
85.484381
 20
401.528657
 40
1.3
  1
%%p５０
 41
0.882353
  0
TEXT
  8
001
 10
79.560585
 20
403.607182
 40
1.3
  1
（面取り寸法に対する％）
 41
0.833333
  0
TEXT
  8
001
 10
85.484381
 20
405.685707
 40
1.3
  1
許容差
 41
0.833333
  0
TEXT
  8
001
 10
102.339721
 20
396.426841
 40
1.3
  1
　ＪＩＳ
 41
0.833333
  0
TEXT
  8
001
 10
95.411305
 20
399.450133
 40
1.3
  1
　%%p２%%d
 41
0.983606
  0
TEXT
  8
001
 10
95.411305
 20
401.528657
 40
1.3
  1
　%%p３%%d
 41
0.983606
  0
TEXT
  8
001
 10
95.411305
 20
396.426841
 40
1.3
  1
　　－
 41
0.833333
  0
TEXT
  8
001
 10
95.411305
 20
404.74094
 40
1.3
  1
角度許容差
 41
0.833333
  0
TEXT
  8
001
 10
59.052474
 20
407.764232
 40
1.3
  1
%%p０．３
 41
0.869565
  0
TEXT
  8
001
 10
59.052474
 20
409.842757
 40
1.3
  1
%%p０．２
 41
0.869565
  0
TEXT
  8
001
 10
59.052474
 20
411.921281
 40
1.3
  1
　粗　級
 41
0.833333
  0
TEXT
  8
001
 10
52.124058
 20
409.842757
 40
1.3
  1
%%p０．１
 41
0.869565
  0
TEXT
  8
001
 10
52.124058
 20
411.921281
 40
1.3
  1
　中　級
 41
0.833333
  0
TEXT
  8
001
 10
52.124058
 20
407.764232
 40
1.3
  1
%%p０．１
 41
0.869565
  0
TEXT
  8
001
 10
52.124058
 20
405.685707
 40
1.3
  1
%%p０．２
 41
0.869565
  0
TEXT
  8
001
 10
52.124058
 20
403.607182
 40
1.3
  1
%%p０．３
 41
0.869565
  0
TEXT
  8
001
 10
52.124058
 20
401.528657
 40
1.3
  1
%%p０．５
 41
0.869565
  0
TEXT
  8
001
 10
52.124058
 20
395.293083
 40
1.3
  1
%%p２
 41
0.909091
  0
TEXT
  8
001
 10
52.124058
 20
397.371608
 40
1.3
  1
%%p１．２
 41
0.869565
  0
TEXT
  8
001
 10
52.124058
 20
399.450133
 40
1.3
  1
%%p０．８
 41
0.869565
  0
TEXT
  8
001
 10
65.98089
 20
395.293083
 40
1.3
  1
　　５以上
 41
0.833333
  0
TEXT
  8
001
 10
65.98089
 20
397.371608
 40
1.3
  1
　　１以上　　５未満
 41
0.833333
  0
TEXT
  8
001
 10
65.98089
 20
399.450133
 40
1.3
  1
０．３以上　　１未満
 41
0.833333
  0
TEXT
  8
001
 10
65.98089
 20
401.528657
 40
1.3
  1
０．１以上０．３未満
 41
0.833333
  0
TEXT
  8
001
 10
70.103297
 20
403.607182
 40
1.3
  1
（ｍｍ）
 41
0.833333
  0
TEXT
  8
001
 10
68.786898
 20
405.685707
 40
1.3
  1
面取寸法区分
 41
0.833333
  0
TEXT
  8
001
 10
59.052474
 20
395.293083
 40
1.3
  1
%%p４
 41
0.909091
  0
TEXT
  8
001
 10
59.052474
 20
397.371608
 40
1.3
  1
%%p３
 41
0.909091
  0
TEXT
  8
001
 10
59.052474
 20
399.450133
 40
1.3
  1
%%p２
 41
0.909091
  0
TEXT
  8
001
 10
59.052474
 20
401.528657
 40
1.3
  1
%%p１．２
 41
0.869565
  0
TEXT
  8
001
 10
59.052474
 20
403.607182
 40
1.3
  1
%%p０．８
 41
0.869565
  0
TEXT
  8
001
 10
59.052474
 20
405.685707
 40
1.3
  1
%%p０．５
 41
0.869565
  0
TEXT
  8
001
 10
45.195642
 20
411.921281
 40
1.3
  1
　精　級
 41
0.833333
  0
TEXT
  8
001
 10
45.195642
 20
399.450133
 40
1.3
  1
%%p０．３
 41
0.869565
  0
TEXT
  8
001
 10
45.195642
 20
397.371608
 40
1.3
  1
%%p０．５
 41
0.869565
  0
TEXT
  8
001
 10
45.195642
 20
401.528657
 40
1.3
  1
%%p０．２
 41
0.869565
  0
TEXT
  8
001
 10
45.195642
 20
403.607182
 40
1.3
  1
%%p０．１５
 41
0.862069
  0
TEXT
  8
001
 10
45.195642
 20
405.685707
 40
1.3
  1
%%p０．１
 41
0.869565
  0
TEXT
  8
001
 10
45.195642
 20
407.764232
 40
1.3
  1
%%p０．０５
 41
0.862069
  0
TEXT
  8
001
 10
45.195642
 20
409.842757
 40
1.3
  1
%%p０．０５
 41
0.862069
  0
TEXT
  8
001
 10
26.55694
 20
395.293083
 40
1.3
  1
２０００を超え ４０００以下
 41
0.833333
  0
TEXT
  8
001
 10
26.55694
 20
397.371608
 40
1.3
  1
１０００を超え ２０００以下
 41
0.833333
  0
TEXT
  8
001
 10
26.55694
 20
399.450133
 40
1.3
  1
　４００を超え １０００以下
 41
0.833333
  0
TEXT
  8
001
 10
26.55694
 20
401.528657
 40
1.3
  1
　１２０を超え　 ４００以下
 41
0.833333
  0
TEXT
  8
001
 10
26.55694
 20
403.607182
 40
1.3
  1
　　３０を超え　 １２０以下
 41
0.833333
  0
TEXT
  8
001
 10
26.55694
 20
409.842757
 40
1.3
  1
　　　　　　　　　　 ３以下
 41
0.833333
  0
TEXT
  8
001
 10
26.55694
 20
405.685707
 40
1.3
  1
　　　６を超え　　 ３０以下
 41
0.833333
  0
TEXT
  8
001
 10
26.55694
 20
407.764232
 40
1.3
  1
　　　３を超え　 　　６以下
 41
0.833333
  0
TEXT
  8
001
 10
30.835236
 20
411.95323
 40
1.3
  1
基準寸法の区分
 41
0.833333
  0
TEXT
  8
001
 10
45.195642
 20
395.293083
 40
1.3
  1
　　－
 41
0.833333
  0
TEXT
  8
001
 10
123.895404
 20
397.423585
 40
1.3
  1
３．２
 41
0.833333
  0
TEXT
  8
001
 10
115.96583
 20
397.423585
 40
1.3
  1
１２．５
 41
0.833333
  0
TEXT
  8
001
 10
102.339721
 20
400.583891
 40
1.3
  1
ＫＯＨＺＵ
 41
0.833333
  0
LINE
  8
001
 62
     4
 10
134.654653
 20
397.193507
 11
135.461814
 21
398.59155
  0
LINE
  8
001
 10
132.792295
 20
397.193507
 11
133.723474
 21
395.580657
  0
LINE
  8
001
 10
134.654653
 20
397.193507
 11
132.792295
 21
397.193507
  0
LINE
  8
001
 10
133.723474
 20
395.580657
 11
134.654653
 21
397.193507
  0
LINE
  8
001
 62
     4
 10
127.726237
 20
397.193507
 11
128.533398
 21
398.59155
  0
LINE
  8
001
 10
125.863879
 20
397.193507
 11
126.795058
 21
395.580657
  0
LINE
  8
001
 10
127.726237
 20
397.193507
 11
125.863879
 21
397.193507
  0
LINE
  8
001
 10
126.795058
 20
395.580657
 11
127.726237
 21
397.193507
  0
LINE
  8
001
 62
     4
 10
120.797821
 20
397.193507
 11
121.604982
 21
398.59155
  0
LINE
  8
001
 10
118.935463
 20
397.193507
 11
119.866642
 21
395.580657
  0
LINE
  8
001
 10
120.797821
 20
397.193507
 11
118.935463
 21
397.193507
  0
LINE
  8
001
 10
119.866642
 20
395.580657
 11
120.797821
 21
397.193507
  0
LINE
  8
001
 62
     4
 10
113.869405
 20
397.193507
 11
114.676566
 21
398.59155
  0
LINE
  8
001
 10
112.007047
 20
397.193507
 11
112.938226
 21
395.580657
  0
LINE
  8
001
 10
112.938226
 20
395.580657
 11
113.869405
 21
397.193507
  0
LINE
  8
001
 10
134.290914
 20
402.20391
 11
135.222093
 21
400.59106
  0
LINE
  8
001
 10
136.153272
 20
402.20391
 11
134.290914
 21
402.20391
  0
LINE
  8
001
 10
135.222093
 20
400.59106
 11
136.153272
 21
402.20391
  0
LINE
  8
001
 10
132.428556
 20
402.20391
 11
133.359735
 21
400.59106
  0
LINE
  8
001
 10
134.290914
 20
402.20391
 11
132.428556
 21
402.20391
  0
LINE
  8
001
 10
133.359735
 20
400.59106
 11
134.290914
 21
402.20391
  0
LINE
  8
001
 10
130.566198
 20
402.20391
 11
131.497377
 21
400.59106
  0
LINE
  8
001
 10
132.428556
 20
402.20391
 11
130.566198
 21
402.20391
  0
LINE
  8
001
 10
131.497377
 20
400.59106
 11
132.428556
 21
402.20391
  0
LINE
  8
001
 10
126.431319
 20
402.20391
 11
127.362498
 21
400.59106
  0
LINE
  8
001
 10
128.293677
 20
402.20391
 11
126.431319
 21
402.20391
  0
LINE
  8
001
 10
127.362498
 20
400.59106
 11
128.293677
 21
402.20391
  0
LINE
  8
001
 10
124.568961
 20
402.20391
 11
125.50014
 21
400.59106
  0
LINE
  8
001
 10
126.431319
 20
402.20391
 11
124.568961
 21
402.20391
  0
LINE
  8
001
 10
125.50014
 20
400.59106
 11
126.431319
 21
402.20391
  0
LINE
  8
001
 10
129.895527
 20
403.357376
 11
129.895527
 21
395.043277
  0
LINE
  8
001
 10
122.967111
 20
403.357376
 11
122.967111
 21
395.043277
  0
LINE
  8
001
 10
116.038695
 20
395.043277
 11
116.038695
 21
403.357376
  0
LINE
  8
001
 10
109.110279
 20
403.357376
 11
109.110279
 21
395.043277
  0
LINE
  8
001
 10
122.967111
 20
403.357376
 11
129.895527
 21
403.357376
  0
LINE
  8
001
 10
116.038695
 20
403.357376
 11
122.967111
 21
403.357376
  0
LINE
  8
001
 10
109.110279
 20
403.357376
 11
116.038695
 21
403.357376
  0
LINE
  8
001
 10
118.571724
 20
402.20391
 11
119.502903
 21
400.59106
  0
LINE
  8
001
 10
120.434082
 20
402.20391
 11
118.571724
 21
402.20391
  0
LINE
  8
001
 10
119.502903
 20
400.59106
 11
120.434082
 21
402.20391
  0
LINE
  8
001
 10
102.181863
 20
403.357376
 11
109.110279
 21
403.357376
  0
ARC
  8
001
 10
113.488422
 20
401.574122
 40
0.9830626367570009
 50
201.614779
 51
15.255119
  0
ARC
  8
001
 10
111.660552
 20
400.849872
 40
0.9830626367570009
 50
21.614779
 51
195.255119
  0
LINE
  8
001
 10
102.181863
 20
409.59295
 11
102.181863
 21
395.043277
  0
LINE
  8
001
 10
65.807679
 20
409.59295
 11
102.181863
 21
409.59295
  0
LINE
  8
001
 10
65.807679
 20
397.121802
 11
95.253447
 21
397.121802
  0
LINE
  8
001
 10
65.807679
 20
395.043277
 11
102.181863
 21
395.043277
  0
LINE
  8
001
 10
65.807679
 20
399.200326
 11
102.181863
 21
399.200326
  0
LINE
  8
001
 10
65.807679
 20
401.278851
 11
102.181863
 21
401.278851
  0
LINE
  8
001
 10
65.807679
 20
403.357376
 11
102.181863
 21
403.357376
  0
LINE
  8
001
 10
95.253447
 20
407.514426
 11
102.181863
 21
407.514426
  0
LINE
  8
001
 10
79.664511
 20
407.514426
 11
95.253447
 21
407.514426
  0
LINE
  8
001
 10
65.807679
 20
407.514426
 11
79.664511
 21
407.514426
  0
LINE
  8
001
 10
95.253447
 20
407.514426
 11
95.253447
 21
395.043277
  0
LINE
  8
001
 10
79.664511
 20
407.514426
 11
79.664511
 21
395.043277
  0
LINE
  8
001
 10
65.807679
 20
407.514426
 11
65.807679
 21
395.043277
  0
LINE
  8
001
 10
25.97046
 20
395.043277
 11
65.807679
 21
395.043277
  0
LINE
  8
001
 10
25.97046
 20
397.121802
 11
65.807679
 21
397.121802
  0
LINE
  8
001
 10
25.97046
 20
399.200326
 11
65.807679
 21
399.200326
  0
LINE
  8
001
 10
25.97046
 20
401.278851
 11
65.807679
 21
401.278851
  0
LINE
  8
001
 10
25.97046
 20
403.357376
 11
65.807679
 21
403.357376
  0
LINE
  8
001
 10
25.97046
 20
405.435901
 11
65.807679
 21
405.435901
  0
LINE
  8
001
 10
25.97046
 20
407.514426
 11
65.807679
 21
407.514426
  0
LINE
  8
001
 10
25.97046
 20
409.59295
 11
65.807679
 21
409.59295
  0
LINE
  8
001
 10
25.97046
 20
411.671475
 11
65.807679
 21
411.671475
  0
LINE
  8
001
 10
58.879263
 20
413.75
 11
65.807679
 21
413.75
  0
LINE
  8
001
 10
65.807679
 20
413.75
 11
65.807679
 21
395.043277
  0
LINE
  8
001
 10
51.950847
 20
413.75
 11
58.879263
 21
413.75
  0
LINE
  8
001
 10
58.879263
 20
413.75
 11
58.879263
 21
395.043277
  0
LINE
  8
001
 10
45.022431
 20
413.75
 11
51.950847
 21
413.75
  0
LINE
  8
001
 10
25.97046
 20
413.75
 11
45.022431
 21
413.75
  0
LINE
  8
001
 10
51.950847
 20
413.75
 11
51.950847
 21
395.043277
  0
LINE
  8
001
 10
45.022431
 20
413.75
 11
45.022431
 21
395.043277
  0
LINE
  8
001
 10
25.97046
 20
413.75
 11
25.97046
 21
395.043277
  0
CIRCLE
  8
001
 62
     4
 10
112.938226
 20
396.65589
 40
0.5376165550018516
  0
TEXT
  8
001
 10
138.607994
 20
397.423585
 40
1.3
  1
０．２
 41
0.833333
  0
LINE
  8
001
 62
     4
 10
142.061397
 20
397.193507
 11
142.868557
 21
398.59155
  0
LINE
  8
001
 10
140.199039
 20
397.193507
 11
141.130218
 21
395.580657
  0
LINE
  8
001
 10
142.061397
 20
397.193507
 11
140.199039
 21
397.193507
  0
LINE
  8
001
 10
141.130218
 20
395.580657
 11
142.061397
 21
397.193507
  0
LINE
  8
001
 10
102.181863
 20
395.043277
 11
144.752359
 21
395.043277
  0
LINE
  8
001
 10
102.181863
 20
399.200326
 11
144.752359
 21
399.200326
  0
LINE
  8
001
 10
129.895527
 20
403.357376
 11
144.752359
 21
403.357376
  0
LINE
  8
001
 10
102.181863
 20
405.435901
 11
144.752359
 21
405.435901
  0
LINE
  8
001
 10
142.628837
 20
402.20391
 11
143.560016
 21
400.59106
  0
LINE
  8
001
 10
144.491195
 20
402.20391
 11
142.628837
 21
402.20391
  0
LINE
  8
001
 10
143.560016
 20
400.59106
 11
144.491195
 21
402.20391
  0
LINE
  8
001
 10
140.766478
 20
402.20391
 11
141.697658
 21
400.59106
  0
LINE
  8
001
 10
142.628837
 20
402.20391
 11
140.766478
 21
402.20391
  0
LINE
  8
001
 10
141.697658
 20
400.59106
 11
142.628837
 21
402.20391
  0
LINE
  8
001
 10
138.90412
 20
402.20391
 11
139.835299
 21
400.59106
  0
LINE
  8
001
 10
140.766478
 20
402.20391
 11
138.90412
 21
402.20391
  0
LINE
  8
001
 10
139.835299
 20
400.59106
 11
140.766478
 21
402.20391
  0
LINE
  8
001
 10
137.041762
 20
402.20391
 11
137.972941
 21
400.59106
  0
LINE
  8
001
 10
138.90412
 20
402.20391
 11
137.041762
 21
402.20391
  0
LINE
  8
001
 10
137.972941
 20
400.59106
 11
138.90412
 21
402.20391
  0
LINE
  8
001
 10
136.823943
 20
403.357376
 11
136.823943
 21
395.043277
  0
LINE
  8
001
 10
144.752359
 20
405.435901
 11
144.752359
 21
395.043277
  0
ENDBLK
  8
0
  0
BLOCK
  8
0
  2
DIM-6
 70
     0
 10
0.0
 20
0.0
  0
TEXT
  8
001
 10
461.929293
 20
61.154701
 40
2.0
  1
１
 41
0.833333
  0
POLYLINE
  8
001
 66
     1
  0
VERTEX
  8
001
 10
460.929293
 20
61.0
  0
VERTEX
  8
001
 10
464.929293
 20
61.0
  0
VERTEX
  8
001
 10
462.929293
 20
64.464102
  0
VERTEX
  8
001
 10
460.929293
 20
61.0
  0
SEQEND
  8
001
  0
ENDBLK
  8
0
  0
BLOCK
  8
0
  2
JZB-5
 70
     0
 10
0.0
 20
0.0
  0
LINE
  8
001
 62
    13
 10
574.970457
 20
60.0
 11
399.970463
 21
60.0
  0
TEXT
  8
001
 10
475.889795
 20
60.569231
 40
3.5
  1
　　　　　　　　　　　　　　　　　　　　　　　　　　　　　　　　　　　
 41
0.666667
  0
TEXT
  8
001
 10
430.875694
 20
61.015056
 40
3.5
  1
　　　　．　　．　　
 41
0.666667
  0
TEXT
  8
001
 10
465.230695
 20
61.15669
 40
2.75
  1
×　
 41
0.625
  0
LINE
  8
001
 62
    13
 10
399.970463
 20
60.0
 11
399.970463
 21
65.5
  0
LINE
  8
001
 62
    13
 10
459.970463
 20
65.5
 11
459.970463
 21
60.0
  0
LINE
  8
001
 62
    13
 10
472.291212
 20
60.0
 11
472.291212
 21
65.5
  0
LINE
  8
001
 62
    13
 10
574.97046
 20
60.0
 11
574.97046
 21
65.5
  0
TEXT
  8
001
 10
403.587079
 20
61.267331
 40
2.75
  1
訂正：ＲＥＶＩＳＩＯＮＳ
 41
0.625
  0
LINE
  8
001
 62
    13
 10
574.970463
 20
65.5
 11
399.970463
 21
65.5
  0
INSERT
  8
001
  6
BYBLOCK
 62
     0
  2
DIM-6
 10
0.0
 20
0.0
 30
0.0
  0
ENDBLK
  8
0
  0
BLOCK
  8
0
  2
JZB-7
 70
     0
 10
0.0
 20
0.0
  0
TEXT
  8
001
 62
    13
 10
511.423676
 20
49.036257
 40
3.959674
  1
処　理
 41
0.494924
  0
TEXT
  8
001
 62
    13
 10
501.331403
 20
10.982842
 40
3.5
  1
.icd
 41
0.6
  0
TEXT
  8
001
 62
     6
 10
410.02273
 20
38.082393
 40
6.0
  1
神津精機株式会社
 41
0.833333
  0
LINE
  8
001
 62
     4
 10
554.386986
 20
53.5
 11
574.970463
 21
60.0
  0
LINE
  8
001
 62
    13
 10
521.362809
 20
40.5
 11
521.362809
 21
60.0
  0
LINE
  8
001
 62
    13
 10
521.362809
 20
10.0
 11
521.362809
 21
22.5
  0
LINE
  8
001
 62
    13
 10
508.606654
 20
22.5
 11
508.606654
 21
10.0
  0
LINE
  8
001
 62
    13
 10
508.606654
 20
60.0
 11
508.606654
 21
40.5
  0
TEXT
  8
001
 62
    13
 10
510.316992
 20
10.875
 40
2.75
  1
ＤＡＴＥ
 41
0.625
  0
TEXT
  8
001
 62
    13
 10
424.149108
 20
16.537058
 40
1.7
  1
ＳＴＤ／ＳＰＥＣ
 41
0.625
  0
TEXT
  8
001
 62
    13
 10
512.685624
 20
16.450003
 40
1.7
  1
ＭＦＴ
 41
0.625
  0
TEXT
  8
001
 62
    13
 10
510.265249
 20
18.117484
 40
3.959674
  1
メーカー
 41
0.494924
  0
TEXT
  8
001
 62
    13
 10
423.247383
 20
18.204539
 40
3.95967
  1
規格／仕様
 41
0.5
  0
LINE
  8
001
 62
    13
 10
472.291212
 20
34.0
 11
472.291212
 21
22.5
  0
LINE
  8
001
 62
    13
 10
459.970463
 20
60.0
 11
459.970463
 21
22.5
  0
LINE
  8
001
 62
    13
 10
439.175562
 20
22.5
 11
439.175562
 21
10.0
  0
LINE
  8
001
 62
    13
 10
554.386986
 20
34.0
 11
554.386986
 21
10.0
  0
LINE
  8
001
 62
     6
 10
554.386986
 20
34.0
 11
554.386986
 21
40.5
  0
LINE
  8
001
 62
    13
 10
554.386986
 20
40.5
 11
554.386986
 21
53.5
  0
LINE
  8
001
 62
     6
 10
472.291212
 20
34.0
 11
472.291212
 21
40.5
  0
LINE
  8
001
 62
    13
 10
472.291212
 20
40.5
 11
472.291212
 21
60.0
  0
LINE
  8
001
 62
    13
 10
472.291212
 20
40.5
 11
459.970463
 21
40.5
  0
LINE
  8
001
 62
     6
 10
472.291212
 20
40.5
 11
554.386986
 21
40.5
  0
LINE
  8
001
 62
    13
 10
472.291212
 20
34.0
 11
459.970463
 21
34.0
  0
LINE
  8
001
 62
     6
 10
472.291212
 20
34.0
 11
554.386986
 21
34.0
  0
LINE
  8
001
 62
     6
 10
399.970463
 20
10.0
 11
399.970463
 21
60.0
  0
LINE
  8
001
 62
     6
 10
574.97046
 20
10.0
 11
574.97046
 21
60.0
  0
TEXT
  8
001
 62
     6
 10
404.659014
 20
12.42026
 40
7.128988
  1
Ａ２
 41
0.625
  0
LINE
  8
001
 62
    13
 10
459.970463
 20
22.5
 11
554.386986
 21
22.5
  0
LINE
  8
001
 62
    13
 10
539.031778
 20
40.5
 11
539.031778
 21
47.0
  0
LINE
  8
001
 62
    13
 10
541.630831
 20
60.0
 11
541.630831
 21
53.5
  0
LINE
  8
001
 62
    13
 10
554.386986
 20
53.5
 11
554.386986
 21
60.0
  0
LINE
  8
001
 62
    13
 10
419.175562
 20
16.0
 11
554.386986
 21
16.0
  0
LINE
  8
001
 62
    13
 10
399.970463
 20
22.5
 11
459.970463
 21
22.5
  0
TEXT
  8
001
 62
    13
 10
421.470005
 20
11.375
 40
2.75
  1
ＦＩＬＥ　Ｎｏ．
 41
0.625
  0
LINE
  8
001
 62
    13
 10
554.386986
 20
24.5
 11
574.97046
 21
24.5
  0
TEXT
  8
001
 62
    13
 10
463.542602
 20
25.210767
 40
1.7
  1
ＴＩＴＬＥ
 41
0.625
  0
TEXT
  8
001
 62
    13
 10
462.804902
 20
26.878248
 40
3.959674
  1
名　称
 41
0.494924
  0
TEXT
  8
001
 62
    13
 10
464.049433
 20
47.368776
 40
1.7
  1
ＭＡＴＬ
 41
0.625
  0
TEXT
  8
001
 62
    13
 10
463.542602
 20
53.885843
 40
1.7
  1
ＭＯＤＥＬ
 41
0.625
  0
TEXT
  8
001
 62
    13
 10
462.804902
 20
49.036257
 40
3.959674
  1
材　質
 41
0.494924
  0
TEXT
  8
001
 62
    13
 10
462.482148
 20
55.562174
 40
3.959674
  1
型　式
 41
0.494924
  0
TEXT
  8
001
 62
    13
 10
462.52892
 20
34.285496
 40
1.7
  1
ＤＷＧ　Ｎｏ．
 41
0.625
  0
TEXT
  8
001
 62
    13
 10
511.785598
 20
47.368776
 40
1.7
  1
ＴＲＥＡＴ
 41
0.625
  0
TEXT
  8
001
 62
    13
 10
511.423676
 20
42.617484
 40
3.959674
  1
尺　度
 41
0.494924
  0
TEXT
  8
001
 62
    13
 10
462.787485
 20
35.952977
 40
3.959674
  1
図　番
 41
0.494924
  0
TEXT
  8
001
 62
    13
 10
556.04955
 20
18.020697
 40
1.7
  1
ＤＷＮ
 41
0.625
  0
TEXT
  8
001
 62
    13
 10
555.542719
 20
31.748569
 40
1.7
  1
ＤＳＧＮ
 41
0.625
  0
TEXT
  8
001
 62
    13
 10
555.231783
 20
19.913031
 40
3.959674
  1
製図
 41
0.494924
  0
TEXT
  8
001
 62
    13
 10
555.231783
 20
33.640903
 40
3.959674
  1
設計
 41
0.494924
  0
LINE
  8
001
 62
     6
 10
574.97046
 20
10.0
 11
399.970463
 21
10.0
  0
LINE
  8
001
 62
    13
 10
547.226768
 20
43.90392
 11
552.922296
 21
43.90392
  0
LINE
  8
001
 62
     6
 10
547.765534
 20
42.741428
 11
552.229596
 21
41.843931
  0
LINE
  8
001
 62
     6
 10
552.229596
 20
45.96391
 11
547.765534
 21
45.066413
  0
LINE
  8
001
 62
     6
 10
547.765534
 20
42.741428
 11
547.765534
 21
45.066413
  0
LINE
  8
001
 62
     6
 10
552.229596
 20
45.96391
 11
552.229596
 21
41.843931
  0
CIRCLE
  8
001
 62
     6
 10
543.224506
 20
43.90392
 40
2.059988999999973
  0
CIRCLE
  8
001
 62
     6
 10
543.224506
 20
43.90392
 40
1.162492000000043
  0
LINE
  8
001
 62
    13
 10
543.224506
 20
46.660185
 11
543.224506
 21
41.118591
  0
LINE
  8
001
 62
    13
 10
540.453709
 20
43.90392
 11
546.149236
 21
43.90392
  0
LINE
  8
001
 62
    13
 10
399.970463
 20
53.5
 11
459.970463
 21
53.5
  0
LINE
  8
001
 62
    13
 10
574.97046
 20
53.5
 11
459.970463
 21
53.5
  0
TEXT
  8
001
 62
    13
 10
511.47106
 20
53.885843
 40
1.7
  1
Ｓｅｒ．Ｎｏ
 41
0.625
  0
TEXT
  8
001
 62
    13
 10
511.423676
 20
55.553324
 40
3.959674
  1
通　番
 41
0.494924
  0
LINE
  8
001
 62
    13
 10
399.970463
 20
47.0
 11
459.970463
 21
47.0
  0
LINE
  8
001
 62
    13
 10
459.970463
 20
47.0
 11
554.386986
 21
47.0
  0
TEXT
  8
001
 62
    13
 10
511.785598
 20
40.950003
 40
1.7
  1
ＳＣＡＬＥ
 41
0.625
  0
LINE
  8
001
 62
    13
 10
419.175562
 20
60.0
 11
419.175562
 21
47.0
  0
LINE
  8
001
 62
     6
 10
408.158061
 20
39.132892
 11
408.158061
 21
42.948618
  0
LINE
  8
001
 62
     6
 10
407.658061
 20
39.213433
 11
407.658061
 21
42.69883
  0
LINE
  8
001
 62
     6
 10
407.158061
 20
39.316825
 11
407.158061
 21
42.479074
  0
LINE
  8
001
 62
     6
 10
406.658061
 20
39.443709
 11
406.658061
 21
42.287477
  0
LINE
  8
001
 62
     6
 10
406.158061
 20
39.594903
 11
406.158061
 21
42.122532
  0
LINE
  8
001
 62
     6
 10
405.658061
 20
39.771431
 11
405.658061
 21
41.983029
  0
LINE
  8
001
 62
     6
 10
405.158061
 20
39.974564
 11
405.158061
 21
41.867998
  0
LINE
  8
001
 62
     6
 10
404.658061
 20
40.205873
 11
404.658061
 21
41.776678
  0
LINE
  8
001
 62
     6
 10
404.158061
 20
40.467301
 11
404.158061
 21
41.708487
  0
LINE
  8
001
 62
     6
 10
403.658061
 20
40.761266
 11
403.658061
 21
41.663003
  0
LINE
  8
001
 62
     6
 10
403.158061
 20
41.090808
 11
403.158061
 21
41.63995
  0
ARC
  8
001
 62
     6
 10
402.890971
 20
52.866442
 40
11.22966899999999
 50
268.104383
 51
300.08076
  0
ARC
  8
001
 62
     6
 10
409.737289
 20
50.529122
 40
11.50513000000001
 50
231.144882
 51
263.924047
  0
ARC
  8
001
 62
     6
 10
403.019508
 20
43.584729
 40
0.5
 50
90.0
 51
180.0
  0
ARC
  8
001
 62
     6
 10
408.019508
 20
43.584729
 40
0.5
 50
0.0
 51
90.0
  0
TEXT
  8
001
 62
    13
 10
461.428155
 20
40.74306
 40
1.7
  1
ＤＥＳＩＧＮＡＴ
 41
0.625
  0
TEXT
  8
001
 62
    13
 10
461.629058
 20
42.617484
 40
3.959674
  1
材料指定
 41
0.494924
  0
ARC
  8
001
 62
     6
 10
408.019508
 20
38.584729
 40
0.5
 50
270.0
 51
0.0
  0
ARC
  8
001
 62
     6
 10
403.019508
 20
38.584729
 40
0.5
 50
180.0
 51
270.0
  0
LINE
  8
001
 62
     6
 10
408.019508
 20
38.084729
 11
403.019508
 21
38.084729
  0
LINE
  8
001
 62
     6
 10
408.519508
 20
43.584729
 11
408.519508
 21
38.584729
  0
LINE
  8
001
 62
     6
 10
402.519508
 20
43.584729
 11
402.519508
 21
38.584729
  0
LINE
  8
001
 62
     6
 10
408.019508
 20
44.084729
 11
403.019508
 21
44.084729
  0
TEXT
  8
001
 10
401.323012
 20
48.375
 40
2.75
  1
一般公差：ＤＥＶ
 41
0.625
  0
TEXT
  8
001
 10
403.385512
 20
54.982669
 40
2.75
  1
注記：ＡＮＴ
 41
0.625
  0
LINE
  8
001
 62
    13
 10
419.175562
 20
22.5
 11
419.175562
 21
10.0
  0
LINE
  8
001
 62
    13
 10
574.97046
 20
39.0
 11
554.386986
 21
39.0
  0
LINE
  8
001
 62
     4
 10
554.386986
 20
39.0
 11
574.97046
 21
53.5
  0
TEXT
  8
001
 62
    13
 10
408.713079
 20
26.748681
 40
2.5
  1
Ｐｒｅｃｉｓｉｏｎ　Ｃｏ．，　Ｌｔｄ．
 41
0.831918
  0
TEXT
  8
001
 62
    13
 10
416.885247
 20
30.119835
 40
6.0
  1
ＫＯＨＺＵ
 41
0.826584
  0
LINE
  8
001
 62
     6
 10
574.970463
 20
60.0
 11
399.970463
 21
60.0
  0
LINE
  8
001
 62
     4
 10
541.630831
 20
53.5
 11
554.386986
 21
60.0
  0
ENDBLK
  8
0
  0
BLOCK
  8
0
  2
SYS_FRAMETITLEDATA-8
 70
     0
 10
0.0
 20
0.0
  0
TEXT
  8
001
 10
523.545462
 20
11.545
 40
2.91
  1
２０１９．０４．１５
 41
0.833333
  0
TEXT
  8
001
 10
441.470463
 20
11.545
 40
2.91
  1
ＤＲ０５１２９６－０００１－０００－００
 41
0.833333
  0
TEXT
  8
001
 10
564.075463
 20
14.74
 40
3.27
  1
赤枝
 41
0.833333
  0
TEXT
  8
001
 10
477.970463
 20
26.195
 40
4.36
  1
Ｘステージ
 41
0.833333
  0
TEXT
  8
001
 10
564.075463
 20
29.99
 40
3.27
  1
赤枝
 41
0.833333
  0
TEXT
  8
001
 10
477.970463
 20
35.615
 40
3.27
  1
０５１２９６－０００１－０００－００
 41
0.833333
  0
TEXT
  8
001
 10
525.565463
 20
42.115
 40
3.27
  1
１／１
 41
0.833333
  0
TEXT
  8
001
 10
523.930463
 20
55.115
 40
3.27
  1
０００１
 41
0.833333
  0
TEXT
  8
001
 10
474.245462
 20
55.66
 40
2.18
  1
ＸＡ０７Ａ－Ｒ１０３－ＡＺ０１
 41
0.833333
  0
ENDBLK
  8
0
  0
BLOCK
  8
0
  2
JZB-9
 70
     0
 10
0.0
 20
0.0
  0
TEXT
  8
001
 10
468.104473
 20
363.416689
 40
5.293622
  1
本図は構想図の為、詳細設計で変更する場合があります
 41
0.625
  0
TEXT
  8
001
 10
468.493491
 20
359.63637
 40
3.053897
  1
Due to the draft drawing,
 41
0.843328
  0
LINE
  8
001
 10
569.17046
 20
370.475759
 11
466.741696
 21
370.475759
  0
LINE
  8
001
 10
466.741696
 20
370.475759
 11
466.741696
 21
353.709561
  0
LINE
  8
001
 10
466.741696
 20
353.709561
 11
569.17046
 21
353.709561
  0
LINE
  8
001
 10
569.17046
 20
353.709561
 11
569.17046
 21
370.475759
  0
LINE
  8
001
 10
569.97046
 20
371.275759
 11
465.941696
 21
371.275759
  0
LINE
  8
001
 10
465.941696
 20
371.275759
 11
465.941696
 21
352.909561
  0
LINE
  8
001
 10
465.941696
 20
352.909561
 11
569.97046
 21
352.909561
  0
LINE
  8
001
 10
569.97046
 20
352.909561
 11
569.97046
 21
371.275759
  0
TEXT
  8
001
 10
468.493485
 20
355.323748
 40
3.0
  1
ＫＯＨＺＵ　ｗｏｕｌｄ　ｃｈａｎｇｅ　ｔｈ
 41
0.625
  0
TEXT
  8
001
 10
515.743485
 20
355.323748
 40
3.0
  1
ｅ　ｄｅｔａｉｌ　ｄｅｓｉｇｎ　ｌａｔｅｒ．
 41
0.625
  0
ENDBLK
  8
0
  0
BLOCK
  8
0
  2
JZB-10
 70
     0
 10
0.0
 20
0.0
  0
TEXT
  8
001
 10
424.889606
 20
382.404465
 40
5.293622
  1
この図面を許可無く複写、転写することを禁じます。神津精機株式会社
 41
0.625
  0
TEXT
  8
001
 10
425.408277
 20
378.624146
 40
3.053897
  1
Copying of this drawing not　permissible without KOHZU consent.
 41
0.857406
  0
LINE
  8
001
 10
569.094673
 20
389.235967
 11
421.483531
 21
389.235967
  0
LINE
  8
001
 10
421.483531
 20
389.235967
 11
421.483531
 21
377.176774
  0
LINE
  8
001
 10
421.483531
 20
377.176774
 11
569.094673
 21
377.176774
  0
LINE
  8
001
 10
569.094673
 20
377.176774
 11
569.094673
 21
389.235967
  0
LINE
  8
001
 10
569.97046
 20
390.043277
 11
420.627566
 21
390.043277
  0
LINE
  8
001
 10
420.627566
 20
390.043277
 11
420.627566
 21
376.275759
  0
LINE
  8
001
 10
420.627566
 20
376.275759
 11
569.97046
 21
376.275759
  0
LINE
  8
001
 10
569.97046
 20
376.275759
 11
569.97046
 21
390.043277
  0
ENDBLK
  8
0
  0
BLOCK
  8
0
  2
DA007167-0101-000-00-11
 70
     0
 10
0.0
 20
0.0
  0
CIRCLE
  8
001
  6
HIDDEN
 10
461.083801
 20
255.013763
 40
3.75
  0
CIRCLE
  8
001
  6
HIDDEN
 10
461.083801
 20
195.013763
 40
3.75
  0
CIRCLE
  8
001
  6
HIDDEN
 10
521.083801
 20
195.013763
 40
3.75
  0
CIRCLE
  8
001
  6
HIDDEN
 10
521.083801
 20
255.013763
 40
3.75
  0
LINE
  8
001
  6
CENTER
 10
456.833801
 20
255.013763
 11
465.333801
 21
255.013763
  0
LINE
  8
001
  6
CENTER
 10
461.083801
 20
250.763763
 11
461.083801
 21
259.263763
  0
LINE
  8
001
  6
CENTER
 10
456.833801
 20
195.013763
 11
465.333801
 21
195.013763
  0
LINE
  8
001
  6
CENTER
 10
461.083801
 20
190.763763
 11
461.083801
 21
199.263763
  0
LINE
  8
001
  6
CENTER
 10
516.833801
 20
195.013763
 11
525.333801
 21
195.013763
  0
LINE
  8
001
  6
CENTER
 10
521.083801
 20
190.763763
 11
521.083801
 21
199.263763
  0
LINE
  8
001
  6
CENTER
 10
516.833801
 20
255.013763
 11
525.333801
 21
255.013763
  0
LINE
  8
001
  6
CENTER
 10
521.083801
 20
250.763763
 11
521.083801
 21
259.263763
  0
LINE
  8
001
  6
CENTER
 10
491.083801
 20
187.013763
 11
491.083801
 21
262.013763
  0
LINE
  8
001
  6
CENTER
 10
468.569304
 20
205.013763
 11
514.333801
 21
205.013763
  0
LINE
  8
001
  6
CENTER
 10
471.083801
 20
207.496769
 11
471.083801
 21
202.517841
  0
LINE
  8
001
  6
CENTER
 10
511.333801
 20
202.790735
 11
511.333801
 21
207.324183
  0
LINE
  8
001
  6
CENTER
 10
510.833801
 20
202.790112
 11
510.833801
 21
207.33996
  0
LINE
  8
001
  6
CENTER
 10
511.083801
 20
207.684523
 11
511.083801
 21
202.336786
  0
LINE
  8
001
  6
CENTER
 10
454.083801
 20
225.013763
 11
568.595625
 21
225.013763
  0
ENDBLK
  8
0
  0
BLOCK
  8
0
  2
JZB-12
 70
     0
 10
0.0
 20
0.0
  0
LINE
  8
001
 62
     4
 10
456.083801
 20
212.663763
 11
455.741187
 21
212.663763
  0
LINE
  8
001
 62
     4
 10
455.741187
 20
205.763763
 11
456.083801
 21
205.763763
  0
ARC
  8
001
 62
     4
 10
458.783801
 20
209.213763
 40
4.592646295982307
 50
183.245378
 51
198.404413
  0
LINE
  8
001
 62
     4
 10
454.426061
 20
207.763763
 11
454.418312
 21
207.763763
  0
ARC
  8
001
 62
     4
 10
458.783801
 20
209.213763
 40
4.365519452123944
 50
176.585578
 51
183.414422
  0
ARC
  8
001
 62
     4
 10
458.783801
 20
209.213763
 40
4.592646295982307
 50
161.595587
 51
176.754622
  0
LINE
  8
001
 62
     4
 10
454.19852
 20
209.473763
 11
454.426091
 21
209.473763
  0
ARC
  8
001
 62
     4
 10
458.783801
 20
209.213763
 40
4.365459872343305
 50
176.585532
 51
183.414468
  0
LINE
  8
001
 62
     4
 10
454.426091
 20
208.953763
 11
454.19852
 21
208.953763
  0
LINE
  8
001
 62
     4
 10
455.741187
 20
212.663763
 11
455.741187
 21
205.763763
  0
ARC
  8
001
 62
     4
 10
458.783801
 20
209.213763
 40
4.6
 50
198.373938
 51
228.590378
  0
ARC
  8
001
 62
     4
 10
458.783801
 20
209.213763
 40
4.6
 50
131.409622
 51
161.626062
  0
LINE
  8
001
 62
     4
 10
454.418312
 20
210.663763
 11
454.426061
 21
210.663763
  0
ENDBLK
  8
0
  0
BLOCK
  8
0
  2
JZB-13
 70
     0
 10
0.0
 20
0.0
  0
ARC
  8
001
 62
     4
 10
458.783801
 20
199.813763
 40
4.592646295982307
 50
183.245378
 51
198.404413
  0
LINE
  8
001
 62
     4
 10
454.426061
 20
198.363763
 11
454.418312
 21
198.363763
  0
ARC
  8
001
 62
     4
 10
458.783801
 20
199.813763
 40
4.365519452123944
 50
176.585578
 51
183.414422
  0
ARC
  8
001
 62
     4
 10
458.783801
 20
199.813763
 40
4.592646295982307
 50
161.595587
 51
176.754622
  0
LINE
  8
001
 62
     4
 10
454.19852
 20
200.073763
 11
454.426091
 21
200.073763
  0
ARC
  8
001
 62
     4
 10
458.783801
 20
199.813763
 40
4.365459872343305
 50
176.585532
 51
183.414468
  0
LINE
  8
001
 62
     4
 10
454.426091
 20
199.553763
 11
454.19852
 21
199.553763
  0
ARC
  8
001
 62
     4
 10
458.783801
 20
199.813763
 40
4.6
 50
198.373938
 51
228.590378
  0
ARC
  8
001
 62
     4
 10
458.783801
 20
199.813763
 40
4.6
 50
131.409622
 51
161.626062
  0
LINE
  8
001
 62
     4
 10
454.418312
 20
201.263763
 11
454.426061
 21
201.263763
  0
LINE
  8
001
 62
     4
 10
455.741187
 20
203.263763
 11
455.741187
 21
196.363763
  0
LINE
  8
001
 62
     4
 10
456.083801
 20
203.263763
 11
455.741187
 21
203.263763
  0
LINE
  8
001
 62
     4
 10
455.741187
 20
196.363763
 11
456.083801
 21
196.363763
  0
ENDBLK
  8
0
  0
BLOCK
  8
0
  2
DP007165-1030-00-14
 70
     0
 10
0.0
 20
0.0
  0
LINE
  8
001
 62
     3
 10
552.783801
 20
220.513763
 11
553.333801
 21
220.513763
  0
LINE
  8
001
 62
     3
 10
553.333801
 20
229.513763
 11
552.783801
 21
229.513763
  0
POLYLINE
  8
001
 62
     3
 66
     1
  0
VERTEX
  8
001
 62
     3
 10
554.033802
 20
218.518991
  0
VERTEX
  8
001
 62
     3
 10
554.04559
 20
218.441775
  0
VERTEX
  8
001
 62
     3
 10
554.066536
 20
218.368353
  0
VERTEX
  8
001
 62
     3
 10
554.140648
 20
218.256814
  0
VERTEX
  8
001
 62
     3
 10
554.246942
 20
218.167603
  0
VERTEX
  8
001
 62
     3
 10
554.403813
 20
218.081147
  0
VERTEX
  8
001
 62
     3
 10
554.570232
 20
218.020535
  0
VERTEX
  8
001
 62
     3
 10
554.786621
 20
217.966694
  0
VERTEX
  8
001
 62
     3
 10
555.007385
 20
217.931197
  0
VERTEX
  8
001
 62
     3
 10
555.254981
 20
217.908184
  0
VERTEX
  8
001
 62
     3
 10
555.50325
 20
217.899903
  0
VERTEX
  8
001
 62
     3
 10
555.748761
 20
217.904738
  0
VERTEX
  8
001
 62
     3
 10
555.9939
 20
217.923494
  0
VERTEX
  8
001
 62
     3
 10
556.21496
 20
217.954307
  0
VERTEX
  8
001
 62
     3
 10
556.432191
 20
218.001817
  0
VERTEX
  8
001
 62
     3
 10
556.608436
 20
218.05855
  0
VERTEX
  8
001
 62
     3
 10
556.777643
 20
218.140097
  0
VERTEX
  8
001
 62
     3
 10
556.898009
 20
218.226699
  0
VERTEX
  8
001
 62
     3
 10
556.985905
 20
218.33873
  0
VERTEX
  8
001
 62
     3
 10
557.016069
 20
218.425535
  0
VERTEX
  8
001
 62
     3
 10
557.033801
 20
218.518573
  0
SEQEND
  8
001
 62
     3
  0
POLYLINE
  8
001
 62
     3
 66
     1
  0
VERTEX
  8
001
 62
     3
 10
554.033802
 20
231.509372
  0
VERTEX
  8
001
 62
     3
 10
554.04643
 20
231.427119
  0
VERTEX
  8
001
 62
     3
 10
554.066536
 20
231.347514
  0
VERTEX
  8
001
 62
     3
 10
554.14038
 20
231.209298
  0
VERTEX
  8
001
 62
     3
 10
554.246942
 20
231.089214
  0
VERTEX
  8
001
 62
     3
 10
554.401287
 20
230.961511
  0
VERTEX
  8
001
 62
     3
 10
554.570232
 20
230.857412
  0
VERTEX
  8
001
 62
     3
 10
554.783374
 20
230.761287
  0
VERTEX
  8
001
 62
     3
 10
555.007385
 20
230.691735
  0
VERTEX
  8
001
 62
     3
 10
555.253616
 20
230.645542
  0
VERTEX
  8
001
 62
     3
 10
555.50325
 20
230.627935
  0
VERTEX
  8
001
 62
     3
 10
555.749805
 20
230.638297
  0
VERTEX
  8
001
 62
     3
 10
555.9939
 20
230.676339
  0
VERTEX
  8
001
 62
     3
 10
556.217798
 20
230.737585
  0
VERTEX
  8
001
 62
     3
 10
556.432191
 20
230.824504
  0
VERTEX
  8
001
 62
     3
 10
556.611461
 20
230.924747
  0
VERTEX
  8
001
 62
     3
 10
556.777643
 20
231.049064
  0
VERTEX
  8
001
 62
     3
 10
556.898521
 20
231.170492
  0
VERTEX
  8
001
 62
     3
 10
556.985905
 20
231.312774
  0
VERTEX
  8
001
 62
     3
 10
557.015014
 20
231.408716
  0
VERTEX
  8
001
 62
     3
 10
557.033801
 20
231.508954
  0
SEQEND
  8
001
 62
     3
  0
LINE
  8
001
 62
     3
 10
557.833801
 20
217.513763
 11
557.833801
 21
232.513763
  0
LINE
  8
001
 62
     3
 10
553.333801
 20
217.513763
 11
553.333801
 21
232.513763
  0
LINE
  8
001
 62
     3
 10
557.833801
 20
226.513763
 11
553.333801
 21
226.513763
  0
POLYLINE
  8
001
 62
     3
 66
     1
  0
VERTEX
  8
001
 62
     3
 10
557.033801
 20
231.508954
  0
VERTEX
  8
001
 62
     3
 10
557.001917
 20
231.630853
  0
VERTEX
  8
001
 62
     3
 10
556.951176
 20
231.740506
  0
VERTEX
  8
001
 62
     3
 10
556.846795
 20
231.844989
  0
VERTEX
  8
001
 62
     3
 10
556.713462
 20
231.922453
  0
VERTEX
  8
001
 62
     3
 10
556.529883
 20
231.996374
  0
VERTEX
  8
001
 62
     3
 10
556.342156
 20
232.047889
  0
VERTEX
  8
001
 62
     3
 10
556.110315
 20
232.089854
  0
VERTEX
  8
001
 62
     3
 10
555.874922
 20
232.114926
  0
VERTEX
  8
001
 62
     3
 10
555.62453
 20
232.12686
  0
VERTEX
  8
001
 62
     3
 10
555.374197
 20
232.124968
  0
VERTEX
  8
001
 62
     3
 10
555.135855
 20
232.11033
  0
VERTEX
  8
001
 62
     3
 10
554.89878
 20
232.080918
  0
VERTEX
  8
001
 62
     3
 10
554.692402
 20
232.04005
  0
VERTEX
  8
001
 62
     3
 10
554.490705
 20
231.980487
  0
VERTEX
  8
001
 62
     3
 10
554.334451
 20
231.913602
  0
VERTEX
  8
001
 62
     3
 10
554.192411
 20
231.818543
  0
VERTEX
  8
001
 62
     3
 10
554.100926
 20
231.719201
  0
VERTEX
  8
001
 62
     3
 10
554.045456
 20
231.600255
  0
VERTEX
  8
001
 62
     3
 10
554.037874
 20
231.555258
  0
VERTEX
  8
001
 62
     3
 10
554.033802
 20
231.509372
  0
SEQEND
  8
001
 62
     3
  0
LINE
  8
001
 62
     3
 10
557.833801
 20
232.513763
 11
553.333801
 21
232.513763
  0
LINE
  8
001
 62
     3
 10
553.333801
 20
223.513763
 11
557.833801
 21
223.513763
  0
POLYLINE
  8
001
 62
     3
 66
     1
  0
VERTEX
  8
001
 62
     3
 10
557.033801
 20
218.518573
  0
VERTEX
  8
001
 62
     3
 10
557.000689
 20
218.652554
  0
VERTEX
  8
001
 62
     3
 10
556.951176
 20
218.777989
  0
VERTEX
  8
001
 62
     3
 10
556.847601
 20
218.916008
  0
VERTEX
  8
001
 62
     3
 10
556.713462
 20
219.031572
  0
VERTEX
  8
001
 62
     3
 10
556.533398
 20
219.149456
  0
VERTEX
  8
001
 62
     3
 10
556.342156
 20
219.24319
  0
VERTEX
  8
001
 62
     3
 10
556.112869
 20
219.322169
  0
VERTEX
  8
001
 62
     3
 10
555.874922
 20
219.373298
  0
VERTEX
  8
001
 62
     3
 10
555.625
 20
219.397892
  0
VERTEX
  8
001
 62
     3
 10
555.374197
 20
219.394044
  0
VERTEX
  8
001
 62
     3
 10
555.134071
 20
219.363317
  0
VERTEX
  8
001
 62
     3
 10
554.89878
 20
219.30556
  0
VERTEX
  8
001
 62
     3
 10
554.688978
 20
219.227636
  0
VERTEX
  8
001
 62
     3
 10
554.490705
 20
219.124977
  0
VERTEX
  8
001
 62
     3
 10
554.33269
 20
219.014703
  0
VERTEX
  8
001
 62
     3
 10
554.192411
 20
218.880306
  0
VERTEX
  8
001
 62
     3
 10
554.101019
 20
218.754957
  0
VERTEX
  8
001
 62
     3
 10
554.045456
 20
218.613897
  0
VERTEX
  8
001
 62
     3
 10
554.038217
 20
218.566777
  0
VERTEX
  8
001
 62
     3
 10
554.033802
 20
218.518991
  0
SEQEND
  8
001
 62
     3
  0
LINE
  8
001
 62
     3
 10
553.333801
 20
217.513763
 11
557.833801
 21
217.513763
  0
ENDBLK
  8
0
  0
BLOCK
  8
0
  2
DP007165-1020-00-15
 70
     0
 10
0.0
 20
0.0
  0
LINE
  8
001
 62
     3
 10
552.583801
 20
217.013763
 11
552.783801
 21
217.013763
  0
LINE
  8
001
 62
     3
 10
552.783801
 20
233.013763
 11
552.583801
 21
233.013763
  0
LINE
  8
001
 62
     3
 10
552.783801
 20
217.013763
 11
552.783801
 21
233.013763
  0
ENDBLK
  8
0
  0
BLOCK
  8
0
  2
DP007205-1020-00-16
 70
     0
 10
0.0
 20
0.0
  0
LINE
  8
001
 10
536.533801
 20
227.013763
 11
535.533801
 21
227.013763
  0
LINE
  8
001
 10
535.533801
 20
223.013763
 11
536.533801
 21
223.013763
  0
LINE
  8
001
 10
558.333801
 20
227.513763
 11
557.833801
 21
227.513763
  0
LINE
  8
001
 10
557.833801
 20
222.513763
 11
558.333801
 21
222.513763
  0
LINE
  8
001
 10
535.533801
 20
227.513763
 11
535.533801
 21
222.513763
  0
LINE
  8
001
 10
535.533801
 20
227.513763
 11
534.083801
 21
227.513763
  0
LINE
  8
001
 10
534.083801
 20
222.513763
 11
535.533801
 21
222.513763
  0
LINE
  8
001
 10
537.583801
 20
229.013763
 11
536.533801
 21
229.013763
  0
LINE
  8
001
 10
536.533801
 20
221.013763
 11
536.533801
 21
229.013763
  0
LINE
  8
001
 10
537.583801
 20
221.013763
 11
536.533801
 21
221.013763
  0
ENDBLK
  8
0
  0
BLOCK
  8
0
  2
JZB-17
 70
     0
 10
0.0
 20
0.0
  0
LINE
  8
001
 62
     4
 10
456.083801
 20
253.663763
 11
455.741187
 21
253.663763
  0
LINE
  8
001
 62
     4
 10
455.741187
 20
246.763763
 11
456.083801
 21
246.763763
  0
ARC
  8
001
 62
     4
 10
458.783801
 20
250.213763
 40
4.592646295982307
 50
183.245378
 51
198.404413
  0
LINE
  8
001
 62
     4
 10
454.426061
 20
248.763763
 11
454.418312
 21
248.763763
  0
ARC
  8
001
 62
     4
 10
458.783801
 20
250.213763
 40
4.365519452123944
 50
176.585578
 51
183.414422
  0
ARC
  8
001
 62
     4
 10
458.783801
 20
250.213763
 40
4.592646295982307
 50
161.595587
 51
176.754622
  0
LINE
  8
001
 62
     4
 10
454.19852
 20
250.473763
 11
454.426091
 21
250.473763
  0
ARC
  8
001
 62
     4
 10
458.783801
 20
250.213763
 40
4.365459872343305
 50
176.585532
 51
183.414468
  0
LINE
  8
001
 62
     4
 10
454.426091
 20
249.953763
 11
454.19852
 21
249.953763
  0
LINE
  8
001
 62
     4
 10
455.741187
 20
253.663763
 11
455.741187
 21
246.763763
  0
ARC
  8
001
 62
     4
 10
458.783801
 20
250.213763
 40
4.6
 50
198.373938
 51
228.590378
  0
ARC
  8
001
 62
     4
 10
458.783801
 20
250.213763
 40
4.6
 50
131.409622
 51
161.626062
  0
LINE
  8
001
 62
     4
 10
454.418312
 20
251.663763
 11
454.426061
 21
251.663763
  0
ENDBLK
  8
0
  0
BLOCK
  8
0
  2
JZB-18
 70
     0
 10
0.0
 20
0.0
  0
LINE
  8
001
 62
     4
 10
456.083801
 20
244.263763
 11
455.741187
 21
244.263763
  0
LINE
  8
001
 62
     4
 10
455.741187
 20
237.363763
 11
456.083801
 21
237.363763
  0
ARC
  8
001
 62
     4
 10
458.783801
 20
240.813763
 40
4.592646295982307
 50
183.245378
 51
198.404413
  0
LINE
  8
001
 62
     4
 10
454.426061
 20
239.363763
 11
454.418312
 21
239.363763
  0
ARC
  8
001
 62
     4
 10
458.783801
 20
240.813763
 40
4.365519452123944
 50
176.585578
 51
183.414422
  0
ARC
  8
001
 62
     4
 10
458.783801
 20
240.813763
 40
4.592646295982307
 50
161.595587
 51
176.754622
  0
LINE
  8
001
 62
     4
 10
454.19852
 20
241.073763
 11
454.426091
 21
241.073763
  0
ARC
  8
001
 62
     4
 10
458.783801
 20
240.813763
 40
4.365459872343305
 50
176.585532
 51
183.414468
  0
LINE
  8
001
 62
     4
 10
454.426091
 20
240.553763
 11
454.19852
 21
240.553763
  0
LINE
  8
001
 62
     4
 10
455.741187
 20
244.263763
 11
455.741187
 21
237.363763
  0
ARC
  8
001
 62
     4
 10
458.783801
 20
240.813763
 40
4.6
 50
198.373938
 51
228.590378
  0
ARC
  8
001
 62
     4
 10
458.783801
 20
240.813763
 40
4.6
 50
131.409622
 51
161.626062
  0
LINE
  8
001
 62
     4
 10
454.418312
 20
242.263763
 11
454.426061
 21
242.263763
  0
ENDBLK
  8
0
  0
BLOCK
  8
0
  2
JZB-19
 70
     0
 10
0.0
 20
0.0
  0
CIRCLE
  8
001
 62
     4
 10
561.583801
 20
243.013765
 40
1.300000000000012
  0
ENDBLK
  8
0
  0
BLOCK
  8
0
  2
JZB-20
 70
     0
 10
0.0
 20
0.0
  0
CIRCLE
  8
001
 62
     4
 10
467.083801
 20
239.513763
 40
2.749999999999998
  0
LINE
  8
001
 62
     4
 10
465.841055
 20
238.796263
 11
467.083801
 21
238.078763
  0
LINE
  8
001
 62
     4
 10
465.841055
 20
240.231263
 11
465.841055
 21
238.796263
  0
LINE
  8
001
 62
     4
 10
468.326548
 20
240.231263
 11
467.083801
 21
240.948763
  0
LINE
  8
001
 62
     4
 10
467.083801
 20
238.078763
 11
468.326548
 21
238.796263
  0
LINE
  8
001
 62
     4
 10
467.083801
 20
240.948763
 11
465.841055
 21
240.231263
  0
CIRCLE
  8
001
 62
     4
 10
467.083801
 20
239.513763
 40
2.449999999999992
  0
LINE
  8
001
 62
     4
 10
468.326548
 20
238.796263
 11
468.326548
 21
240.231263
  0
ENDBLK
  8
0
  0
BLOCK
  8
0
  2
JZB-21
 70
     0
 10
0.0
 20
0.0
  0
CIRCLE
  8
001
 62
     4
 10
483.083801
 20
239.513763
 40
2.749999999999998
  0
LINE
  8
001
 62
     4
 10
481.841055
 20
238.796263
 11
483.083801
 21
238.078763
  0
LINE
  8
001
 62
     4
 10
483.083801
 20
238.078763
 11
484.326548
 21
238.796263
  0
CIRCLE
  8
001
 62
     4
 10
483.083801
 20
239.513763
 40
2.449999999999992
  0
LINE
  8
001
 62
     4
 10
481.841055
 20
240.231263
 11
481.841055
 21
238.796263
  0
LINE
  8
001
 62
     4
 10
483.083801
 20
240.948763
 11
481.841055
 21
240.231263
  0
LINE
  8
001
 62
     4
 10
484.326548
 20
240.231263
 11
483.083801
 21
240.948763
  0
LINE
  8
001
 62
     4
 10
484.326548
 20
238.796263
 11
484.326548
 21
240.231263
  0
ENDBLK
  8
0
  0
BLOCK
  8
0
  2
JZB-22
 70
     0
 10
0.0
 20
0.0
  0
CIRCLE
  8
001
 62
     4
 10
499.083801
 20
239.513763
 40
2.749999999999998
  0
LINE
  8
001
 62
     4
 10
500.326548
 20
240.231263
 11
499.083801
 21
240.948763
  0
LINE
  8
001
 62
     4
 10
500.326548
 20
238.796263
 11
500.326548
 21
240.231263
  0
CIRCLE
  8
001
 62
     4
 10
499.083801
 20
239.513763
 40
2.449999999999992
  0
LINE
  8
001
 62
     4
 10
499.083801
 20
238.078763
 11
500.326548
 21
238.796263
  0
LINE
  8
001
 62
     4
 10
497.841055
 20
238.796263
 11
499.083801
 21
238.078763
  0
LINE
  8
001
 62
     4
 10
497.841055
 20
240.231263
 11
497.841055
 21
238.796263
  0
LINE
  8
001
 62
     4
 10
499.083801
 20
240.948763
 11
497.841055
 21
240.231263
  0
ENDBLK
  8
0
  0
BLOCK
  8
0
  2
JZB-23
 70
     0
 10
0.0
 20
0.0
  0
CIRCLE
  8
001
 62
     4
 10
515.083801
 20
239.513763
 40
2.749999999999998
  0
CIRCLE
  8
001
 62
     4
 10
515.083801
 20
239.513763
 40
2.449999999999992
  0
LINE
  8
001
 62
     4
 10
515.083801
 20
238.078763
 11
516.326548
 21
238.796263
  0
LINE
  8
001
 62
     4
 10
513.841055
 20
238.796263
 11
515.083801
 21
238.078763
  0
LINE
  8
001
 62
     4
 10
513.841055
 20
240.231263
 11
513.841055
 21
238.796263
  0
LINE
  8
001
 62
     4
 10
515.083801
 20
240.948763
 11
513.841055
 21
240.231263
  0
LINE
  8
001
 62
     4
 10
516.326548
 20
240.231263
 11
515.083801
 21
240.948763
  0
LINE
  8
001
 62
     4
 10
516.326548
 20
238.796263
 11
516.326548
 21
240.231263
  0
ENDBLK
  8
0
  0
BLOCK
  8
0
  2
JZB-24
 70
     0
 10
0.0
 20
0.0
  0
LINE
  8
001
 62
     4
 10
555.533801
 20
219.384598
 11
555.533801
 21
218.518573
  0
LINE
  8
001
 62
     4
 10
554.783801
 20
218.735079
 11
554.783801
 21
219.168092
  0
LINE
  8
001
 62
     4
 10
554.783801
 20
219.168092
 11
555.533801
 21
219.384598
  0
LINE
  8
001
 62
     4
 10
555.533801
 20
219.384598
 11
556.283801
 21
219.168092
  0
LINE
  8
001
 62
     4
 10
556.283801
 20
219.168092
 11
556.283801
 21
218.735079
  0
LINE
  8
001
 62
     4
 10
556.283801
 20
218.735079
 11
555.533801
 21
218.518573
  0
LINE
  8
001
 62
     4
 10
555.533801
 20
218.518573
 11
554.783801
 21
218.735079
  0
POLYLINE
  8
001
 62
     4
 66
     1
  0
VERTEX
  8
001
 62
     4
 10
556.758546
 20
218.752833
  0
VERTEX
  8
001
 62
     4
 10
556.796407
 20
218.780927
  0
VERTEX
  8
001
 62
     4
 10
556.832839
 20
218.810845
  0
VERTEX
  8
001
 62
     4
 10
556.859122
 20
218.834589
  0
VERTEX
  8
001
 62
     4
 10
556.884325
 20
218.859469
  0
SEQEND
  8
001
 62
     4
  0
POLYLINE
  8
001
 62
     4
 66
     1
  0
VERTEX
  8
001
 62
     4
 10
554.529919
 20
218.59666
  0
VERTEX
  8
001
 62
     4
 10
554.560539
 20
218.575943
  0
VERTEX
  8
001
 62
     4
 10
554.59195
 20
218.556432
  0
VERTEX
  8
001
 62
     4
 10
554.666373
 20
218.515898
  0
VERTEX
  8
001
 62
     4
 10
554.743494
 20
218.48066
  0
VERTEX
  8
001
 62
     4
 10
554.830385
 20
218.447377
  0
VERTEX
  8
001
 62
     4
 10
554.919051
 20
218.419196
  0
VERTEX
  8
001
 62
     4
 10
555.015595
 20
218.394101
  0
VERTEX
  8
001
 62
     4
 10
555.113288
 20
218.37391
  0
VERTEX
  8
001
 62
     4
 10
555.216475
 20
218.35766
  0
VERTEX
  8
001
 62
     4
 10
555.320301
 20
218.346175
  0
VERTEX
  8
001
 62
     4
 10
555.426948
 20
218.339159
  0
VERTEX
  8
001
 62
     4
 10
555.533801
 20
218.336836
  0
SEQEND
  8
001
 62
     4
  0
LINE
  8
001
 62
     4
 10
556.537684
 20
218.59666
 11
556.758546
 21
218.752833
  0
LINE
  8
001
 62
     4
 10
554.309056
 20
218.752833
 11
554.529919
 21
218.59666
  0
POLYLINE
  8
001
 62
     4
 66
     1
  0
VERTEX
  8
001
 62
     4
 10
554.174038
 20
218.869206
  0
VERTEX
  8
001
 62
     4
 10
554.203615
 20
218.839218
  0
VERTEX
  8
001
 62
     4
 10
554.234763
 20
218.810845
  0
VERTEX
  8
001
 62
     4
 10
554.271198
 20
218.780925
  0
VERTEX
  8
001
 62
     4
 10
554.309056
 20
218.752833
  0
SEQEND
  8
001
 62
     4
  0
POLYLINE
  8
001
 62
     4
 66
     1
  0
VERTEX
  8
001
 62
     4
 10
556.537684
 20
218.59666
  0
VERTEX
  8
001
 62
     4
 10
556.568707
 20
218.619681
  0
VERTEX
  8
001
 62
     4
 10
556.59858
 20
218.644211
  0
VERTEX
  8
001
 62
     4
 10
556.646635
 20
218.690183
  0
VERTEX
  8
001
 62
     4
 10
556.689153
 20
218.741329
  0
VERTEX
  8
001
 62
     4
 10
556.72067
 20
218.79108
  0
VERTEX
  8
001
 62
     4
 10
556.744622
 20
218.844835
  0
VERTEX
  8
001
 62
     4
 10
556.758453
 20
218.897467
  0
VERTEX
  8
001
 62
     4
 10
556.763301
 20
218.951586
  0
VERTEX
  8
001
 62
     4
 10
556.7618
 20
218.982002
  0
VERTEX
  8
001
 62
     4
 10
556.757329
 20
219.012106
  0
SEQEND
  8
001
 62
     4
  0
POLYLINE
  8
001
 62
     4
 66
     1
  0
VERTEX
  8
001
 62
     4
 10
554.305088
 20
218.973568
  0
VERTEX
  8
001
 62
     4
 10
554.304493
 20
218.962585
  0
VERTEX
  8
001
 62
     4
 10
554.304301
 20
218.951586
  0
VERTEX
  8
001
 62
     4
 10
554.309148
 20
218.897498
  0
VERTEX
  8
001
 62
     4
 10
554.32298
 20
218.844835
  0
VERTEX
  8
001
 62
     4
 10
554.346933
 20
218.791071
  0
VERTEX
  8
001
 62
     4
 10
554.378449
 20
218.741329
  0
VERTEX
  8
001
 62
     4
 10
554.420967
 20
218.690186
  0
VERTEX
  8
001
 62
     4
 10
554.469023
 20
218.644211
  0
VERTEX
  8
001
 62
     4
 10
554.498896
 20
218.619681
  0
VERTEX
  8
001
 62
     4
 10
554.529919
 20
218.59666
  0
SEQEND
  8
001
 62
     4
  0
POLYLINE
  8
001
 62
     4
 66
     1
  0
VERTEX
  8
001
 62
     4
 10
555.533801
 20
218.336836
  0
VERTEX
  8
001
 62
     4
 10
555.640654
 20
218.339159
  0
VERTEX
  8
001
 62
     4
 10
555.747302
 20
218.346175
  0
VERTEX
  8
001
 62
     4
 10
555.851127
 20
218.35766
  0
VERTEX
  8
001
 62
     4
 10
555.954315
 20
218.37391
  0
VERTEX
  8
001
 62
     4
 10
556.052008
 20
218.394101
  0
VERTEX
  8
001
 62
     4
 10
556.148551
 20
218.419196
  0
VERTEX
  8
001
 62
     4
 10
556.237218
 20
218.447377
  0
VERTEX
  8
001
 62
     4
 10
556.324109
 20
218.48066
  0
VERTEX
  8
001
 62
     4
 10
556.40123
 20
218.515898
  0
VERTEX
  8
001
 62
     4
 10
556.475653
 20
218.556432
  0
VERTEX
  8
001
 62
     4
 10
556.507063
 20
218.575943
  0
VERTEX
  8
001
 62
     4
 10
556.537684
 20
218.59666
  0
SEQEND
  8
001
 62
     4
  0
ENDBLK
  8
0
  0
BLOCK
  8
0
  2
JZB-25
 70
     0
 10
0.0
 20
0.0
  0
LINE
  8
001
 62
     4
 10
555.533801
 20
230.642929
 11
555.533801
 21
231.508954
  0
LINE
  8
001
 62
     4
 10
554.783801
 20
230.859435
 11
554.783801
 21
231.292448
  0
LINE
  8
001
 62
     4
 10
554.783801
 20
231.292448
 11
555.533801
 21
231.508954
  0
LINE
  8
001
 62
     4
 10
555.533801
 20
231.508954
 11
556.283801
 21
231.292448
  0
LINE
  8
001
 62
     4
 10
556.283801
 20
231.292448
 11
556.283801
 21
230.859435
  0
LINE
  8
001
 62
     4
 10
556.283801
 20
230.859435
 11
555.533801
 21
230.642929
  0
LINE
  8
001
 62
     4
 10
555.533801
 20
230.642929
 11
554.783801
 21
230.859435
  0
POLYLINE
  8
001
 62
     4
 66
     1
  0
VERTEX
  8
001
 62
     4
 10
554.309056
 20
231.274694
  0
VERTEX
  8
001
 62
     4
 10
554.271195
 20
231.2466
  0
VERTEX
  8
001
 62
     4
 10
554.234763
 20
231.216681
  0
VERTEX
  8
001
 62
     4
 10
554.209882
 20
231.194256
  0
VERTEX
  8
001
 62
     4
 10
554.185958
 20
231.170816
  0
SEQEND
  8
001
 62
     4
  0
POLYLINE
  8
001
 62
     4
 66
     1
  0
VERTEX
  8
001
 62
     4
 10
554.529919
 20
231.430867
  0
VERTEX
  8
001
 62
     4
 10
554.498896
 20
231.407846
  0
VERTEX
  8
001
 62
     4
 10
554.469023
 20
231.383316
  0
VERTEX
  8
001
 62
     4
 10
554.420967
 20
231.337342
  0
VERTEX
  8
001
 62
     4
 10
554.378449
 20
231.286198
  0
VERTEX
  8
001
 62
     4
 10
554.346932
 20
231.236451
  0
VERTEX
  8
001
 62
     4
 10
554.32298
 20
231.182691
  0
VERTEX
  8
001
 62
     4
 10
554.309152
 20
231.130047
  0
VERTEX
  8
001
 62
     4
 10
554.304301
 20
231.075941
  0
VERTEX
  8
001
 62
     4
 10
554.305123
 20
231.053351
  0
VERTEX
  8
001
 62
     4
 10
554.307607
 20
231.030892
  0
SEQEND
  8
001
 62
     4
  0
LINE
  8
001
 62
     4
 10
554.529919
 20
231.430867
 11
554.309056
 21
231.274694
  0
LINE
  8
001
 62
     4
 10
556.758546
 20
231.274694
 11
556.537684
 21
231.430867
  0
POLYLINE
  8
001
 62
     4
 66
     1
  0
VERTEX
  8
001
 62
     4
 10
556.887978
 20
231.164251
  0
VERTEX
  8
001
 62
     4
 10
556.861039
 20
231.191123
  0
VERTEX
  8
001
 62
     4
 10
556.832839
 20
231.216681
  0
VERTEX
  8
001
 62
     4
 10
556.796406
 20
231.246601
  0
VERTEX
  8
001
 62
     4
 10
556.758546
 20
231.274694
  0
SEQEND
  8
001
 62
     4
  0
POLYLINE
  8
001
 62
     4
 66
     1
  0
VERTEX
  8
001
 62
     4
 10
556.537684
 20
231.430867
  0
VERTEX
  8
001
 62
     4
 10
556.507063
 20
231.451583
  0
VERTEX
  8
001
 62
     4
 10
556.475653
 20
231.471095
  0
VERTEX
  8
001
 62
     4
 10
556.40123
 20
231.511629
  0
VERTEX
  8
001
 62
     4
 10
556.324109
 20
231.546867
  0
VERTEX
  8
001
 62
     4
 10
556.237218
 20
231.58015
  0
VERTEX
  8
001
 62
     4
 10
556.148551
 20
231.60833
  0
VERTEX
  8
001
 62
     4
 10
556.052008
 20
231.633426
  0
VERTEX
  8
001
 62
     4
 10
555.954315
 20
231.653617
  0
VERTEX
  8
001
 62
     4
 10
555.851127
 20
231.669867
  0
VERTEX
  8
001
 62
     4
 10
555.747302
 20
231.681352
  0
VERTEX
  8
001
 62
     4
 10
555.640654
 20
231.688368
  0
VERTEX
  8
001
 62
     4
 10
555.533801
 20
231.690691
  0
VERTEX
  8
001
 62
     4
 10
555.426948
 20
231.688368
  0
VERTEX
  8
001
 62
     4
 10
555.320301
 20
231.681352
  0
VERTEX
  8
001
 62
     4
 10
555.216475
 20
231.669867
  0
VERTEX
  8
001
 62
     4
 10
555.113288
 20
231.653617
  0
VERTEX
  8
001
 62
     4
 10
555.015595
 20
231.633426
  0
VERTEX
  8
001
 62
     4
 10
554.919051
 20
231.60833
  0
VERTEX
  8
001
 62
     4
 10
554.830385
 20
231.58015
  0
VERTEX
  8
001
 62
     4
 10
554.743494
 20
231.546867
  0
VERTEX
  8
001
 62
     4
 10
554.666373
 20
231.511629
  0
VERTEX
  8
001
 62
     4
 10
554.59195
 20
231.471095
  0
VERTEX
  8
001
 62
     4
 10
554.560539
 20
231.451583
  0
VERTEX
  8
001
 62
     4
 10
554.529919
 20
231.430867
  0
SEQEND
  8
001
 62
     4
  0
POLYLINE
  8
001
 62
     4
 66
     1
  0
VERTEX
  8
001
 62
     4
 10
556.760432
 20
231.033968
  0
VERTEX
  8
001
 62
     4
 10
556.762589
 20
231.054902
  0
VERTEX
  8
001
 62
     4
 10
556.763301
 20
231.075941
  0
VERTEX
  8
001
 62
     4
 10
556.758451
 20
231.130044
  0
VERTEX
  8
001
 62
     4
 10
556.744622
 20
231.182691
  0
VERTEX
  8
001
 62
     4
 10
556.720671
 20
231.236452
  0
VERTEX
  8
001
 62
     4
 10
556.689153
 20
231.286198
  0
VERTEX
  8
001
 62
     4
 10
556.646635
 20
231.337342
  0
VERTEX
  8
001
 62
     4
 10
556.59858
 20
231.383316
  0
VERTEX
  8
001
 62
     4
 10
556.568707
 20
231.407846
  0
VERTEX
  8
001
 62
     4
 10
556.537684
 20
231.430867
  0
SEQEND
  8
001
 62
     4
  0
ENDBLK
  8
0
  0
BLOCK
  8
0
  2
JZB-26
 70
     0
 10
0.0
 20
0.0
  0
CIRCLE
  8
001
 62
     4
 10
561.583801
 20
207.013765
 40
1.300000000000012
  0
ENDBLK
  8
0
  0
BLOCK
  8
0
  2
JZB-27
 70
     0
 10
0.0
 20
0.0
  0
CIRCLE
  8
001
 62
     4
 10
467.083801
 20
210.513763
 40
2.749999999999998
  0
LINE
  8
001
 62
     4
 10
467.083801
 20
209.078763
 11
468.326548
 21
209.796263
  0
LINE
  8
001
 62
     4
 10
468.326548
 20
209.796263
 11
468.326548
 21
211.231263
  0
LINE
  8
001
 62
     4
 10
467.083801
 20
211.948763
 11
465.841055
 21
211.231263
  0
CIRCLE
  8
001
 62
     4
 10
467.083801
 20
210.513763
 40
2.449999999999992
  0
LINE
  8
001
 62
     4
 10
465.841055
 20
209.796263
 11
467.083801
 21
209.078763
  0
LINE
  8
001
 62
     4
 10
465.841055
 20
211.231263
 11
465.841055
 21
209.796263
  0
LINE
  8
001
 62
     4
 10
468.326548
 20
211.231263
 11
467.083801
 21
211.948763
  0
ENDBLK
  8
0
  0
BLOCK
  8
0
  2
JZB-28
 70
     0
 10
0.0
 20
0.0
  0
CIRCLE
  8
001
 62
     4
 10
483.083801
 20
210.513763
 40
2.749999999999998
  0
LINE
  8
001
 62
     4
 10
483.083801
 20
211.948763
 11
481.841055
 21
211.231263
  0
LINE
  8
001
 62
     4
 10
481.841055
 20
209.796263
 11
483.083801
 21
209.078763
  0
LINE
  8
001
 62
     4
 10
484.326548
 20
211.231263
 11
483.083801
 21
211.948763
  0
LINE
  8
001
 62
     4
 10
483.083801
 20
209.078763
 11
484.326548
 21
209.796263
  0
LINE
  8
001
 62
     4
 10
484.326548
 20
209.796263
 11
484.326548
 21
211.231263
  0
CIRCLE
  8
001
 62
     4
 10
483.083801
 20
210.513763
 40
2.449999999999992
  0
LINE
  8
001
 62
     4
 10
481.841055
 20
211.231263
 11
481.841055
 21
209.796263
  0
ENDBLK
  8
0
  0
BLOCK
  8
0
  2
JZB-29
 70
     0
 10
0.0
 20
0.0
  0
CIRCLE
  8
001
 62
     4
 10
499.083801
 20
210.513763
 40
2.749999999999998
  0
CIRCLE
  8
001
 62
     4
 10
499.083801
 20
210.513763
 40
2.449999999999992
  0
LINE
  8
001
 62
     4
 10
499.083801
 20
209.078763
 11
500.326548
 21
209.796263
  0
LINE
  8
001
 62
     4
 10
497.841055
 20
209.796263
 11
499.083801
 21
209.078763
  0
LINE
  8
001
 62
     4
 10
497.841055
 20
211.231263
 11
497.841055
 21
209.796263
  0
LINE
  8
001
 62
     4
 10
499.083801
 20
211.948763
 11
497.841055
 21
211.231263
  0
LINE
  8
001
 62
     4
 10
500.326548
 20
211.231263
 11
499.083801
 21
211.948763
  0
LINE
  8
001
 62
     4
 10
500.326548
 20
209.796263
 11
500.326548
 21
211.231263
  0
ENDBLK
  8
0
  0
BLOCK
  8
0
  2
JZB-30
 70
     0
 10
0.0
 20
0.0
  0
CIRCLE
  8
001
 62
     4
 10
515.083801
 20
210.513763
 40
2.749999999999998
  0
LINE
  8
001
 62
     4
 10
516.326548
 20
209.796263
 11
516.326548
 21
211.231263
  0
LINE
  8
001
 62
     4
 10
515.083801
 20
209.078763
 11
516.326548
 21
209.796263
  0
LINE
  8
001
 62
     4
 10
513.841055
 20
211.231263
 11
513.841055
 21
209.796263
  0
LINE
  8
001
 62
     4
 10
513.841055
 20
209.796263
 11
515.083801
 21
209.078763
  0
LINE
  8
001
 62
     4
 10
516.326548
 20
211.231263
 11
515.083801
 21
211.948763
  0
LINE
  8
001
 62
     4
 10
515.083801
 20
211.948763
 11
513.841055
 21
211.231263
  0
CIRCLE
  8
001
 62
     4
 10
515.083801
 20
210.513763
 40
2.449999999999992
  0
ENDBLK
  8
0
  0
BLOCK
  8
0
  2
SHRJ-F-380-31
 70
     0
 10
0.0
 20
0.0
  0
LINE
  8
001
 62
    15
 10
560.593993
 20
190.013763
 11
560.570397
 21
189.908369
  0
ENDBLK
  8
0
  0
BLOCK
  8
0
  2
DP007165-1010-00-32
 70
     0
 10
0.0
 20
0.0
  0
LINE
  8
001
 62
     3
 10
552.583801
 20
214.513763
 11
552.583801
 21
235.513763
  0
LINE
  8
001
 62
     3
 10
537.583801
 20
215.513763
 11
537.583801
 21
234.513763
  0
LINE
  8
001
 62
     3
 10
537.583801
 20
215.513763
 11
542.083801
 21
215.513763
  0
LINE
  8
001
 62
     3
 10
542.083801
 20
215.513763
 11
542.083801
 21
214.513763
  0
LINE
  8
001
 62
     3
 10
542.083801
 20
235.513763
 11
542.083801
 21
234.513763
  0
LINE
  8
001
 62
     3
 10
542.083801
 20
234.513763
 11
537.583801
 21
234.513763
  0
LINE
  8
001
 62
     3
 10
552.583801
 20
216.763762
 11
537.583801
 21
216.763762
  0
LINE
  8
001
 62
     3
 10
537.583801
 20
233.263765
 11
552.583801
 21
233.263765
  0
ENDBLK
  8
0
  0
BLOCK
  8
0
  2
DP007023-1060-00-33
 70
     0
 10
0.0
 20
0.0
  0
LINE
  8
001
 62
     3
 10
569.115033
 20
200.013765
 11
566.583801
 21
200.013765
  0
LINE
  8
001
 62
     3
 10
567.13353
 20
250.013765
 11
566.583801
 21
250.013765
  0
POLYLINE
  8
001
 62
     3
 66
     1
  0
VERTEX
  8
001
 62
     3
 10
567.13353
 20
250.013765
  0
VERTEX
  8
001
 62
     3
 10
566.170567
 20
247.605431
  0
VERTEX
  8
001
 62
     3
 10
565.429827
 20
245.197098
  0
VERTEX
  8
001
 62
     3
 10
565.13353
 20
242.788765
  0
VERTEX
  8
001
 62
     3
 10
565.429827
 20
240.380431
  0
VERTEX
  8
001
 62
     3
 10
566.170567
 20
237.972098
  0
VERTEX
  8
001
 62
     3
 10
567.13353
 20
235.563765
  0
VERTEX
  8
001
 62
     3
 10
568.096493
 20
233.155431
  0
VERTEX
  8
001
 62
     3
 10
568.837234
 20
230.747098
  0
VERTEX
  8
001
 62
     3
 10
569.13353
 20
228.338765
  0
VERTEX
  8
001
 62
     3
 10
568.837234
 20
225.930431
  0
VERTEX
  8
001
 62
     3
 10
568.096493
 20
223.522098
  0
VERTEX
  8
001
 62
     3
 10
567.13353
 20
221.113765
  0
VERTEX
  8
001
 62
     3
 10
566.170567
 20
218.705431
  0
VERTEX
  8
001
 62
     3
 10
565.429827
 20
216.297098
  0
VERTEX
  8
001
 62
     3
 10
565.13353
 20
213.888765
  0
VERTEX
  8
001
 62
     3
 10
565.429827
 20
211.480431
  0
VERTEX
  8
001
 62
     3
 10
566.170567
 20
209.072098
  0
VERTEX
  8
001
 62
     3
 10
567.13353
 20
206.663765
  0
VERTEX
  8
001
 62
     3
 10
568.025066
 20
204.447098
  0
VERTEX
  8
001
 62
     3
 10
568.743326
 20
202.230431
  0
VERTEX
  8
001
 62
     3
 10
569.115033
 20
200.013765
  0
SEQEND
  8
001
 62
     3
  0
ENDBLK
  8
0
  0
BLOCK
  8
0
  2
DP007037-1040-00-34
 70
     0
 10
0.0
 20
0.0
  0
LINE
  8
001
  6
CENTER
 10
508.083801
 20
228.613763
 11
508.083801
 21
221.413763
  0
CIRCLE
  8
001
 62
     3
 10
508.083801
 20
225.013763
 40
2.46
  0
CIRCLE
  8
001
 62
     3
 10
508.083801
 20
225.013763
 40
3.0
  0
CIRCLE
  8
001
 62
     3
 10
493.083801
 20
225.013763
 40
1.23
  0
CIRCLE
  8
001
 62
     3
 10
493.083801
 20
225.013763
 40
1.5
  0
CIRCLE
  8
001
 62
     3
 10
561.583801
 20
243.013763
 40
1.62
  0
CIRCLE
  8
001
 62
     3
 10
561.583801
 20
243.013763
 40
2.0
  0
CIRCLE
  8
001
 62
     3
 10
561.583801
 20
207.013763
 40
1.62
  0
CIRCLE
  8
001
 62
     3
 10
561.583801
 20
207.013763
 40
2.0
  0
CIRCLE
  8
001
 62
     3
 10
471.083801
 20
205.013763
 40
1.999999999999972
  0
LINE
  8
001
 62
     3
 10
566.583801
 20
260.013763
 11
456.083801
 21
260.013763
  0
LINE
  8
001
 62
     3
 10
456.083801
 20
260.013763
 11
456.083801
 21
190.013763
  0
LINE
  8
001
 62
     3
 10
566.583801
 20
190.013763
 11
456.083801
 21
190.013763
  0
LINE
  8
001
 62
     3
 10
534.083801
 20
219.513763
 11
534.083801
 21
230.513763
  0
ARC
  8
001
 62
     3
 10
539.083801
 20
230.513763
 40
5.0
 50
90.0
 51
180.0
  0
ARC
  8
001
 62
     3
 10
539.083801
 20
219.513763
 40
5.0
 50
180.0
 51
270.0
  0
LINE
  8
001
 62
     3
 10
511.333801
 20
207.013763
 11
510.833801
 21
207.013763
  0
ARC
  8
001
 62
     3
 10
511.333801
 20
205.013763
 40
2.0
 50
270.0
 51
90.0
  0
LINE
  8
001
 62
     3
 10
510.833801
 20
203.013763
 11
511.333801
 21
203.013763
  0
ARC
  8
001
 62
     3
 10
510.833801
 20
205.013763
 40
2.0
 50
90.0
 51
270.0
  0
CIRCLE
  8
001
 62
     3
 10
483.083801
 20
239.513763
 40
3.0
  0
CIRCLE
  8
001
 62
     3
 10
515.083801
 20
239.513763
 40
3.0
  0
CIRCLE
  8
001
 62
     3
 10
499.083801
 20
210.513763
 40
3.0
  0
CIRCLE
  8
001
 62
     3
 10
467.083801
 20
210.513763
 40
3.0
  0
LINE
  8
001
 62
     3
 10
539.083801
 20
235.513763
 11
566.583801
 21
235.513763
  0
CIRCLE
  8
001
 62
     3
 10
483.083801
 20
210.513763
 40
3.0
  0
CIRCLE
  8
001
 62
     3
 10
515.083801
 20
210.513763
 40
3.0
  0
CIRCLE
  8
001
 62
     3
 10
499.083801
 20
239.513763
 40
3.0
  0
CIRCLE
  8
001
 62
     3
 10
467.083801
 20
239.513763
 40
3.0
  0
CIRCLE
  8
001
 62
     3
 10
461.083801
 20
195.013763
 40
2.25
  0
LINE
  8
001
 62
     3
 10
466.083801
 20
200.013763
 11
466.083801
 21
190.013763
  0
LINE
  8
001
 62
     3
 10
466.083801
 20
200.013763
 11
456.083801
 21
200.013763
  0
CIRCLE
  8
001
 62
     3
 10
521.083801
 20
195.013763
 40
2.25
  0
LINE
  8
001
 62
     3
 10
526.083801
 20
200.013763
 11
526.083801
 21
190.013763
  0
LINE
  8
001
 62
     3
 10
516.083801
 20
200.013763
 11
526.083801
 21
200.013763
  0
LINE
  8
001
 62
     3
 10
516.083801
 20
200.013763
 11
516.083801
 21
190.013763
  0
LINE
  8
001
 62
     3
 10
556.583801
 20
200.013763
 11
566.583801
 21
200.013763
  0
LINE
  8
001
 62
     3
 10
556.583801
 20
200.013763
 11
556.583801
 21
190.013763
  0
LINE
  8
001
 62
     3
 10
556.583801
 20
250.013763
 11
556.583801
 21
260.013763
  0
LINE
  8
001
 62
     3
 10
556.583801
 20
250.013763
 11
566.583801
 21
250.013763
  0
CIRCLE
  8
001
 62
     3
 10
461.083801
 20
255.013763
 40
2.25
  0
LINE
  8
001
 62
     3
 10
466.083801
 20
250.013763
 11
456.083801
 21
250.013763
  0
LINE
  8
001
 62
     3
 10
466.083801
 20
250.013763
 11
466.083801
 21
260.013763
  0
LINE
  8
001
 62
     3
 10
526.083801
 20
260.013763
 11
526.083801
 21
250.013763
  0
LINE
  8
001
 62
     3
 10
516.083801
 20
250.013763
 11
516.083801
 21
260.013763
  0
LINE
  8
001
 62
     3
 10
516.083801
 20
250.013763
 11
526.083801
 21
250.013763
  0
CIRCLE
  8
001
 62
     3
 10
521.083801
 20
255.013763
 40
2.25
  0
LINE
  8
001
 62
     3
 10
565.155332
 20
214.513763
 11
539.083801
 21
214.513763
  0
LINE
  8
001
 62
     3
 10
566.583801
 20
248.674494
 11
566.583801
 21
260.013763
  0
LINE
  8
001
 62
     3
 10
566.583801
 20
208.003035
 11
566.583801
 21
190.013763
  0
ENDBLK
  8
0
  0
BLOCK
  8
0
  2
XA07A-R103-35
 70
     0
 10
0.0
 20
0.0
  0
LINE
  8
001
 10
62.83604
 20
254.513763
 11
54.83604
 21
254.513763
  0
LINE
  8
001
 10
54.83604
 20
254.513763
 11
54.83604
 21
250.013765
  0
LINE
  8
001
 10
62.83604
 20
250.013765
 11
62.83604
 21
254.513763
  0
ARC
  8
001
 62
     4
 10
58.83604
 20
250.213763
 40
3.45
 50
356.67666
 51
183.32334
  0
LINE
  8
001
 62
     4
 10
57.385951
 20
250.013765
 11
57.385951
 21
250.473763
  0
LINE
  8
001
 62
     4
 10
60.285951
 20
250.473763
 11
60.285951
 21
250.013765
  0
LINE
  8
001
 62
     4
 10
59.09604
 20
251.663763
 11
59.09604
 21
250.473763
  0
LINE
  8
001
 62
     4
 10
58.57604
 20
251.663763
 11
59.09604
 21
251.663763
  0
LINE
  8
001
 62
     4
 10
58.57604
 20
250.473763
 11
58.57604
 21
251.663763
  0
LINE
  8
001
 62
     4
 10
57.385951
 20
250.473763
 11
58.57604
 21
250.473763
  0
LINE
  8
001
 62
     4
 10
59.09604
 20
250.473763
 11
60.285951
 21
250.473763
  0
LINE
  8
001
 62
     4
 10
57.33604
 20
255.013763
 11
57.83604
 21
254.513763
  0
LINE
  8
001
 62
     4
 10
59.83604
 20
254.513763
 11
60.33604
 21
255.013763
  0
ARC
  8
001
 62
     4
 10
57.83604
 20
245.013763
 40
3.09999999999999
 50
18.819562
 51
161.180438
  0
LINE
  8
001
 62
     4
 10
56.97604
 20
246.503327
 11
56.693406
 21
246.013789
  0
LINE
  8
001
 62
     4
 10
58.978675
 20
246.013789
 11
58.69604
 21
246.503327
  0
LINE
  8
001
 62
     4
 10
58.69604
 20
246.503327
 11
56.97604
 21
246.503327
  0
ARC
  8
001
 62
     4
 10
57.83604
 20
245.013763
 40
3.499999999999998
 50
16.601986
 51
163.398014
  0
LINE
  8
001
 62
     3
 10
78.83604
 20
248.013763
 11
76.83604
 21
250.013763
  0
LINE
  8
001
 62
     3
 10
78.83604
 20
202.013763
 11
78.83604
 21
208.043195
  0
LINE
  8
001
 62
     3
 10
78.83604
 20
241.984373
 11
78.83604
 21
248.013763
  0
LINE
  8
001
 62
     3
 10
76.83604
 20
200.013763
 11
78.83604
 21
202.013763
  0
LINE
  8
001
 62
     3
 10
38.83604
 20
200.013763
 11
44.336054
 21
200.013763
  0
LINE
  8
001
 62
     3
 10
76.336059
 20
200.013763
 11
76.83604
 21
200.013763
  0
LINE
  8
001
 62
     3
 10
36.83604
 20
202.013763
 11
38.83604
 21
200.013763
  0
LINE
  8
001
 62
     3
 10
36.83604
 20
248.013763
 11
36.83604
 21
241.984325
  0
LINE
  8
001
 62
     3
 10
36.83604
 20
208.043214
 11
36.83604
 21
202.013763
  0
LINE
  8
001
 62
     3
 10
38.83604
 20
250.013763
 11
36.83604
 21
248.013763
  0
LINE
  8
001
 62
     3
 10
38.83604
 20
250.013763
 11
76.83604
 21
250.013763
  0
ARC
  8
001
 62
     3
 10
57.83604
 20
245.013763
 40
3.75
 50
15.466415
 51
164.533585
  0
LINE
  8
001
 62
     3
 10
62.83604
 20
250.013765
 11
62.83604
 21
254.513763
  0
LINE
  8
001
 62
     3
 10
62.83604
 20
254.513763
 11
62.83604
 21
255.013763
  0
LINE
  8
001
 62
     3
 10
62.83604
 20
255.013763
 11
54.83604
 21
255.013763
  0
LINE
  8
001
 62
     3
 10
54.83604
 20
255.013763
 11
54.83604
 21
260.013763
  0
LINE
  8
001
 62
     3
 10
54.83604
 20
260.013763
 11
68.83604
 21
260.013763
  0
LINE
  8
001
 62
     3
 10
68.83604
 20
260.013763
 11
68.83604
 21
250.013763
  0
LINE
  8
001
 62
     3
 10
68.83604
 20
194.030728
 11
68.83604
 21
190.013763
  0
LINE
  8
001
 62
     3
 10
68.83604
 20
190.013763
 11
54.83604
 21
190.013763
  0
LINE
  8
001
 62
     3
 10
54.83604
 20
190.013763
 11
54.83604
 21
191.01378
  0
LINE
  8
001
 62
     3
 10
54.33604
 20
190.013763
 11
47.83604
 21
190.013763
  0
LINE
  8
001
 62
     3
 10
47.83604
 20
190.013763
 11
47.83604
 21
193.852984
  0
LINE
  8
001
 62
     3
 10
54.33604
 20
191.01378
 11
54.33604
 21
190.013763
  0
LINE
  8
001
 62
     3
 10
47.83604
 20
250.013763
 11
47.83604
 21
260.013763
  0
LINE
  8
001
 62
     3
 10
47.83604
 20
260.013763
 11
54.33604
 21
260.013763
  0
LINE
  8
001
 62
     3
 10
54.33604
 20
260.013763
 11
54.33604
 21
250.013765
  0
ENDBLK
  8
0
  0
BLOCK
  8
0
  2
ORIENTAL_AZM46AK-36
 70
     0
 10
0.0
 20
0.0
  0
LINE
  8
001
 62
    15
 10
52.836064
 20
193.222368
 11
52.836064
 21
191.013787
  0
LINE
  8
001
 62
    15
 10
62.836064
 20
191.013787
 11
62.836064
 21
193.222368
  0
LINE
  8
001
 62
    15
 10
57.836065
 20
191.013788
 11
62.836064
 21
191.013787
  0
ARC
  8
001
 62
    15
 10
57.836046
 20
225.013769
 40
27.0
 50
218.942441
 51
231.057559
  0
ARC
  8
001
 62
    15
 10
57.836061
 20
225.013784
 40
27.0
 50
218.942441
 51
231.057559
  0
ARC
  8
001
 62
    15
 10
57.836061
 20
225.013784
 40
27.0
 50
38.942441
 51
51.057559
  0
LINE
  8
001
 62
    15
 10
78.836061
 20
241.984347
 11
78.836061
 21
237.613784
  0
LINE
  8
001
 62
    15
 10
74.806624
 20
246.013784
 11
70.436061
 21
246.013784
  0
LINE
  8
001
 62
    15
 10
71.336061
 20
194.552258
 11
71.336061
 21
204.013784
  0
ARC
  8
001
 62
    15
 10
57.836061
 20
253.013784
 40
60.0
 50
256.997122
 51
257.486676
  0
ARC
  8
001
 62
    15
 10
57.836061
 20
253.013784
 40
60.0
 50
282.51333
 51
283.002878
  0
LINE
  8
001
 62
    15
 10
44.336061
 20
194.552258
 11
44.336061
 21
204.013784
  0
ARC
  8
001
 62
    15
 10
57.836056
 20
253.013779
 40
60.0
 50
282.513335
 51
283.002878
  0
ARC
  8
001
 62
    15
 10
57.836056
 20
253.013779
 40
60.0
 50
256.997122
 51
257.48668
  0
LINE
  8
001
 62
    15
 10
44.336054
 20
198.601031
 11
44.336056
 21
194.552253
  0
LINE
  8
001
 62
    15
 10
44.336054
 20
204.013777
 11
44.336054
 21
198.601031
  0
LINE
  8
001
 62
    15
 10
71.336059
 20
195.713782
 11
75.036059
 21
195.713782
  0
LINE
  8
001
 62
    15
 10
75.036059
 20
202.713782
 11
71.336059
 21
202.713782
  0
LINE
  8
001
 62
    15
 10
75.03606
 20
201.859112
 11
75.03606
 21
201.505559
  0
ARC
  8
001
 62
    15
 10
75.036059
 20
197.013782
 40
1.3
 50
270.0
 51
360.0
  0
LINE
  8
001
 62
    15
 10
76.33606
 20
200.582564
 11
76.336059
 21
197.013782
  0
POLYLINE
  8
001
 62
    15
 66
     1
  0
VERTEX
  8
001
 62
    15
 10
75.03606
 20
201.505559
  0
VERTEX
  8
001
 62
    15
 10
75.143595
 20
201.501247
  0
VERTEX
  8
001
 62
    15
 10
75.250757
 20
201.492903
  0
VERTEX
  8
001
 62
    15
 10
75.358718
 20
201.477036
  0
VERTEX
  8
001
 62
    15
 10
75.465455
 20
201.453831
  0
VERTEX
  8
001
 62
    15
 10
75.564785
 20
201.425811
  0
VERTEX
  8
001
 62
    15
 10
75.662122
 20
201.391635
  0
VERTEX
  8
001
 62
    15
 10
75.755842
 20
201.351403
  0
VERTEX
  8
001
 62
    15
 10
75.846435
 20
201.304542
  0
VERTEX
  8
001
 62
    15
 10
75.926768
 20
201.255164
  0
VERTEX
  8
001
 62
    15
 10
76.003098
 20
201.199773
  0
VERTEX
  8
001
 62
    15
 10
76.072618
 20
201.140049
  0
VERTEX
  8
001
 62
    15
 10
76.136478
 20
201.074415
  0
VERTEX
  8
001
 62
    15
 10
76.189213
 20
201.008909
  0
VERTEX
  8
001
 62
    15
 10
76.235694
 20
200.938617
  0
VERTEX
  8
001
 62
    15
 10
76.274201
 20
200.865593
  0
VERTEX
  8
001
 62
    15
 10
76.303299
 20
200.788811
  0
VERTEX
  8
001
 62
    15
 10
76.324685
 20
200.686971
  0
VERTEX
  8
001
 62
    15
 10
76.33606
 20
200.582564
  0
SEQEND
  8
001
 62
    15
  0
POLYLINE
  8
001
 62
    15
 66
     1
  0
VERTEX
  8
001
 62
    15
 10
76.33606
 20
200.936118
  0
VERTEX
  8
001
 62
    15
 10
76.329527
 20
201.014475
  0
VERTEX
  8
001
 62
    15
 10
76.317377
 20
201.091761
  0
VERTEX
  8
001
 62
    15
 10
76.294568
 20
201.168944
  0
VERTEX
  8
001
 62
    15
 10
76.262293
 20
201.243026
  0
VERTEX
  8
001
 62
    15
 10
76.220537
 20
201.316591
  0
VERTEX
  8
001
 62
    15
 10
76.171731
 20
201.385536
  0
VERTEX
  8
001
 62
    15
 10
76.113214
 20
201.453239
  0
VERTEX
  8
001
 62
    15
 10
76.048687
 20
201.515302
  0
VERTEX
  8
001
 62
    15
 10
75.975127
 20
201.574653
  0
VERTEX
  8
001
 62
    15
 10
75.896994
 20
201.62786
  0
VERTEX
  8
001
 62
    15
 10
75.810594
 20
201.677607
  0
VERTEX
  8
001
 62
    15
 10
75.720807
 20
201.720883
  0
VERTEX
  8
001
 62
    15
 10
75.624369
 20
201.759203
  0
VERTEX
  8
001
 62
    15
 10
75.525572
 20
201.791174
  0
VERTEX
  8
001
 62
    15
 10
75.421746
 20
201.817894
  0
VERTEX
  8
001
 62
    15
 10
75.316477
 20
201.837416
  0
VERTEX
  8
001
 62
    15
 10
75.176713
 20
201.851853
  0
VERTEX
  8
001
 62
    15
 10
75.03606
 20
201.859112
  0
SEQEND
  8
001
 62
    15
  0
LINE
  8
001
 62
    15
 10
76.33606
 20
200.936118
 11
76.33606
 21
200.582564
  0
ARC
  8
001
 62
    15
 10
75.036059
 20
201.413782
 40
1.3
 50
0.0
 51
90.0
  0
LINE
  8
001
 62
    15
 10
76.336059
 20
201.413782
 11
76.33606
 21
200.936118
  0
LINE
  8
001
 62
    15
 10
52.836064
 20
191.013782
 11
52.586058
 21
191.013781
  0
LINE
  8
001
 62
    15
 10
62.836064
 20
191.013781
 11
63.086058
 21
191.013781
  0
LINE
  8
001
 62
    15
 10
52.836064
 20
191.013781
 11
52.586058
 21
191.013781
  0
LINE
  8
001
 62
    15
 10
52.586058
 20
193.243787
 11
52.586058
 21
191.013781
  0
LINE
  8
001
 62
    15
 10
63.086058
 20
191.013781
 11
63.086058
 21
193.243787
  0
LINE
  8
001
 62
    15
 10
62.836064
 20
191.013782
 11
63.086058
 21
191.013781
  0
LINE
  8
001
 62
    15
 10
76.33606
 20
197.552082
 11
76.33606
 21
198.153122
  0
LINE
  8
001
 62
    15
 10
76.336059
 20
198.446015
 11
76.33606
 21
198.153122
  0
LINE
  8
001
 62
    15
 10
76.33606
 20
200.274443
 11
76.336059
 21
199.981549
  0
LINE
  8
001
 62
    15
 10
76.336059
 20
199.920889
 11
76.336059
 21
199.273745
  0
LINE
  8
001
 62
    15
 10
76.336059
 20
199.273745
 11
76.336059
 21
199.090535
  0
LINE
  8
001
 62
    15
 10
76.336059
 20
199.090535
 11
76.336059
 21
198.506675
  0
LINE
  8
001
 62
    15
 10
76.336059
 20
198.506675
 11
76.336059
 21
198.446015
  0
LINE
  8
001
 62
    15
 10
71.636057
 20
202.713782
 11
71.636057
 21
202.913779
  0
LINE
  8
001
 62
    15
 10
71.636057
 20
202.913779
 11
71.336057
 21
202.913779
  0
CIRCLE
  8
001
 62
    15
 10
57.836066
 20
225.013789
 40
16.74999999999998
  0
CIRCLE
  8
001
 62
    15
 10
57.836066
 20
225.013789
 40
18.48205080756889
  0
LINE
  8
001
 62
    15
 10
70.436066
 20
246.013789
 11
70.436066
 21
240.513789
  0
ARC
  8
001
 62
    15
 10
73.336064
 20
240.513787
 40
2.900000000000531
 50
179.999954
 51
270.000046
  0
LINE
  8
001
 62
    15
 10
73.336066
 20
237.613789
 11
78.836066
 21
237.613789
  0
LINE
  8
001
 62
    15
 10
78.836066
 20
237.613789
 11
78.836066
 21
208.043226
  0
ARC
  8
001
 62
    15
 10
57.836066
 20
225.013789
 40
27.0
 50
314.998977
 51
321.057559
  0
LINE
  8
001
 62
    15
 10
43.336066
 20
204.013789
 11
74.806628
 21
204.013789
  0
LINE
  8
001
 62
    15
 10
43.336066
 20
206.791657
 11
43.336066
 21
204.013789
  0
ARC
  8
001
 62
    15
 10
42.336064
 20
209.513787
 40
2.900000000004645
 50
290.171325
 51
314.999288
  0
LINE
  8
001
 62
    15
 10
36.836066
 20
212.413789
 11
42.336066
 21
212.413789
  0
LINE
  8
001
 62
    15
 10
36.836066
 20
241.984351
 11
36.836066
 21
212.413789
  0
ARC
  8
001
 62
    15
 10
57.836066
 20
225.013789
 40
27.0
 50
134.998977
 51
141.057559
  0
LINE
  8
001
 62
    15
 10
70.436066
 20
246.013789
 11
40.865503
 21
246.013789
  0
ARC
  8
001
 62
    15
 10
42.336064
 20
209.513787
 40
2.900000000004645
 50
314.999288
 51
89.999954
  0
ARC
  8
001
 62
    15
 10
42.336061
 20
209.513784
 40
2.900000000004645
 50
314.998977
 51
90.0
  0
LINE
  8
001
 62
    15
 10
36.836061
 20
212.413784
 11
42.336061
 21
212.413784
  0
LINE
  8
001
 62
    15
 10
36.836061
 20
212.413784
 11
36.836061
 21
208.043222
  0
LINE
  8
001
 62
    15
 10
36.836046
 20
208.043207
 11
36.836046
 21
241.984332
  0
LINE
  8
001
 62
    15
 10
44.836066
 20
204.013789
 11
70.836066
 21
204.013789
  0
LINE
  8
001
 62
    15
 10
44.336061
 20
204.013784
 11
44.836062
 21
204.013784
  0
LINE
  8
001
 62
    15
 10
44.836062
 20
204.013784
 11
70.836066
 21
204.013784
  0
LINE
  8
001
 62
    15
 10
70.836066
 20
204.013784
 11
71.336061
 21
204.013784
  0
LINE
  8
001
 62
    15
 10
74.806609
 20
204.013769
 11
71.336061
 21
204.013769
  0
LINE
  8
001
 62
    15
 10
44.336054
 20
204.013769
 11
40.865484
 21
204.013769
  0
LINE
  8
001
 62
    15
 10
43.336061
 20
204.013784
 11
40.865499
 21
204.013784
  0
LINE
  8
001
 62
    15
 10
43.336061
 20
206.791653
 11
43.336061
 21
204.013784
  0
ARC
  8
001
 62
    15
 10
57.836046
 20
225.013769
 40
27.0
 50
134.998977
 51
141.057559
  0
ARC
  8
001
 62
    15
 10
57.836066
 20
225.013789
 40
27.0
 50
128.942441
 51
134.998977
  0
ARC
  8
001
 62
    15
 10
57.836066
 20
225.013789
 40
27.0
 50
308.942441
 51
314.998977
  0
ARC
  8
001
 62
    15
 10
57.836046
 20
225.013769
 40
27.0
 50
308.942441
 51
314.998977
  0
ARC
  8
001
 62
    15
 10
57.836066
 20
253.013789
 40
60.0
 50
257.486675
 51
282.513325
  0
ARC
  8
001
 62
    15
 10
57.836062
 20
253.013785
 40
60.0
 50
257.486675
 51
282.513325
  0
LINE
  8
001
 62
    15
 10
44.836066
 20
194.43905
 11
44.836066
 21
204.013789
  0
LINE
  8
001
 62
    15
 10
44.836062
 20
194.439047
 11
44.836062
 21
204.013785
  0
LINE
  8
001
 62
    15
 10
70.836066
 20
194.43905
 11
70.836066
 21
204.013789
  0
LINE
  8
001
 62
    15
 10
57.836065
 20
191.013788
 11
52.836064
 21
191.013787
  0
LINE
  8
001
 62
    15
 10
52.836064
 20
191.013787
 11
62.836064
 21
191.013787
  0
ARC
  8
001
 62
    15
 10
57.836064
 20
253.013787
 40
60.0
 50
265.219808
 51
274.780192
  0
ENDBLK
  8
0
  0
BLOCK
  8
0
  2
DA007167-0101-000-00-37
 70
     0
 10
0.0
 20
0.0
  0
LINE
  8
001
  6
HIDDEN
 10
413.247284
 20
251.263763
 11
413.247284
 21
258.763763
  0
LINE
  8
001
  6
HIDDEN
 10
413.247284
 20
258.763763
 11
409.247284
 21
258.763763
  0
LINE
  8
001
  6
HIDDEN
 10
409.247284
 20
251.263763
 11
413.247284
 21
251.263763
  0
LINE
  8
001
  6
HIDDEN
 10
413.247284
 20
191.263763
 11
413.247284
 21
198.763763
  0
LINE
  8
001
  6
HIDDEN
 10
413.247284
 20
198.763763
 11
409.247284
 21
198.763763
  0
LINE
  8
001
  6
HIDDEN
 10
409.247284
 20
191.263763
 11
413.247284
 21
191.263763
  0
LINE
  8
001
  6
HIDDEN
 10
415.747284
 20
257.263763
 11
413.247284
 21
257.263763
  0
LINE
  8
001
  6
HIDDEN
 10
413.247284
 20
252.763763
 11
415.747284
 21
252.763763
  0
LINE
  8
001
  6
HIDDEN
 10
415.747284
 20
197.263763
 11
413.247284
 21
197.263763
  0
LINE
  8
001
  6
HIDDEN
 10
413.247284
 20
192.763763
 11
415.747284
 21
192.763763
  0
LINE
  8
001
  6
CENTER
 10
417.747284
 20
195.013763
 11
407.247284
 21
195.013763
  0
LINE
  8
001
  6
CENTER
 10
407.247284
 20
255.013763
 11
417.747284
 21
255.013763
  0
LINE
  8
001
  6
CENTER
 10
383.716133
 20
225.013763
 11
428.132372
 21
225.013763
  0
ENDBLK
  8
0
  0
BLOCK
  8
0
  2
001490-1031-00-38
 70
     0
 10
0.0
 20
0.0
  0
LINE
  8
001
 62
    15
 10
406.468605
 20
204.113764
 11
406.668604
 21
204.313763
  0
LINE
  8
001
 62
    15
 10
403.025964
 20
204.913763
 11
402.825964
 21
204.713763
  0
LINE
  8
001
 62
    15
 10
406.668604
 20
204.713763
 11
406.468604
 21
204.913763
  0
LINE
  8
001
 62
    15
 10
402.825964
 20
204.313763
 11
403.025964
 21
204.113763
  0
LINE
  8
001
 62
    15
 10
400.947284
 20
204.713763
 11
408.547284
 21
204.713763
  0
LINE
  8
001
 62
    15
 10
400.947284
 20
204.313763
 11
408.547284
 21
204.313763
  0
LINE
  8
001
 62
    15
 10
408.547284
 20
204.713763
 11
408.547284
 21
204.313763
  0
LINE
  8
001
 62
    15
 10
407.547284
 20
204.313763
 11
407.547284
 21
204.713763
  0
LINE
  8
001
 62
    15
 10
401.947284
 20
204.713763
 11
401.947284
 21
204.313763
  0
LINE
  8
001
 62
    15
 10
400.947284
 20
204.313763
 11
400.947284
 21
204.713763
  0
LINE
  8
001
 10
408.747284
 20
204.113763
 11
406.468605
 21
204.113763
  0
LINE
  8
001
 10
406.468605
 20
204.113763
 11
405.528899
 21
203.174058
  0
LINE
  8
001
 10
400.747284
 20
195.513763
 11
400.747284
 21
204.113763
  0
LINE
  8
001
 10
403.025964
 20
204.113763
 11
400.747284
 21
204.113763
  0
LINE
  8
001
 10
408.747284
 20
195.513763
 11
408.747284
 21
204.113763
  0
LINE
  8
001
 10
403.965669
 20
203.174058
 11
403.025964
 21
204.113763
  0
LINE
  8
001
 10
400.747284
 20
195.513763
 11
408.747284
 21
195.513763
  0
LINE
  8
001
 10
403.965669
 20
205.853469
 11
403.025964
 21
204.913763
  0
LINE
  8
001
 10
403.025964
 20
204.913763
 11
400.747284
 21
204.913763
  0
LINE
  8
001
 10
406.468605
 20
204.913763
 11
405.528899
 21
205.853469
  0
LINE
  8
001
 10
408.747284
 20
204.913763
 11
406.468605
 21
204.913763
  0
LINE
  8
001
 10
408.747284
 20
204.913763
 11
408.747284
 21
213.513763
  0
LINE
  8
001
 10
408.747284
 20
213.513763
 11
400.747284
 21
213.513763
  0
LINE
  8
001
 10
400.747284
 20
204.913763
 11
400.747284
 21
213.513763
  0
LINE
  8
001
 62
    15
 10
406.668604
 20
245.713763
 11
406.468604
 21
245.913763
  0
LINE
  8
001
 62
    15
 10
402.825964
 20
245.313763
 11
403.025964
 21
245.113763
  0
LINE
  8
001
 62
    15
 10
403.025964
 20
245.913763
 11
402.825964
 21
245.713763
  0
LINE
  8
001
 62
    15
 10
406.468604
 20
245.113763
 11
406.668604
 21
245.313763
  0
LINE
  8
001
 62
    15
 10
408.547284
 20
245.713763
 11
400.947284
 21
245.713763
  0
LINE
  8
001
 62
    15
 10
408.547284
 20
245.313763
 11
400.947284
 21
245.313763
  0
LINE
  8
001
 62
    15
 10
401.947284
 20
245.713763
 11
401.947284
 21
245.313763
  0
LINE
  8
001
 62
    15
 10
400.947284
 20
245.313763
 11
400.947284
 21
245.713763
  0
LINE
  8
001
 62
    15
 10
408.547284
 20
245.713763
 11
408.547284
 21
245.313763
  0
LINE
  8
001
 62
    15
 10
407.547284
 20
245.313763
 11
407.547284
 21
245.713763
  0
LINE
  8
001
 10
408.747284
 20
245.113763
 11
408.747284
 21
236.513763
  0
LINE
  8
001
 10
403.025964
 20
245.113763
 11
400.747284
 21
245.113763
  0
LINE
  8
001
 10
408.747284
 20
236.513763
 11
400.747284
 21
236.513763
  0
LINE
  8
001
 10
406.468605
 20
245.113763
 11
405.528899
 21
244.174058
  0
LINE
  8
001
 10
403.965669
 20
244.174058
 11
403.025964
 21
245.113763
  0
LINE
  8
001
 10
400.747284
 20
245.113763
 11
400.747284
 21
236.513763
  0
LINE
  8
001
 10
408.747284
 20
245.113763
 11
406.468605
 21
245.113763
  0
LINE
  8
001
 10
408.747284
 20
254.513763
 11
408.747284
 21
245.913763
  0
LINE
  8
001
 10
400.747284
 20
254.513763
 11
408.747284
 21
254.513763
  0
LINE
  8
001
 10
403.965669
 20
246.853469
 11
403.025964
 21
245.913763
  0
LINE
  8
001
 10
406.468605
 20
245.913763
 11
405.528899
 21
246.853469
  0
LINE
  8
001
 10
408.747284
 20
245.913763
 11
406.468605
 21
245.913763
  0
LINE
  8
001
 10
400.747284
 20
254.513763
 11
400.747284
 21
245.913763
  0
LINE
  8
001
 10
403.025964
 20
245.913763
 11
400.747284
 21
245.913763
  0
ENDBLK
  8
0
  0
BLOCK
  8
0
  2
JZB-39
 70
     0
 10
0.0
 20
0.0
  0
LINE
  8
001
 62
     4
 10
404.487284
 20
208.953763
 11
403.297374
 21
208.953763
  0
LINE
  8
001
 62
     4
 10
404.487284
 20
207.763763
 11
404.487284
 21
208.953763
  0
LINE
  8
001
 62
     4
 10
405.007284
 20
210.663763
 11
405.007284
 21
209.473763
  0
LINE
  8
001
 62
     4
 10
405.007284
 20
209.473763
 11
406.197374
 21
209.473763
  0
LINE
  8
001
 62
     4
 10
404.487284
 20
209.473763
 11
404.487284
 21
210.663763
  0
LINE
  8
001
 62
     4
 10
405.007284
 20
208.953763
 11
405.007284
 21
207.763763
  0
LINE
  8
001
 62
     4
 10
405.007284
 20
207.763763
 11
404.487284
 21
207.763763
  0
LINE
  8
001
 62
     4
 10
403.297374
 20
208.953763
 11
403.297374
 21
209.473763
  0
LINE
  8
001
 62
     4
 10
403.297374
 20
209.473763
 11
404.487284
 21
209.473763
  0
LINE
  8
001
 62
     4
 10
404.487284
 20
210.663763
 11
405.007284
 21
210.663763
  0
LINE
  8
001
 62
     4
 10
406.197374
 20
209.473763
 11
406.197374
 21
208.953763
  0
LINE
  8
001
 62
     4
 10
406.197374
 20
208.953763
 11
405.007284
 21
208.953763
  0
CIRCLE
  8
001
 62
     4
 10
404.747284
 20
209.213763
 40
3.45
  0
ENDBLK
  8
0
  0
BLOCK
  8
0
  2
JZB-40
 70
     0
 10
0.0
 20
0.0
  0
LINE
  8
001
 62
     4
 10
404.487284
 20
200.073763
 11
404.487284
 21
201.263763
  0
LINE
  8
001
 62
     4
 10
405.007284
 20
199.553763
 11
405.007284
 21
198.363763
  0
LINE
  8
001
 62
     4
 10
405.007284
 20
198.363763
 11
404.487284
 21
198.363763
  0
LINE
  8
001
 62
     4
 10
404.487284
 20
198.363763
 11
404.487284
 21
199.553763
  0
LINE
  8
001
 62
     4
 10
404.487284
 20
199.553763
 11
403.297374
 21
199.553763
  0
LINE
  8
001
 62
     4
 10
403.297374
 20
199.553763
 11
403.297374
 21
200.073763
  0
LINE
  8
001
 62
     4
 10
403.297374
 20
200.073763
 11
404.487284
 21
200.073763
  0
LINE
  8
001
 62
     4
 10
404.487284
 20
201.263763
 11
405.007284
 21
201.263763
  0
LINE
  8
001
 62
     4
 10
405.007284
 20
201.263763
 11
405.007284
 21
200.073763
  0
LINE
  8
001
 62
     4
 10
405.007284
 20
200.073763
 11
406.197374
 21
200.073763
  0
LINE
  8
001
 62
     4
 10
406.197374
 20
200.073763
 11
406.197374
 21
199.553763
  0
LINE
  8
001
 62
     4
 10
406.197374
 20
199.553763
 11
405.007284
 21
199.553763
  0
CIRCLE
  8
001
 62
     4
 10
404.747284
 20
199.813763
 40
3.45
  0
ENDBLK
  8
0
  0
BLOCK
  8
0
  2
JZB-41
 70
     0
 10
0.0
 20
0.0
  0
CIRCLE
  8
001
 62
     4
 10
390.247284
 20
209.513763
 40
2.749999999999998
  0
LINE
  8
001
 62
     4
 10
388.812284
 20
209.513763
 11
389.529784
 21
208.271017
  0
LINE
  8
001
 62
     4
 10
389.529784
 20
208.271017
 11
390.964784
 21
208.271017
  0
CIRCLE
  8
001
 62
     4
 10
390.247284
 20
209.513763
 40
2.449999999999992
  0
LINE
  8
001
 62
     4
 10
391.682284
 20
209.513763
 11
390.964784
 21
210.75651
  0
LINE
  8
001
 62
     4
 10
390.964784
 20
208.271017
 11
391.682284
 21
209.513763
  0
LINE
  8
001
 62
     4
 10
389.529784
 20
210.75651
 11
388.812284
 21
209.513763
  0
LINE
  8
001
 62
     4
 10
390.964784
 20
210.75651
 11
389.529784
 21
210.75651
  0
ENDBLK
  8
0
  0
BLOCK
  8
0
  2
JZB-42
 70
     0
 10
0.0
 20
0.0
  0
LINE
  8
001
 62
     4
 10
401.931429
 20
204.313763
 11
402.046899
 21
204.113763
  0
LINE
  8
001
 62
     4
 10
401.585019
 20
204.913763
 11
401.700489
 21
204.713763
  0
ARC
  8
001
 62
     4
 10
403.247284
 20
205.013763
 40
3.09999999999999
 50
143.750679
 51
165.407449
  0
ARC
  8
001
 62
     4
 10
403.247284
 20
205.013763
 40
3.09999999999999
 50
194.592551
 51
208.938528
  0
ARC
  8
001
 62
     4
 10
403.247284
 20
205.013763
 40
3.499999999999998
 50
135.584691
 51
148.997281
  0
ARC
  8
001
 62
     4
 10
403.247284
 20
205.013763
 40
3.499999999999998
 50
345.099403
 51
348.463041
  0
ARC
  8
001
 62
     4
 10
403.247284
 20
205.013763
 40
3.499999999999998
 50
355.0829
 51
358.362755
  0
ENDBLK
  8
0
  0
BLOCK
  8
0
  2
JZB-43
 70
     0
 10
0.0
 20
0.0
  0
LINE
  8
001
 62
     4
 10
405.747284
 20
254.513763
 11
406.247284
 21
255.013763
  0
LINE
  8
001
 62
     4
 10
403.247284
 20
255.013763
 11
403.747284
 21
254.513763
  0
ENDBLK
  8
0
  0
BLOCK
  8
0
  2
DP007205-1020-00-44
 70
     0
 10
0.0
 20
0.0
  0
ARC
  8
001
 10
405.747284
 20
225.013763
 40
2.5
 50
237.94949
 51
293.578178
  0
ARC
  8
001
 10
405.747284
 20
225.013763
 40
2.5
 50
66.421822
 51
122.05051
  0
ENDBLK
  8
0
  0
BLOCK
  8
0
  2
DP001560-1321-00-45
 70
     0
 10
0.0
 20
0.0
  0
LINE
  8
001
 10
399.747284
 20
233.513763
 11
406.747284
 21
233.513763
  0
LINE
  8
001
 10
400.047284
 20
228.513763
 11
399.747284
 21
228.513763
  0
LINE
  8
001
 10
400.047284
 20
227.013763
 11
400.047284
 21
228.513763
  0
LINE
  8
001
 10
400.047284
 20
221.513763
 11
400.047284
 21
223.013763
  0
LINE
  8
001
 10
399.747284
 20
221.513763
 11
400.047284
 21
221.513763
  0
LINE
  8
001
 10
406.747284
 20
216.513763
 11
399.747284
 21
216.513763
  0
ENDBLK
  8
0
  0
BLOCK
  8
0
  2
DP000010-1090-00-46
 70
     0
 10
0.0
 20
0.0
  0
LINE
  8
001
 62
     3
 10
402.447284
 20
226.513763
 11
402.247284
 21
226.513763
  0
LINE
  8
001
 62
     3
 10
403.247284
 20
226.513763
 11
403.047284
 21
226.513763
  0
LINE
  8
001
 62
     3
 10
403.047284
 20
223.513763
 11
403.247284
 21
223.513763
  0
LINE
  8
001
 62
     3
 10
402.247284
 20
223.513763
 11
402.447284
 21
223.513763
  0
LINE
  8
001
 62
     3
 10
402.247284
 20
223.013763
 11
402.247284
 21
227.013763
  0
LINE
  8
001
 62
     3
 10
402.247284
 20
227.013763
 11
399.747284
 21
227.013763
  0
LINE
  8
001
 62
     3
 10
399.747284
 20
223.013763
 11
402.247284
 21
223.013763
  0
LINE
  8
001
 62
     3
 10
403.247284
 20
223.013763
 11
403.247284
 21
227.013763
  0
LINE
  8
001
 62
     3
 10
404.747284
 20
225.513763
 11
404.747284
 21
227.013763
  0
LINE
  8
001
 62
     3
 10
404.747284
 20
224.513763
 11
403.747284
 21
224.513763
  0
LINE
  8
001
 62
     3
 10
403.747284
 20
224.513763
 11
403.747284
 21
225.513763
  0
LINE
  8
001
 62
     3
 10
403.747284
 20
225.513763
 11
404.747284
 21
225.513763
  0
LINE
  8
001
 62
     3
 10
404.747284
 20
227.013763
 11
403.247284
 21
227.013763
  0
LINE
  8
001
 62
     3
 10
403.247284
 20
223.013763
 11
404.747284
 21
223.013763
  0
LINE
  8
001
 62
     3
 10
404.747284
 20
223.013763
 11
404.747284
 21
224.513763
  0
ENDBLK
  8
0
  0
BLOCK
  8
0
  2
DP000020-1100-00-47
 70
     0
 10
0.0
 20
0.0
  0
ARC
  8
001
 62
    15
 10
402.747284
 20
225.013763
 40
2.100000000000001
 50
98.213211
 51
107.75279
  0
ARC
  8
001
 62
    15
 10
402.747284
 20
225.013763
 40
2.100000000000001
 50
252.24721
 51
261.786789
  0
ARC
  8
001
 62
    15
 10
402.747284
 20
225.013763
 40
2.100000000000001
 50
278.213211
 51
287.75279
  0
ARC
  8
001
 62
    15
 10
402.747284
 20
225.013763
 40
2.100000000000001
 50
342.24721
 51
17.75279
  0
ARC
  8
001
 62
    15
 10
402.747284
 20
225.013763
 40
2.100000000000001
 50
72.24721
 51
81.786789
  0
ARC
  8
001
 62
    15
 10
402.747284
 20
225.013763
 40
2.7
 50
317.794554
 51
42.205446
  0
ARC
  8
001
 62
    15
 10
402.747284
 20
225.013763
 40
2.7
 50
47.794554
 51
83.62063
  0
ARC
  8
001
 62
    15
 10
402.747284
 20
225.013763
 40
2.7
 50
96.37937
 51
132.205446
  0
ARC
  8
001
 62
    15
 10
402.747284
 20
225.013763
 40
2.7
 50
227.794554
 51
263.62063
  0
ARC
  8
001
 62
    15
 10
402.747284
 20
225.013763
 40
2.7
 50
276.37937
 51
312.205446
  0
LINE
  8
001
 62
    15
 10
402.447284
 20
222.313763
 11
403.047284
 21
222.313763
  0
LINE
  8
001
 62
    15
 10
403.047284
 20
227.713763
 11
402.447284
 21
227.713763
  0
LINE
  8
001
 62
    15
 10
402.447284
 20
227.713763
 11
402.447284
 21
222.313763
  0
LINE
  8
001
 62
    15
 10
403.047284
 20
222.313763
 11
403.047284
 21
227.713763
  0
ENDBLK
  8
0
  0
BLOCK
  8
0
  2
JZB-48
 70
     0
 10
0.0
 20
0.0
  0
LINE
  8
001
 62
     4
 10
388.812284
 20
240.513763
 11
389.529784
 21
239.271017
  0
LINE
  8
001
 62
     4
 10
389.529784
 20
241.75651
 11
388.812284
 21
240.513763
  0
LINE
  8
001
 62
     4
 10
389.529784
 20
239.271017
 11
390.964784
 21
239.271017
  0
LINE
  8
001
 62
     4
 10
390.964784
 20
241.75651
 11
389.529784
 21
241.75651
  0
LINE
  8
001
 62
     4
 10
391.682284
 20
240.513763
 11
390.964784
 21
241.75651
  0
LINE
  8
001
 62
     4
 10
390.964784
 20
239.271017
 11
391.682284
 21
240.513763
  0
CIRCLE
  8
001
 62
     4
 10
390.247284
 20
240.513763
 40
2.449999999999992
  0
CIRCLE
  8
001
 62
     4
 10
390.247284
 20
240.513763
 40
2.749999999999998
  0
ENDBLK
  8
0
  0
BLOCK
  8
0
  2
JZB-49
 70
     0
 10
0.0
 20
0.0
  0
LINE
  8
001
 62
     4
 10
401.700489
 20
245.313763
 11
401.585019
 21
245.113763
  0
LINE
  8
001
 62
     4
 10
402.046899
 20
245.913763
 11
401.931429
 21
245.713763
  0
ARC
  8
001
 62
     4
 10
403.247284
 20
245.013763
 40
3.09999999999999
 50
151.061472
 51
165.407449
  0
ARC
  8
001
 62
     4
 10
403.247284
 20
245.013763
 40
3.09999999999999
 50
194.592551
 51
216.249321
  0
ARC
  8
001
 62
     4
 10
403.247284
 20
245.013763
 40
3.499999999999998
 50
211.002719
 51
224.415309
  0
ARC
  8
001
 62
     4
 10
403.247284
 20
245.013763
 40
3.499999999999998
 50
1.637245
 51
4.9171
  0
ARC
  8
001
 62
     4
 10
403.247284
 20
245.013763
 40
3.499999999999998
 50
11.370111
 51
14.900597
  0
ENDBLK
  8
0
  0
BLOCK
  8
0
  2
JZB-50
 70
     0
 10
0.0
 20
0.0
  0
LINE
  8
001
 62
     4
 10
406.197374
 20
249.953763
 11
405.007284
 21
249.953763
  0
LINE
  8
001
 62
     4
 10
404.487284
 20
248.763763
 11
404.487284
 21
249.953763
  0
LINE
  8
001
 62
     4
 10
404.487284
 20
249.953763
 11
403.297374
 21
249.953763
  0
LINE
  8
001
 62
     4
 10
405.007284
 20
250.473763
 11
406.197374
 21
250.473763
  0
LINE
  8
001
 62
     4
 10
403.297374
 20
250.473763
 11
404.487284
 21
250.473763
  0
LINE
  8
001
 62
     4
 10
404.487284
 20
250.473763
 11
404.487284
 21
251.663763
  0
LINE
  8
001
 62
     4
 10
405.007284
 20
249.953763
 11
405.007284
 21
248.763763
  0
LINE
  8
001
 62
     4
 10
405.007284
 20
248.763763
 11
404.487284
 21
248.763763
  0
LINE
  8
001
 62
     4
 10
403.297374
 20
249.953763
 11
403.297374
 21
250.473763
  0
LINE
  8
001
 62
     4
 10
404.487284
 20
251.663763
 11
405.007284
 21
251.663763
  0
LINE
  8
001
 62
     4
 10
405.007284
 20
251.663763
 11
405.007284
 21
250.473763
  0
LINE
  8
001
 62
     4
 10
406.197374
 20
250.473763
 11
406.197374
 21
249.953763
  0
CIRCLE
  8
001
 62
     4
 10
404.747284
 20
250.213763
 40
3.45
  0
ENDBLK
  8
0
  0
BLOCK
  8
0
  2
JZB-51
 70
     0
 10
0.0
 20
0.0
  0
LINE
  8
001
 62
     4
 10
405.007284
 20
242.263763
 11
405.007284
 21
241.073763
  0
LINE
  8
001
 62
     4
 10
404.487284
 20
241.073763
 11
404.487284
 21
242.263763
  0
LINE
  8
001
 62
     4
 10
406.197374
 20
240.553763
 11
405.007284
 21
240.553763
  0
LINE
  8
001
 62
     4
 10
405.007284
 20
240.553763
 11
405.007284
 21
239.363763
  0
LINE
  8
001
 62
     4
 10
405.007284
 20
239.363763
 11
404.487284
 21
239.363763
  0
LINE
  8
001
 62
     4
 10
404.487284
 20
239.363763
 11
404.487284
 21
240.553763
  0
LINE
  8
001
 62
     4
 10
404.487284
 20
240.553763
 11
403.297374
 21
240.553763
  0
LINE
  8
001
 62
     4
 10
403.297374
 20
240.553763
 11
403.297374
 21
241.073763
  0
LINE
  8
001
 62
     4
 10
403.297374
 20
241.073763
 11
404.487284
 21
241.073763
  0
LINE
  8
001
 62
     4
 10
404.487284
 20
242.263763
 11
405.007284
 21
242.263763
  0
LINE
  8
001
 62
     4
 10
405.007284
 20
241.073763
 11
406.197374
 21
241.073763
  0
LINE
  8
001
 62
     4
 10
406.197374
 20
241.073763
 11
406.197374
 21
240.553763
  0
CIRCLE
  8
001
 62
     4
 10
404.747284
 20
240.813763
 40
3.45
  0
ENDBLK
  8
0
  0
BLOCK
  8
0
  2
DP001560-1380-00-52
 70
     0
 10
0.0
 20
0.0
  0
LINE
  8
001
 62
     3
 10
406.747284
 20
227.013763
 11
404.747284
 21
227.013763
  0
LINE
  8
001
 62
     3
 10
404.747284
 20
223.013763
 11
406.747284
 21
223.013763
  0
ENDBLK
  8
0
  0
BLOCK
  8
0
  2
JZB-53
 70
     0
 10
0.0
 20
0.0
  0
LINE
  8
001
 62
     4
 10
422.682284
 20
240.513763
 11
421.964784
 21
241.75651
  0
LINE
  8
001
 62
     4
 10
421.964784
 20
239.271017
 11
422.682284
 21
240.513763
  0
LINE
  8
001
 62
     4
 10
419.812284
 20
240.513763
 11
420.529784
 21
239.271017
  0
LINE
  8
001
 62
     4
 10
421.964784
 20
241.75651
 11
420.529784
 21
241.75651
  0
LINE
  8
001
 62
     4
 10
420.529784
 20
239.271017
 11
421.964784
 21
239.271017
  0
LINE
  8
001
 62
     4
 10
420.529784
 20
241.75651
 11
419.812284
 21
240.513763
  0
CIRCLE
  8
001
 62
     4
 10
421.247284
 20
240.513763
 40
2.449999999999992
  0
CIRCLE
  8
001
 62
     4
 10
421.247284
 20
240.513763
 40
2.749999999999998
  0
ENDBLK
  8
0
  0
BLOCK
  8
0
  2
JZB-54
 70
     0
 10
0.0
 20
0.0
  0
LINE
  8
001
 62
     4
 10
421.964784
 20
208.271017
 11
422.682284
 21
209.513763
  0
LINE
  8
001
 62
     4
 10
421.964784
 20
210.75651
 11
420.529784
 21
210.75651
  0
LINE
  8
001
 62
     4
 10
420.529784
 20
210.75651
 11
419.812284
 21
209.513763
  0
LINE
  8
001
 62
     4
 10
419.812284
 20
209.513763
 11
420.529784
 21
208.271017
  0
LINE
  8
001
 62
     4
 10
420.529784
 20
208.271017
 11
421.964784
 21
208.271017
  0
LINE
  8
001
 62
     4
 10
422.682284
 20
209.513763
 11
421.964784
 21
210.75651
  0
CIRCLE
  8
001
 62
     4
 10
421.247284
 20
209.513763
 40
2.449999999999992
  0
CIRCLE
  8
001
 62
     4
 10
421.247284
 20
209.513763
 40
2.749999999999998
  0
ENDBLK
  8
0
  0
BLOCK
  8
0
  2
MOLEX_51103-0500-55
 70
     0
 10
0.0
 20
0.0
  0
LINE
  8
001
 10
408.750452
 20
198.613592
 11
408.747284
 21
198.613592
  0
ENDBLK
  8
0
  0
BLOCK
  8
0
  2
DP007167-1020-00-56
 70
     0
 10
0.0
 20
0.0
  0
LINE
  8
001
 62
     3
 10
384.747284
 20
202.013763
 11
384.747284
 21
248.013763
  0
LINE
  8
001
 62
     3
 10
384.747284
 20
202.013763
 11
386.747284
 21
200.013763
  0
LINE
  8
001
 62
     3
 10
394.747284
 20
200.013763
 11
386.747284
 21
200.013763
  0
LINE
  8
001
 62
     3
 10
424.747284
 20
200.013763
 11
415.747284
 21
200.013763
  0
LINE
  8
001
 62
     3
 10
424.747284
 20
200.013763
 11
426.747284
 21
202.013763
  0
LINE
  8
001
 62
     3
 10
426.747284
 20
202.013763
 11
426.747284
 21
248.013763
  0
CIRCLE
  8
001
 62
     3
 10
390.247284
 20
209.513763
 40
3.0
  0
CIRCLE
  8
001
 62
     3
 10
421.247284
 20
209.513763
 40
3.0
  0
LINE
  8
001
 62
     3
 10
426.747284
 20
248.013763
 11
424.747284
 21
250.013763
  0
LINE
  8
001
 62
     3
 10
394.747284
 20
250.013763
 11
386.747284
 21
250.013763
  0
LINE
  8
001
 62
     3
 10
424.747284
 20
250.013763
 11
415.747284
 21
250.013763
  0
LINE
  8
001
 62
     3
 10
386.747284
 20
250.013763
 11
384.747284
 21
248.013763
  0
CIRCLE
  8
001
 62
     3
 10
390.247284
 20
240.513763
 40
3.0
  0
CIRCLE
  8
001
 62
     3
 10
421.247284
 20
240.513763
 40
3.0
  0
LINE
  8
001
 62
     3
 10
391.747284
 20
232.98239
 11
384.747284
 21
232.98239
  0
LINE
  8
001
 62
     3
 10
384.747284
 20
225.045136
 11
391.747284
 21
225.045136
  0
LINE
  8
001
 62
     3
 10
419.747284
 20
217.045136
 11
426.747284
 21
217.045136
  0
LINE
  8
001
 62
     3
 10
426.747284
 20
224.98239
 11
419.747284
 21
224.98239
  0
ENDBLK
  8
0
  0
BLOCK
  8
0
  2
DP007165-1010-00-57
 70
     0
 10
0.0
 20
0.0
  0
LINE
  8
001
 62
     3
 10
407.997284
 20
245.313763
 11
407.997284
 21
245.113763
  0
LINE
  8
001
 62
     3
 10
407.997284
 20
245.913763
 11
407.997284
 21
245.713763
  0
ARC
  8
001
 62
     3
 10
403.247284
 20
245.013763
 40
4.0
 50
1.432544
 51
4.301222
  0
ARC
  8
001
 62
     3
 10
403.247284
 20
245.013763
 40
4.0
 50
10.078658
 51
13.002878
  0
ARC
  8
001
 62
     3
 10
403.247284
 20
245.013763
 40
4.0
 50
221.409622
 51
231.317813
  0
LINE
  8
001
 62
     3
 10
407.997284
 20
204.313763
 11
407.997284
 21
204.113763
  0
LINE
  8
001
 62
     3
 10
407.997284
 20
204.913763
 11
407.997284
 21
204.713763
  0
ARC
  8
001
 62
     3
 10
403.247284
 20
205.013763
 40
4.0
 50
128.682187
 51
138.590378
  0
ARC
  8
001
 62
     3
 10
403.247284
 20
205.013763
 40
4.0
 50
346.997122
 51
349.921342
  0
ARC
  8
001
 62
     3
 10
403.247284
 20
205.013763
 40
4.0
 50
355.698778
 51
358.567456
  0
LINE
  8
001
 62
     3
 10
406.747284
 20
234.513763
 11
399.747284
 21
234.513763
  0
LINE
  8
001
 62
     3
 10
406.747284
 20
215.513763
 11
399.747284
 21
215.513763
  0
ENDBLK
  8
0
  0
BLOCK
  8
0
  2
DP007167-1010-00-58
 70
     0
 10
0.0
 20
0.0
  0
LINE
  8
001
 62
     3
 10
399.747284
 20
235.013763
 11
400.247284
 21
235.013763
  0
LINE
  8
001
 62
     3
 10
394.747284
 20
190.013763
 11
408.747284
 21
190.013763
  0
LINE
  8
001
 62
     3
 10
408.747284
 20
255.013763
 11
408.747284
 21
260.013763
  0
LINE
  8
001
 62
     3
 10
408.747284
 20
260.013763
 11
394.747284
 21
260.013763
  0
LINE
  8
001
 62
     3
 10
400.247284
 20
215.013763
 11
399.747284
 21
215.013763
  0
LINE
  8
001
 62
     3
 10
400.247284
 20
203.513763
 11
400.247284
 21
215.013763
  0
LINE
  8
001
 62
     3
 10
394.747284
 20
260.013763
 11
394.747284
 21
190.013763
  0
LINE
  8
001
 62
     3
 10
400.747284
 20
255.013763
 11
408.747284
 21
255.013763
  0
LINE
  8
001
 62
     3
 10
400.747284
 20
195.513763
 11
400.747284
 21
203.513763
  0
LINE
  8
001
 62
     3
 10
408.747284
 20
195.513763
 11
400.747284
 21
195.513763
  0
LINE
  8
001
 62
     3
 10
400.747284
 20
255.013763
 11
400.747284
 21
246.513763
  0
LINE
  8
001
 62
     3
 10
408.747284
 20
190.013763
 11
408.747284
 21
195.513763
  0
LINE
  8
001
 62
     3
 10
399.747284
 20
215.013763
 11
399.747284
 21
235.013763
  0
LINE
  8
001
 62
     3
 10
400.247284
 20
235.013763
 11
400.247284
 21
246.513763
  0
LINE
  8
001
 62
     3
 10
400.247284
 20
246.513763
 11
400.747284
 21
246.513763
  0
LINE
  8
001
 62
     3
 10
400.747284
 20
203.513763
 11
400.247284
 21
203.513763
  0
ENDBLK
  8
0
  0
BLOCK
  8
0
  2
DP007023-1060-00-59
 70
     0
 10
0.0
 20
0.0
  0
ARC
  8
001
 62
     3
 10
405.747284
 20
225.013763
 40
10.24999999999997
 50
337.94583
 51
22.05417
  0
LINE
  8
001
 62
     3
 10
408.747284
 20
200.013765
 11
409.247284
 21
200.013765
  0
LINE
  8
001
 62
     3
 10
409.247284
 20
250.013765
 11
408.747284
 21
250.013765
  0
LINE
  8
001
 62
     3
 10
391.747284
 20
233.713765
 11
394.747284
 21
233.713765
  0
LINE
  8
001
 62
     3
 10
391.747284
 20
233.713765
 11
391.747284
 21
216.313765
  0
LINE
  8
001
 62
     3
 10
394.747284
 20
216.313765
 11
391.747284
 21
216.313765
  0
ARC
  8
001
 62
     3
 10
418.247284
 20
212.813766
 40
3.5
 50
90.0
 51
148.997281
  0
LINE
  8
001
 62
     3
 10
418.247284
 20
216.313766
 11
419.747284
 21
216.313766
  0
LINE
  8
001
 62
     3
 10
419.747284
 20
216.313766
 11
419.747284
 21
233.713766
  0
LINE
  8
001
 62
     3
 10
419.747284
 20
233.713766
 11
418.247284
 21
233.713766
  0
ARC
  8
001
 62
     3
 10
418.247284
 20
237.213766
 40
3.5
 50
211.002719
 51
270.0
  0
LINE
  8
001
 62
     3
 10
408.747284
 20
204.113763
 11
408.747284
 21
204.913763
  0
LINE
  8
001
 62
     3
 10
408.747284
 20
245.113763
 11
408.747284
 21
245.913763
  0
ENDBLK
  8
0
  0
BLOCK
  8
0
  2
DP007037-1040-00-60
 70
     0
 10
0.0
 20
0.0
  0
LINE
  8
001
 62
     3
 10
408.747284
 20
204.113763
 11
408.747284
 21
204.913763
  0
LINE
  8
001
 62
     3
 10
409.247284
 20
201.013763
 11
408.747284
 21
201.013763
  0
LINE
  8
001
 62
     3
 10
408.747284
 20
245.113763
 11
408.747284
 21
245.913763
  0
LINE
  8
001
 62
     3
 10
409.247284
 20
249.013763
 11
408.747284
 21
249.013763
  0
LINE
  8
001
 62
     3
 10
415.747284
 20
190.013763
 11
415.747284
 21
200.013763
  0
LINE
  8
001
 62
     3
 10
415.747284
 20
200.013763
 11
415.247284
 21
200.013763
  0
LINE
  8
001
 62
     3
 10
415.247284
 20
200.013763
 11
415.247284
 21
250.013763
  0
LINE
  8
001
 62
     3
 10
415.247284
 20
250.013763
 11
415.747284
 21
250.013763
  0
LINE
  8
001
 62
     3
 10
415.747284
 20
250.013763
 11
415.747284
 21
260.013763
  0
LINE
  8
001
 62
     3
 10
415.747284
 20
260.013763
 11
409.247284
 21
260.013763
  0
LINE
  8
001
 62
     3
 10
409.247284
 20
260.013763
 11
409.247284
 21
244.513763
  0
LINE
  8
001
 62
     3
 10
409.247284
 20
244.513763
 11
408.747284
 21
244.513763
  0
LINE
  8
001
 62
     3
 10
408.747284
 20
244.513763
 11
408.747284
 21
236.513763
  0
LINE
  8
001
 62
     3
 10
408.747284
 20
236.513763
 11
406.747284
 21
236.513763
  0
LINE
  8
001
 62
     3
 10
406.747284
 20
236.513763
 11
406.747284
 21
213.513763
  0
LINE
  8
001
 62
     3
 10
406.747284
 20
213.513763
 11
408.747284
 21
213.513763
  0
LINE
  8
001
 62
     3
 10
408.747284
 20
213.513763
 11
408.747284
 21
205.513763
  0
LINE
  8
001
 62
     3
 10
408.747284
 20
205.513763
 11
409.247284
 21
205.513763
  0
LINE
  8
001
 62
     3
 10
409.247284
 20
205.513763
 11
409.247284
 21
190.013763
  0
LINE
  8
001
 62
     3
 10
409.247284
 20
190.013763
 11
415.747284
 21
190.013763
  0
ENDBLK
  8
0
  0
BLOCK
  8
0
  2
DA007167-0101-000-00-61
 70
     0
 10
0.0
 20
0.0
  0
LINE
  8
001
  6
CENTER
 10
324.908051
 20
337.975922
 11
324.908051
 21
362.975922
  0
LINE
  8
001
  6
HIDDEN
 10
352.658051
 20
360.975922
 11
352.658051
 21
358.475922
  0
LINE
  8
001
  6
HIDDEN
 10
297.158051
 20
358.475922
 11
297.158051
 21
360.975922
  0
LINE
  8
001
  6
HIDDEN
 10
357.158051
 20
358.475922
 11
357.158051
 21
360.975922
  0
LINE
  8
001
  6
HIDDEN
 10
298.658051
 20
358.475922
 11
291.158051
 21
358.475922
  0
LINE
  8
001
  6
HIDDEN
 10
291.158051
 20
358.475922
 11
291.158051
 21
354.475922
  0
LINE
  8
001
  6
HIDDEN
 10
351.158051
 20
358.475922
 11
351.158051
 21
354.475922
  0
LINE
  8
001
  6
HIDDEN
 10
298.658051
 20
354.475922
 11
298.658051
 21
358.475922
  0
LINE
  8
001
  6
HIDDEN
 10
358.658051
 20
358.475922
 11
351.158051
 21
358.475922
  0
LINE
  8
001
  6
HIDDEN
 10
358.658051
 20
354.475922
 11
358.658051
 21
358.475922
  0
LINE
  8
001
  6
HIDDEN
 10
292.658051
 20
360.975922
 11
292.658051
 21
358.475922
  0
LINE
  8
001
  6
CENTER
 10
294.908051
 20
362.975922
 11
294.908051
 21
352.475922
  0
LINE
  8
001
  6
CENTER
 10
354.908051
 20
362.975922
 11
354.908051
 21
352.475922
  0
LINE
  8
001
  6
CENTER
 10
153.927658
 20
350.975922
 11
291.908051
 21
350.975922
  0
ENDBLK
  8
0
  0
BLOCK
  8
0
  2
JZB-62
 70
     0
 10
0.0
 20
0.0
  0
LINE
  8
001
 62
     4
 10
348.908051
 20
350.841947
 11
349.658051
 21
350.408934
  0
LINE
  8
001
 62
     4
 10
349.658051
 20
350.408934
 11
349.658051
 21
349.542909
  0
LINE
  8
001
 62
     4
 10
349.658051
 20
349.542909
 11
348.908051
 21
349.109896
  0
LINE
  8
001
 62
     4
 10
348.908051
 20
349.109896
 11
348.158051
 21
349.542909
  0
LINE
  8
001
 62
     4
 10
348.158051
 20
349.542909
 11
348.158051
 21
350.408934
  0
LINE
  8
001
 62
     4
 10
348.158051
 20
350.408934
 11
348.908051
 21
350.841947
  0
CIRCLE
  8
001
 62
     4
 10
348.908051
 20
349.975922
 40
1.2295
  0
ENDBLK
  8
0
  0
BLOCK
  8
0
  2
JZB-63
 70
     0
 10
0.0
 20
0.0
  0
LINE
  8
001
 62
     4
 10
332.908051
 20
349.109896
 11
332.158051
 21
349.542909
  0
LINE
  8
001
 62
     4
 10
333.658051
 20
349.542909
 11
332.908051
 21
349.109896
  0
LINE
  8
001
 62
     4
 10
333.658051
 20
350.408934
 11
333.658051
 21
349.542909
  0
LINE
  8
001
 62
     4
 10
332.158051
 20
349.542909
 11
332.158051
 21
350.408934
  0
LINE
  8
001
 62
     4
 10
332.158051
 20
350.408934
 11
332.908051
 21
350.841947
  0
LINE
  8
001
 62
     4
 10
332.908051
 20
350.841947
 11
333.658051
 21
350.408934
  0
CIRCLE
  8
001
 62
     4
 10
332.908051
 20
349.975922
 40
1.2295
  0
ENDBLK
  8
0
  0
BLOCK
  8
0
  2
JZB-64
 70
     0
 10
0.0
 20
0.0
  0
LINE
  8
001
 62
     4
 10
316.908051
 20
350.841947
 11
317.658051
 21
350.408934
  0
LINE
  8
001
 62
     4
 10
316.158051
 20
350.408934
 11
316.908051
 21
350.841947
  0
LINE
  8
001
 62
     4
 10
316.158051
 20
349.542909
 11
316.158051
 21
350.408934
  0
CIRCLE
  8
001
 62
     4
 10
316.908051
 20
349.975922
 40
1.2295
  0
LINE
  8
001
 62
     4
 10
317.658051
 20
350.408934
 11
317.658051
 21
349.542909
  0
LINE
  8
001
 62
     4
 10
317.658051
 20
349.542909
 11
316.908051
 21
349.109896
  0
LINE
  8
001
 62
     4
 10
316.908051
 20
349.109896
 11
316.158051
 21
349.542909
  0
ENDBLK
  8
0
  0
BLOCK
  8
0
  2
JZB-65
 70
     0
 10
0.0
 20
0.0
  0
LINE
  8
001
 62
     4
 10
301.658051
 20
349.542909
 11
300.908051
 21
349.109896
  0
LINE
  8
001
 62
     4
 10
300.908051
 20
349.109896
 11
300.158051
 21
349.542909
  0
LINE
  8
001
 62
     4
 10
300.908051
 20
350.841947
 11
301.658051
 21
350.408934
  0
LINE
  8
001
 62
     4
 10
300.158051
 20
350.408934
 11
300.908051
 21
350.841947
  0
LINE
  8
001
 62
     4
 10
301.658051
 20
350.408934
 11
301.658051
 21
349.542909
  0
LINE
  8
001
 62
     4
 10
300.158051
 20
349.542909
 11
300.158051
 21
350.408934
  0
CIRCLE
  8
001
 62
     4
 10
300.908051
 20
349.975922
 40
1.2295
  0
ENDBLK
  8
0
  0
BLOCK
  8
0
  2
DP007205-1020-00-66
 70
     0
 10
0.0
 20
0.0
  0
LINE
  8
001
 10
279.458051
 20
348.975922
 11
280.458051
 21
348.975922
  0
LINE
  8
001
 10
280.458051
 20
352.975922
 11
279.458051
 21
352.975922
  0
LINE
  8
001
 10
280.458051
 20
353.475922
 11
280.458051
 21
348.475922
  0
LINE
  8
001
 10
280.458051
 20
348.475922
 11
288.259488
 21
348.475922
  0
LINE
  8
001
 10
289.908051
 20
353.475922
 11
280.458051
 21
353.475922
  0
LINE
  8
001
 10
279.458051
 20
346.225922
 11
279.458051
 21
354.475922
  0
LINE
  8
001
 10
278.408051
 20
346.225922
 11
279.458051
 21
346.225922
  0
LINE
  8
001
 10
278.408051
 20
348.414184
 11
279.458051
 21
348.414184
  0
LINE
  8
001
 10
278.408051
 20
353.537659
 11
279.458051
 21
353.537659
  0
ENDBLK
  8
0
  0
BLOCK
  8
0
  2
JZB-67
 70
     0
 10
0.0
 20
0.0
  0
LINE
  8
001
 62
     4
 10
289.908051
 20
353.425922
 11
289.565437
 21
353.425922
  0
LINE
  8
001
 62
     4
 10
289.565437
 20
346.525922
 11
289.908051
 21
346.525922
  0
LINE
  8
001
 62
     4
 10
288.02277
 20
350.235922
 11
288.25031
 21
350.235922
  0
ARC
  8
001
 62
     4
 10
292.608051
 20
349.975922
 40
4.365489663256575
 50
176.585555
 51
183.414445
  0
LINE
  8
001
 62
     4
 10
288.25031
 20
349.715922
 11
288.02277
 21
349.715922
  0
ARC
  8
001
 62
     4
 10
292.608051
 20
349.975922
 40
4.592646295982308
 50
183.245378
 51
198.403233
  0
LINE
  8
001
 62
     4
 10
288.25028
 20
348.526011
 11
288.242531
 21
348.526011
  0
ARC
  8
001
 62
     4
 10
292.608051
 20
349.975922
 40
4.592646295982308
 50
161.594408
 51
176.754622
  0
ARC
  8
001
 62
     4
 10
292.608051
 20
349.975922
 40
4.6
 50
131.409622
 51
161.624885
  0
ARC
  8
001
 62
     4
 10
292.608051
 20
349.975922
 40
4.6
 50
198.372761
 51
228.590378
  0
LINE
  8
001
 62
     4
 10
288.242591
 20
351.426011
 11
288.25034
 21
351.426011
  0
LINE
  8
001
 62
     4
 10
289.565437
 20
353.425922
 11
289.565437
 21
346.525922
  0
ENDBLK
  8
0
  0
BLOCK
  8
0
  2
JZB-68
 70
     0
 10
0.0
 20
0.0
  0
ARC
  8
001
 62
     4
 10
357.208051
 20
349.975922
 40
4.592646295982306
 50
341.596767
 51
356.754622
  0
LINE
  8
001
 62
     4
 10
361.793331
 20
349.715922
 11
361.565791
 21
349.715922
  0
ARC
  8
001
 62
     4
 10
357.208051
 20
349.975922
 40
4.365489663256575
 50
356.585555
 51
3.414445
  0
LINE
  8
001
 62
     4
 10
361.565791
 20
350.235922
 11
361.793331
 21
350.235922
  0
ARC
  8
001
 62
     4
 10
357.208051
 20
349.975922
 40
4.592646295982306
 50
3.245378
 51
18.405592
  0
LINE
  8
001
 62
     4
 10
361.565761
 20
351.426011
 11
361.57351
 21
351.426011
  0
ARC
  8
001
 62
     4
 10
357.208051
 20
349.975922
 40
4.6
 50
18.375115
 51
48.590378
  0
ARC
  8
001
 62
     4
 10
357.208051
 20
349.975922
 40
4.6
 50
311.409622
 51
341.627239
  0
LINE
  8
001
 62
     4
 10
361.57357
 20
348.526011
 11
361.565821
 21
348.526011
  0
LINE
  8
001
 62
     4
 10
360.250665
 20
353.425922
 11
360.250665
 21
346.525922
  0
LINE
  8
001
 62
     4
 10
359.908051
 20
346.525922
 11
360.250665
 21
346.525922
  0
LINE
  8
001
 62
     4
 10
360.250665
 20
353.425922
 11
359.908051
 21
353.425922
  0
ENDBLK
  8
0
  0
BLOCK
  8
0
  2
DP007167-1020-00-69
 70
     0
 10
0.0
 20
0.0
  0
LINE
  8
001
  6
CENTER
 10
236.908051
 20
352.775922
 11
236.908051
 21
349.175922
  0
CIRCLE
  8
001
 62
     3
 10
236.908051
 20
350.975922
 40
1.23
  0
CIRCLE
  8
001
 62
     3
 10
236.908051
 20
350.975922
 40
1.5
  0
LINE
  8
001
  6
CENTER
 10
232.408051
 20
359.775922
 11
232.408051
 21
356.175922
  0
LINE
  8
001
  6
CENTER
 10
230.608051
 20
357.975922
 11
234.208051
 21
357.975922
  0
CIRCLE
  8
001
 62
     3
 10
232.408051
 20
357.975922
 40
1.23
  0
CIRCLE
  8
001
 62
     3
 10
232.408051
 20
357.975922
 40
1.5
  0
LINE
  8
001
  6
CENTER
 10
232.408051
 20
345.775922
 11
232.408051
 21
342.175922
  0
LINE
  8
001
  6
CENTER
 10
230.608051
 20
343.975922
 11
234.208051
 21
343.975922
  0
CIRCLE
  8
001
 62
     3
 10
232.408051
 20
343.975922
 40
1.23
  0
CIRCLE
  8
001
 62
     3
 10
232.408051
 20
343.975922
 40
1.5
  0
LINE
  8
001
 62
     3
 10
240.408051
 20
371.975922
 11
240.408051
 21
329.975922
  0
LINE
  8
001
 62
     3
 10
228.408051
 20
371.975922
 11
228.408051
 21
329.975922
  0
LINE
  8
001
 62
     3
 10
228.408051
 20
371.975922
 11
240.408051
 21
371.975922
  0
LINE
  8
001
 62
     3
 10
240.408051
 20
329.975922
 11
228.408051
 21
329.975922
  0
LINE
  8
001
 62
     3
 10
240.408051
 20
369.975922
 11
228.408051
 21
369.975922
  0
LINE
  8
001
 62
     3
 10
228.408051
 20
331.975922
 11
240.408051
 21
331.975922
  0
ENDBLK
  8
0
  0
BLOCK
  8
0
  2
DP007165-1010-00-70
 70
     0
 10
0.0
 20
0.0
  0
LINE
  8
001
 62
     3
 10
278.408051
 20
341.475922
 11
263.408051
 21
341.475922
  0
LINE
  8
001
 62
     3
 10
278.408051
 20
354.465524
 11
278.408051
 21
341.475922
  0
LINE
  8
001
 62
     3
 10
273.908051
 20
354.465524
 11
273.908051
 21
341.475922
  0
LINE
  8
001
 62
     3
 10
273.908051
 20
354.465524
 11
278.408051
 21
354.465524
  0
LINE
  8
001
 62
     3
 10
273.908051
 20
353.225922
 11
263.408051
 21
353.225922
  0
LINE
  8
001
 62
     3
 10
263.408051
 20
353.225922
 11
263.408051
 21
341.475922
  0
ENDBLK
  8
0
  0
BLOCK
  8
0
  2
DP007167-1010-00-71
 70
     0
 10
0.0
 20
0.0
  0
LINE
  8
001
  6
CENTER
 10
347.408051
 20
344.175922
 11
347.408051
 21
341.775922
  0
LINE
  8
001
  6
CENTER
 10
346.208051
 20
342.975922
 11
348.608051
 21
342.975922
  0
CIRCLE
  8
001
 62
     3
 10
347.408051
 20
342.975922
 40
0.785
  0
CIRCLE
  8
001
 62
     3
 10
347.408051
 20
342.975922
 40
1.0
  0
LINE
  8
001
  6
CENTER
 10
302.408051
 20
344.175922
 11
302.408051
 21
341.775922
  0
LINE
  8
001
  6
CENTER
 10
301.208051
 20
342.975922
 11
303.608051
 21
342.975922
  0
CIRCLE
  8
001
 62
     3
 10
302.408051
 20
342.975922
 40
0.785
  0
CIRCLE
  8
001
 62
     3
 10
302.408051
 20
342.975922
 40
1.0
  0
LINE
  8
001
  6
CENTER
 10
356.908051
 20
344.175922
 11
356.908051
 21
341.775922
  0
LINE
  8
001
  6
CENTER
 10
355.708051
 20
342.975922
 11
358.108051
 21
342.975922
  0
CIRCLE
  8
001
 62
     3
 10
356.908051
 20
342.975922
 40
0.785
  0
CIRCLE
  8
001
 62
     3
 10
356.908051
 20
342.975922
 40
1.0
  0
LINE
  8
001
  6
CENTER
 10
292.908051
 20
344.175922
 11
292.908051
 21
341.775922
  0
LINE
  8
001
  6
CENTER
 10
291.708051
 20
342.975922
 11
294.108051
 21
342.975922
  0
CIRCLE
  8
001
 62
     3
 10
292.908051
 20
342.975922
 40
0.785
  0
CIRCLE
  8
001
 62
     3
 10
292.908051
 20
342.975922
 40
1.0
  0
CIRCLE
  8
001
 62
     3
 10
316.908051
 20
349.975922
 40
1.23
  0
CIRCLE
  8
001
 62
     3
 10
316.908051
 20
349.975922
 40
1.5
  0
CIRCLE
  8
001
 62
     3
 10
300.908051
 20
349.975922
 40
1.23
  0
CIRCLE
  8
001
 62
     3
 10
300.908051
 20
349.975922
 40
1.5
  0
CIRCLE
  8
001
 62
     3
 10
332.908051
 20
349.975922
 40
1.23
  0
CIRCLE
  8
001
 62
     3
 10
332.908051
 20
349.975922
 40
1.5
  0
CIRCLE
  8
001
 62
     3
 10
348.908051
 20
349.975922
 40
1.23
  0
CIRCLE
  8
001
 62
     3
 10
348.908051
 20
349.975922
 40
1.5
  0
LINE
  8
001
 62
     3
 10
359.908051
 20
353.975922
 11
359.908051
 21
339.975922
  0
LINE
  8
001
 62
     3
 10
289.908051
 20
353.975922
 11
359.908051
 21
353.975922
  0
LINE
  8
001
 62
     3
 10
289.908051
 20
353.975922
 11
289.908051
 21
339.975922
  0
LINE
  8
001
 62
     3
 10
289.908051
 20
339.975922
 11
359.908051
 21
339.975922
  0
ENDBLK
  8
0
  0
BLOCK
  8
0
  2
DP007023-1060-00-72
 70
     0
 10
0.0
 20
0.0
  0
LINE
  8
001
  6
CENTER
 10
252.408051
 20
345.775922
 11
252.408051
 21
342.175922
  0
LINE
  8
001
  6
CENTER
 10
250.608051
 20
343.975922
 11
254.208051
 21
343.975922
  0
CIRCLE
  8
001
 62
     3
 10
252.408051
 20
343.975922
 40
1.23
  0
CIRCLE
  8
001
 62
     3
 10
252.408051
 20
343.975922
 40
1.5
  0
LINE
  8
001
  6
CENTER
 10
252.408051
 20
351.275922
 11
252.408051
 21
347.675922
  0
LINE
  8
001
  6
CENTER
 10
250.608051
 20
349.475922
 11
254.208051
 21
349.475922
  0
CIRCLE
  8
001
 62
     3
 10
252.408051
 20
349.475922
 40
1.23
  0
CIRCLE
  8
001
 62
     3
 10
252.408051
 20
349.475922
 40
1.5
  0
LINE
  8
001
 62
     3
 10
249.408051
 20
336.975922
 11
249.408051
 21
341.475922
  0
LINE
  8
001
 62
     3
 10
240.408051
 20
336.975922
 11
249.408051
 21
336.975922
  0
LINE
  8
001
 62
     3
 10
249.408051
 20
364.975922
 11
249.408051
 21
360.975922
  0
LINE
  8
001
 62
     3
 10
240.408051
 20
364.975922
 11
249.408051
 21
364.975922
  0
LINE
  8
001
 62
     3
 10
240.408051
 20
359.975922
 11
240.408051
 21
343.475922
  0
LINE
  8
001
 62
     3
 10
240.408051
 20
343.475922
 11
242.408051
 21
341.475922
  0
LINE
  8
001
 62
     3
 10
242.408051
 20
341.475922
 11
263.408051
 21
341.475922
  0
LINE
  8
001
 62
     3
 10
263.408051
 20
341.475922
 11
263.408051
 21
353.975922
  0
LINE
  8
001
 62
     3
 10
249.408051
 20
353.975922
 11
263.408051
 21
353.975922
  0
LINE
  8
001
 62
     3
 10
249.408051
 20
354.475922
 11
249.408051
 21
353.975922
  0
LINE
  8
001
 62
     3
 10
240.408051
 20
359.975922
 11
249.408051
 21
359.975922
  0
ENDBLK
  8
0
  0
BLOCK
  8
0
  2
DP007037-1040-00-73
 70
     0
 10
0.0
 20
0.0
  0
LINE
  8
001
  6
CENTER
 10
314.908051
 20
358.175922
 11
314.908051
 21
355.775922
  0
LINE
  8
001
  6
CENTER
 10
313.708051
 20
356.975922
 11
316.108051
 21
356.975922
  0
CIRCLE
  8
001
 62
     3
 10
314.908051
 20
356.975922
 40
0.785
  0
CIRCLE
  8
001
 62
     3
 10
314.908051
 20
356.975922
 40
1.0
  0
LINE
  8
001
  6
CENTER
 10
347.908051
 20
358.175922
 11
347.908051
 21
355.775922
  0
LINE
  8
001
  6
CENTER
 10
346.708051
 20
356.975922
 11
349.108051
 21
356.975922
  0
CIRCLE
  8
001
 62
     3
 10
347.908051
 20
356.975922
 40
0.785
  0
CIRCLE
  8
001
 62
     3
 10
347.908051
 20
356.975922
 40
1.0
  0
LINE
  8
001
  6
CENTER
 10
301.908051
 20
358.175922
 11
301.908051
 21
355.775922
  0
LINE
  8
001
  6
CENTER
 10
300.708051
 20
356.975922
 11
303.108051
 21
356.975922
  0
CIRCLE
  8
001
 62
     3
 10
301.908051
 20
356.975922
 40
0.785
  0
CIRCLE
  8
001
 62
     3
 10
301.908051
 20
356.975922
 40
1.0
  0
LINE
  8
001
  6
CENTER
 10
334.908051
 20
358.175922
 11
334.908051
 21
355.775922
  0
LINE
  8
001
  6
CENTER
 10
333.708051
 20
356.975922
 11
336.108051
 21
356.975922
  0
CIRCLE
  8
001
 62
     3
 10
334.908051
 20
356.975922
 40
0.785
  0
CIRCLE
  8
001
 62
     3
 10
334.908051
 20
356.975922
 40
1.0
  0
LINE
  8
001
 62
     3
 10
359.908051
 20
353.975922
 11
359.908051
 21
360.975922
  0
LINE
  8
001
 62
     3
 10
289.908051
 20
354.475922
 11
289.908051
 21
353.975922
  0
LINE
  8
001
 62
     3
 10
263.408051
 20
354.475922
 11
263.408051
 21
353.975922
  0
LINE
  8
001
 62
     3
 10
249.408051
 20
360.975922
 11
249.408051
 21
354.475922
  0
LINE
  8
001
 62
     3
 10
249.408051
 20
354.475922
 11
359.908051
 21
354.475922
  0
LINE
  8
001
 62
     3
 10
289.908051
 20
360.975922
 11
299.908051
 21
360.975922
  0
LINE
  8
001
 62
     3
 10
289.908051
 20
360.975922
 11
289.908051
 21
360.475922
  0
LINE
  8
001
 62
     3
 10
259.408051
 20
360.475922
 11
289.908051
 21
360.475922
  0
LINE
  8
001
 62
     3
 10
259.408051
 20
360.475922
 11
259.408051
 21
360.975922
  0
LINE
  8
001
 62
     3
 10
249.408051
 20
360.975922
 11
259.408051
 21
360.975922
  0
LINE
  8
001
 62
     3
 10
349.908051
 20
360.975922
 11
359.908051
 21
360.975922
  0
LINE
  8
001
 62
     3
 10
349.908051
 20
360.975922
 11
349.908051
 21
360.475922
  0
LINE
  8
001
 62
     3
 10
299.908051
 20
360.475922
 11
349.908051
 21
360.475922
  0
LINE
  8
001
 62
     3
 10
299.908051
 20
360.475922
 11
299.908051
 21
360.975922
  0
ENDBLK
  8
0
  0
BLOCK
  8
0
  2
ORIENTAL_AZM46AK-74
 70
     0
 10
0.0
 20
0.0
  0
LINE
  8
001
 62
    15
 10
176.208061
 20
334.005338
 11
176.20806
 21
338.375901
  0
LINE
  8
001
 62
    15
 10
176.20806
 20
338.375901
 11
160.730455
 21
338.375896
  0
ARC
  8
001
 62
    15
 10
257.685286
 20
350.975924
 40
97.77013859047153
 50
170.004208
 51
187.404529
  0
LINE
  8
001
 62
    15
 10
228.408052
 20
367.946478
 11
161.399249
 21
367.946459
  0
LINE
  8
001
 62
    15
 10
176.208061
 20
334.005338
 11
228.408061
 21
334.005353
  0
LINE
  8
001
 62
    15
 10
159.408056
 20
350.975896
 11
159.408045
 21
369.457947
  0
ARC
  8
001
 62
    15
 10
257.68528
 20
350.975924
 40
100.0
 50
190.650684
 51
192.122369
  0
ARC
  8
001
 62
    15
 10
257.68528
 20
350.975924
 40
100.0
 50
167.877664
 51
169.349349
  0
LINE
  8
001
 62
    15
 10
159.408056
 20
350.975896
 11
159.408056
 21
332.493845
  0
POLYLINE
  8
001
 62
    15
 66
     1
  0
VERTEX
  8
001
 62
    15
 10
159.700646
 20
338.375896
  0
VERTEX
  8
001
 62
    15
 10
159.663452
 20
338.358182
  0
VERTEX
  8
001
 62
    15
 10
159.631171
 20
338.33568
  0
VERTEX
  8
001
 62
    15
 10
159.596291
 20
338.281943
  0
VERTEX
  8
001
 62
    15
 10
159.575996
 20
338.216669
  0
VERTEX
  8
001
 62
    15
 10
159.553477
 20
338.117522
  0
VERTEX
  8
001
 62
    15
 10
159.537006
 20
338.020104
  0
VERTEX
  8
001
 62
    15
 10
159.522871
 20
337.887065
  0
VERTEX
  8
001
 62
    15
 10
159.515254
 20
337.752247
  0
VERTEX
  8
001
 62
    15
 10
159.511235
 20
337.588142
  0
VERTEX
  8
001
 62
    15
 10
159.511639
 20
337.424449
  0
VERTEX
  8
001
 62
    15
 10
159.516612
 20
337.234131
  0
VERTEX
  8
001
 62
    15
 10
159.525607
 20
337.043805
  0
VERTEX
  8
001
 62
    15
 10
159.539412
 20
336.833452
  0
VERTEX
  8
001
 62
    15
 10
159.556719
 20
336.623407
  0
VERTEX
  8
001
 62
    15
 10
159.578684
 20
336.398318
  0
VERTEX
  8
001
 62
    15
 10
159.603807
 20
336.173544
  0
VERTEX
  8
001
 62
    15
 10
159.625236
 20
336.000049
  0
VERTEX
  8
001
 62
    15
 10
159.648534
 20
335.826803
  0
VERTEX
  8
001
 62
    15
 10
159.674063
 20
335.651274
  0
VERTEX
  8
001
 62
    15
 10
159.700646
 20
335.475896
  0
SEQEND
  8
001
 62
    15
  0
ARC
  8
001
 62
    15
 10
257.685283
 20
350.975924
 40
99.203024147454
 50
188.989039
 51
192.221255
  0
LINE
  8
001
 62
    15
 10
160.730455
 20
329.975896
 11
159.915147
 21
329.975896
  0
LINE
  8
001
 62
    15
 10
161.399246
 20
371.975897
 11
159.915135
 21
371.975896
  0
LINE
  8
001
 62
    15
 10
161.399246
 20
371.975897
 11
161.399249
 21
367.946459
  0
LINE
  8
001
 62
    15
 10
160.730455
 20
338.375896
 11
159.700646
 21
338.375896
  0
LINE
  8
001
 62
    15
 10
228.408049
 20
371.975916
 11
161.399246
 21
371.975897
  0
LINE
  8
001
 62
    15
 10
176.208061
 20
329.975901
 11
176.208061
 21
334.005338
  0
LINE
  8
001
 62
    15
 10
176.208059
 20
335.475901
 11
176.20806
 21
329.975901
  0
LINE
  8
001
 62
    15
 10
176.208059
 20
335.475901
 11
176.208059
 21
338.375901
  0
LINE
  8
001
 62
    15
 10
228.408061
 20
329.975916
 11
176.208061
 21
329.975901
  0
LINE
  8
001
 62
    15
 10
158.408055
 20
350.975896
 11
158.408046
 21
367.725896
  0
LINE
  8
001
 62
    15
 10
158.408055
 20
334.225896
 11
158.408046
 21
367.725896
  0
LINE
  8
001
 62
    15
 10
159.408045
 20
369.457947
 11
158.408046
 21
367.725896
  0
LINE
  8
001
 62
    15
 10
158.408055
 20
334.225896
 11
159.408056
 21
332.493845
  0
LINE
  8
001
 62
    15
 10
158.408055
 20
350.975896
 11
158.408055
 21
334.225896
  0
LINE
  8
001
 62
    15
 10
176.20806
 20
329.975901
 11
160.730455
 21
329.975896
  0
ENDBLK
  8
0
  0
BLOCK
  8
0
  2
JZB-75
 70
     0
 10
0.0
 20
0.0
  0
ARC
  8
001
 62
     4
 10
292.608051
 20
199.813763
 40
4.592646295982307
 50
161.595587
 51
176.754622
  0
LINE
  8
001
 62
     4
 10
288.02277
 20
200.073763
 11
288.25028
 21
200.073763
  0
ARC
  8
001
 62
     4
 10
292.608051
 20
199.813763
 40
4.365519452123944
 50
176.585578
 51
183.414422
  0
LINE
  8
001
 62
     4
 10
288.25028
 20
199.553763
 11
288.02277
 21
199.553763
  0
ARC
  8
001
 62
     4
 10
292.608051
 20
199.813763
 40
4.592646295982307
 50
183.245378
 51
198.404413
  0
LINE
  8
001
 62
     4
 10
288.25031
 20
198.363763
 11
288.242561
 21
198.363763
  0
ARC
  8
001
 62
     4
 10
292.608051
 20
199.813763
 40
4.6
 50
131.409622
 51
161.626062
  0
ARC
  8
001
 62
     4
 10
292.608051
 20
199.813763
 40
4.6
 50
198.373938
 51
228.590378
  0
LINE
  8
001
 62
     4
 10
288.242561
 20
201.263763
 11
288.25031
 21
201.263763
  0
LINE
  8
001
 62
     4
 10
289.908051
 20
203.263763
 11
289.565437
 21
203.263763
  0
LINE
  8
001
 62
     4
 10
289.565437
 20
196.363763
 11
289.908051
 21
196.363763
  0
LINE
  8
001
 62
     4
 10
289.565437
 20
203.263763
 11
289.565437
 21
196.363763
  0
ENDBLK
  8
0
  0
BLOCK
  8
0
  2
JZB-76
 70
     0
 10
0.0
 20
0.0
  0
LINE
  8
001
 62
     4
 10
289.908051
 20
212.663763
 11
289.565437
 21
212.663763
  0
LINE
  8
001
 62
     4
 10
289.565437
 20
205.763763
 11
289.908051
 21
205.763763
  0
ARC
  8
001
 62
     4
 10
292.608051
 20
209.213763
 40
4.592646295982307
 50
161.595587
 51
176.754622
  0
LINE
  8
001
 62
     4
 10
288.02277
 20
209.473763
 11
288.25028
 21
209.473763
  0
ARC
  8
001
 62
     4
 10
292.608051
 20
209.213763
 40
4.365519452123944
 50
176.585578
 51
183.414422
  0
LINE
  8
001
 62
     4
 10
288.25028
 20
208.953763
 11
288.02277
 21
208.953763
  0
ARC
  8
001
 62
     4
 10
292.608051
 20
209.213763
 40
4.592646295982307
 50
183.245378
 51
198.404413
  0
LINE
  8
001
 62
     4
 10
288.25031
 20
207.763763
 11
288.242561
 21
207.763763
  0
ARC
  8
001
 62
     4
 10
292.608051
 20
209.213763
 40
4.6
 50
131.409622
 51
161.626062
  0
ARC
  8
001
 62
     4
 10
292.608051
 20
209.213763
 40
4.6
 50
198.373938
 51
228.590378
  0
LINE
  8
001
 62
     4
 10
288.242561
 20
210.663763
 11
288.25031
 21
210.663763
  0
LINE
  8
001
 62
     4
 10
289.565437
 20
212.663763
 11
289.565437
 21
205.763763
  0
ENDBLK
  8
0
  0
BLOCK
  8
0
  2
JZB-77
 70
     0
 10
0.0
 20
0.0
  0
LINE
  8
001
 62
     4
 10
359.908051
 20
205.763763
 11
360.250665
 21
205.763763
  0
LINE
  8
001
 62
     4
 10
360.250665
 20
212.663763
 11
359.908051
 21
212.663763
  0
ARC
  8
001
 62
     4
 10
357.208051
 20
209.213763
 40
4.592646295982307
 50
341.595587
 51
356.754622
  0
LINE
  8
001
 62
     4
 10
361.793331
 20
208.953763
 11
361.565821
 21
208.953763
  0
ARC
  8
001
 62
     4
 10
357.208051
 20
209.213763
 40
4.365519452123944
 50
356.585578
 51
3.414422
  0
LINE
  8
001
 62
     4
 10
361.565821
 20
209.473763
 11
361.793331
 21
209.473763
  0
ARC
  8
001
 62
     4
 10
357.208051
 20
209.213763
 40
4.592646295982307
 50
3.245378
 51
18.404413
  0
LINE
  8
001
 62
     4
 10
361.565791
 20
210.663763
 11
361.57354
 21
210.663763
  0
ARC
  8
001
 62
     4
 10
357.208051
 20
209.213763
 40
4.6
 50
311.409622
 51
341.626062
  0
ARC
  8
001
 62
     4
 10
357.208051
 20
209.213763
 40
4.6
 50
18.373938
 51
48.590378
  0
LINE
  8
001
 62
     4
 10
361.57354
 20
207.763763
 11
361.565791
 21
207.763763
  0
LINE
  8
001
 62
     4
 10
360.250665
 20
205.763763
 11
360.250665
 21
212.663763
  0
ENDBLK
  8
0
  0
BLOCK
  8
0
  2
JZB-78
 70
     0
 10
0.0
 20
0.0
  0
LINE
  8
001
 62
     4
 10
359.908051
 20
196.363763
 11
360.250665
 21
196.363763
  0
LINE
  8
001
 62
     4
 10
360.250665
 20
203.263763
 11
359.908051
 21
203.263763
  0
ARC
  8
001
 62
     4
 10
357.208051
 20
199.813763
 40
4.592646295982307
 50
341.595587
 51
356.754622
  0
LINE
  8
001
 62
     4
 10
361.793331
 20
199.553763
 11
361.565821
 21
199.553763
  0
ARC
  8
001
 62
     4
 10
357.208051
 20
199.813763
 40
4.365519452123944
 50
356.585578
 51
3.414422
  0
LINE
  8
001
 62
     4
 10
361.565821
 20
200.073763
 11
361.793331
 21
200.073763
  0
ARC
  8
001
 62
     4
 10
357.208051
 20
199.813763
 40
4.592646295982307
 50
3.245378
 51
18.404413
  0
LINE
  8
001
 62
     4
 10
361.565791
 20
201.263763
 11
361.57354
 21
201.263763
  0
ARC
  8
001
 62
     4
 10
357.208051
 20
199.813763
 40
4.6
 50
311.409622
 51
341.626062
  0
ARC
  8
001
 62
     4
 10
357.208051
 20
199.813763
 40
4.6
 50
18.373938
 51
48.590378
  0
LINE
  8
001
 62
     4
 10
361.57354
 20
198.363763
 11
361.565791
 21
198.363763
  0
LINE
  8
001
 62
     4
 10
360.250665
 20
196.363763
 11
360.250665
 21
203.263763
  0
ENDBLK
  8
0
  0
BLOCK
  8
0
  2
JZB-79
 70
     0
 10
0.0
 20
0.0
  0
CIRCLE
  8
001
 62
     4
 10
300.908051
 20
251.513763
 40
2.749999999999998
  0
LINE
  8
001
 62
     4
 10
302.150797
 20
250.796263
 11
302.150797
 21
252.231263
  0
LINE
  8
001
 62
     4
 10
302.150797
 20
252.231263
 11
300.908051
 21
252.948763
  0
CIRCLE
  8
001
 62
     4
 10
300.908051
 20
251.513763
 40
2.449999999999992
  0
LINE
  8
001
 62
     4
 10
300.908051
 20
252.948763
 11
299.665304
 21
252.231263
  0
LINE
  8
001
 62
     4
 10
300.908051
 20
250.078763
 11
302.150797
 21
250.796263
  0
LINE
  8
001
 62
     4
 10
299.665304
 20
250.796263
 11
300.908051
 21
250.078763
  0
LINE
  8
001
 62
     4
 10
299.665304
 20
252.231263
 11
299.665304
 21
250.796263
  0
ENDBLK
  8
0
  0
BLOCK
  8
0
  2
JZB-80
 70
     0
 10
0.0
 20
0.0
  0
CIRCLE
  8
001
 62
     4
 10
316.908051
 20
251.513763
 40
2.749999999999998
  0
LINE
  8
001
 62
     4
 10
315.665304
 20
252.231263
 11
315.665304
 21
250.796263
  0
LINE
  8
001
 62
     4
 10
315.665304
 20
250.796263
 11
316.908051
 21
250.078763
  0
LINE
  8
001
 62
     4
 10
318.150797
 20
250.796263
 11
318.150797
 21
252.231263
  0
LINE
  8
001
 62
     4
 10
318.150797
 20
252.231263
 11
316.908051
 21
252.948763
  0
LINE
  8
001
 62
     4
 10
316.908051
 20
250.078763
 11
318.150797
 21
250.796263
  0
LINE
  8
001
 62
     4
 10
316.908051
 20
252.948763
 11
315.665304
 21
252.231263
  0
CIRCLE
  8
001
 62
     4
 10
316.908051
 20
251.513763
 40
2.449999999999992
  0
ENDBLK
  8
0
  0
BLOCK
  8
0
  2
JZB-81
 70
     0
 10
0.0
 20
0.0
  0
LINE
  8
001
 62
     4
 10
331.665304
 20
250.796263
 11
332.908051
 21
250.078763
  0
LINE
  8
001
 62
     4
 10
331.665304
 20
252.231263
 11
331.665304
 21
250.796263
  0
CIRCLE
  8
001
 62
     4
 10
332.908051
 20
251.513763
 40
2.749999999999998
  0
CIRCLE
  8
001
 62
     4
 10
332.908051
 20
251.513763
 40
2.449999999999992
  0
LINE
  8
001
 62
     4
 10
332.908051
 20
252.948763
 11
331.665304
 21
252.231263
  0
LINE
  8
001
 62
     4
 10
334.150797
 20
252.231263
 11
332.908051
 21
252.948763
  0
LINE
  8
001
 62
     4
 10
334.150797
 20
250.796263
 11
334.150797
 21
252.231263
  0
LINE
  8
001
 62
     4
 10
332.908051
 20
250.078763
 11
334.150797
 21
250.796263
  0
ENDBLK
  8
0
  0
BLOCK
  8
0
  2
JZB-82
 70
     0
 10
0.0
 20
0.0
  0
CIRCLE
  8
001
 62
     4
 10
348.908051
 20
251.513763
 40
2.749999999999998
  0
CIRCLE
  8
001
 62
     4
 10
348.908051
 20
251.513763
 40
2.449999999999992
  0
LINE
  8
001
 62
     4
 10
348.908051
 20
252.948763
 11
347.665304
 21
252.231263
  0
LINE
  8
001
 62
     4
 10
350.150797
 20
252.231263
 11
348.908051
 21
252.948763
  0
LINE
  8
001
 62
     4
 10
350.150797
 20
250.796263
 11
350.150797
 21
252.231263
  0
LINE
  8
001
 62
     4
 10
348.908051
 20
250.078763
 11
350.150797
 21
250.796263
  0
LINE
  8
001
 62
     4
 10
347.665304
 20
250.796263
 11
348.908051
 21
250.078763
  0
LINE
  8
001
 62
     4
 10
347.665304
 20
252.231263
 11
347.665304
 21
250.796263
  0
ENDBLK
  8
0
  0
BLOCK
  8
0
  2
JZB-83
 70
     0
 10
0.0
 20
0.0
  0
CIRCLE
  8
001
 62
     4
 10
296.908051
 20
231.013763
 40
2.5
  0
ENDBLK
  8
0
  0
BLOCK
  8
0
  2
JZB-84
 70
     0
 10
0.0
 20
0.0
  0
CIRCLE
  8
001
 62
     4
 10
296.908051
 20
219.013763
 40
2.5
  0
ENDBLK
  8
0
  0
BLOCK
  8
0
  2
JZB-85
 70
     0
 10
0.0
 20
0.0
  0
LINE
  8
001
 62
     4
 10
297.90398
 20
230.438763
 11
296.908051
 21
229.863763
  0
LINE
  8
001
 62
     4
 10
296.908051
 20
232.163763
 11
297.90398
 21
231.588763
  0
LINE
  8
001
 62
     4
 10
296.908051
 20
229.863763
 11
295.912121
 21
230.438763
  0
LINE
  8
001
 62
     4
 10
295.912121
 20
230.438763
 11
295.912121
 21
231.588763
  0
LINE
  8
001
 62
     4
 10
295.912121
 20
231.588763
 11
296.908051
 21
232.163763
  0
LINE
  8
001
 62
     4
 10
297.90398
 20
231.588763
 11
297.90398
 21
230.438763
  0
CIRCLE
  8
001
 62
     4
 10
296.908051
 20
231.013763
 40
2.25
  0
ENDBLK
  8
0
  0
BLOCK
  8
0
  2
JZB-86
 70
     0
 10
0.0
 20
0.0
  0
LINE
  8
001
 62
     4
 10
295.912121
 20
219.588763
 11
296.908051
 21
220.163763
  0
LINE
  8
001
 62
     4
 10
296.908051
 20
217.863763
 11
295.912121
 21
218.438763
  0
LINE
  8
001
 62
     4
 10
297.90398
 20
219.588763
 11
297.90398
 21
218.438763
  0
LINE
  8
001
 62
     4
 10
296.908051
 20
220.163763
 11
297.90398
 21
219.588763
  0
LINE
  8
001
 62
     4
 10
295.912121
 20
218.438763
 11
295.912121
 21
219.588763
  0
LINE
  8
001
 62
     4
 10
297.90398
 20
218.438763
 11
296.908051
 21
217.863763
  0
CIRCLE
  8
001
 62
     4
 10
296.908051
 20
219.013763
 40
2.25
  0
ENDBLK
  8
0
  0
BLOCK
  8
0
  2
DP007165-1030-00-87
 70
     0
 10
0.0
 20
0.0
  0
LINE
  8
001
 62
     3
 10
258.158051
 20
217.513763
 11
262.658051
 21
217.513763
  0
LINE
  8
001
 62
     3
 10
258.158051
 20
217.513763
 11
258.158051
 21
232.513763
  0
LINE
  8
001
 62
     3
 10
262.658051
 20
217.513763
 11
262.658051
 21
232.513763
  0
LINE
  8
001
 62
     3
 10
258.158051
 20
217.899802
 11
262.658051
 21
217.899802
  0
LINE
  8
001
 62
     3
 10
262.658051
 20
232.127724
 11
258.158051
 21
232.127724
  0
LINE
  8
001
 62
     3
 10
262.658051
 20
232.513763
 11
258.158051
 21
232.513763
  0
LINE
  8
001
 62
     3
 10
263.208051
 20
229.513763
 11
262.658051
 21
229.513763
  0
LINE
  8
001
 62
     3
 10
262.658051
 20
220.513763
 11
263.208051
 21
220.513763
  0
LINE
  8
001
 62
     3
 10
262.658051
 20
219.399802
 11
258.158051
 21
219.399802
  0
LINE
  8
001
 62
     3
 10
258.158051
 20
230.627724
 11
262.658051
 21
230.627724
  0
CIRCLE
  8
001
 62
     3
 10
260.458051
 20
225.013763
 40
1.23
  0
CIRCLE
  8
001
 62
     3
 10
260.458051
 20
225.013763
 40
1.5
  0
ENDBLK
  8
0
  0
BLOCK
  8
0
  2
DP007165-1020-00-88
 70
     0
 10
0.0
 20
0.0
  0
LINE
  8
001
 62
     3
 10
263.208051
 20
217.013763
 11
263.208051
 21
233.013763
  0
LINE
  8
001
 62
     3
 10
263.408051
 20
233.013763
 11
263.208051
 21
233.013763
  0
LINE
  8
001
 62
     3
 10
263.208051
 20
217.013763
 11
263.408051
 21
217.013763
  0
ENDBLK
  8
0
  0
BLOCK
  8
0
  2
DP007205-1020-00-89
 70
     0
 10
0.0
 20
0.0
  0
LINE
  8
001
 10
279.458051
 20
223.013763
 11
280.458051
 21
223.013763
  0
LINE
  8
001
 10
280.458051
 20
227.013763
 11
279.458051
 21
227.013763
  0
LINE
  8
001
 10
257.658051
 20
222.513763
 11
258.158051
 21
222.513763
  0
LINE
  8
001
 10
258.158051
 20
227.513763
 11
257.658051
 21
227.513763
  0
LINE
  8
001
 10
280.458051
 20
222.513763
 11
289.908051
 21
222.513763
  0
LINE
  8
001
 10
289.908051
 20
227.513763
 11
280.458051
 21
227.513763
  0
LINE
  8
001
 10
280.458051
 20
227.513763
 11
280.458051
 21
222.513763
  0
LINE
  8
001
 10
278.408051
 20
229.013763
 11
279.458051
 21
229.013763
  0
LINE
  8
001
 10
278.408051
 20
221.013763
 11
279.458051
 21
221.013763
  0
LINE
  8
001
 10
279.458051
 20
229.013763
 11
279.458051
 21
221.013763
  0
ENDBLK
  8
0
  0
BLOCK
  8
0
  2
JZB-90
 70
     0
 10
0.0
 20
0.0
  0
LINE
  8
001
 62
     4
 10
261.208051
 20
225.446776
 11
261.208051
 21
224.580751
  0
CIRCLE
  8
001
 62
     4
 10
260.458051
 20
225.013763
 40
1.2295
  0
LINE
  8
001
 62
     4
 10
261.208051
 20
224.580751
 11
260.458051
 21
224.147738
  0
LINE
  8
001
 62
     4
 10
260.458051
 20
224.147738
 11
259.708051
 21
224.580751
  0
LINE
  8
001
 62
     4
 10
259.708051
 20
224.580751
 11
259.708051
 21
225.446776
  0
LINE
  8
001
 62
     4
 10
259.708051
 20
225.446776
 11
260.458051
 21
225.879789
  0
LINE
  8
001
 62
     4
 10
260.458051
 20
225.879789
 11
261.208051
 21
225.446776
  0
ENDBLK
  8
0
  0
BLOCK
  8
0
  2
JZB-91
 70
     0
 10
0.0
 20
0.0
  0
LINE
  8
001
 62
     4
 10
289.908051
 20
244.263763
 11
289.565437
 21
244.263763
  0
LINE
  8
001
 62
     4
 10
289.565437
 20
237.363763
 11
289.908051
 21
237.363763
  0
ARC
  8
001
 62
     4
 10
292.608051
 20
240.813763
 40
4.592646295982307
 50
161.595587
 51
176.754622
  0
LINE
  8
001
 62
     4
 10
288.02277
 20
241.073763
 11
288.25028
 21
241.073763
  0
ARC
  8
001
 62
     4
 10
292.608051
 20
240.813763
 40
4.365519452123944
 50
176.585578
 51
183.414422
  0
LINE
  8
001
 62
     4
 10
288.25028
 20
240.553763
 11
288.02277
 21
240.553763
  0
ARC
  8
001
 62
     4
 10
292.608051
 20
240.813763
 40
4.592646295982307
 50
183.245378
 51
198.404413
  0
LINE
  8
001
 62
     4
 10
288.25031
 20
239.363763
 11
288.242561
 21
239.363763
  0
ARC
  8
001
 62
     4
 10
292.608051
 20
240.813763
 40
4.6
 50
131.409622
 51
161.626062
  0
ARC
  8
001
 62
     4
 10
292.608051
 20
240.813763
 40
4.6
 50
198.373938
 51
228.590378
  0
LINE
  8
001
 62
     4
 10
288.242561
 20
242.263763
 11
288.25031
 21
242.263763
  0
LINE
  8
001
 62
     4
 10
289.565437
 20
244.263763
 11
289.565437
 21
237.363763
  0
ENDBLK
  8
0
  0
BLOCK
  8
0
  2
JZB-92
 70
     0
 10
0.0
 20
0.0
  0
LINE
  8
001
 62
     4
 10
289.908051
 20
253.663763
 11
289.565437
 21
253.663763
  0
LINE
  8
001
 62
     4
 10
289.565437
 20
246.763763
 11
289.908051
 21
246.763763
  0
ARC
  8
001
 62
     4
 10
292.608051
 20
250.213763
 40
4.592646295982307
 50
161.595587
 51
176.754622
  0
LINE
  8
001
 62
     4
 10
288.02277
 20
250.473763
 11
288.25028
 21
250.473763
  0
ARC
  8
001
 62
     4
 10
292.608051
 20
250.213763
 40
4.365519452123944
 50
176.585578
 51
183.414422
  0
LINE
  8
001
 62
     4
 10
288.25028
 20
249.953763
 11
288.02277
 21
249.953763
  0
ARC
  8
001
 62
     4
 10
292.608051
 20
250.213763
 40
4.592646295982307
 50
183.245378
 51
198.404413
  0
LINE
  8
001
 62
     4
 10
288.25031
 20
248.763763
 11
288.242561
 21
248.763763
  0
ARC
  8
001
 62
     4
 10
292.608051
 20
250.213763
 40
4.6
 50
131.409622
 51
161.626062
  0
ARC
  8
001
 62
     4
 10
292.608051
 20
250.213763
 40
4.6
 50
198.373938
 51
228.590378
  0
LINE
  8
001
 62
     4
 10
288.242561
 20
251.663763
 11
288.25031
 21
251.663763
  0
LINE
  8
001
 62
     4
 10
289.565437
 20
253.663763
 11
289.565437
 21
246.763763
  0
ENDBLK
  8
0
  0
BLOCK
  8
0
  2
JZB-93
 70
     0
 10
0.0
 20
0.0
  0
LINE
  8
001
 62
     4
 10
359.908051
 20
246.763763
 11
360.250665
 21
246.763763
  0
LINE
  8
001
 62
     4
 10
360.250665
 20
253.663763
 11
359.908051
 21
253.663763
  0
ARC
  8
001
 62
     4
 10
357.208051
 20
250.213763
 40
4.592646295982307
 50
341.595587
 51
356.754622
  0
LINE
  8
001
 62
     4
 10
361.793331
 20
249.953763
 11
361.565821
 21
249.953763
  0
ARC
  8
001
 62
     4
 10
357.208051
 20
250.213763
 40
4.365519452123944
 50
356.585578
 51
3.414422
  0
LINE
  8
001
 62
     4
 10
361.565821
 20
250.473763
 11
361.793331
 21
250.473763
  0
ARC
  8
001
 62
     4
 10
357.208051
 20
250.213763
 40
4.592646295982307
 50
3.245378
 51
18.404413
  0
LINE
  8
001
 62
     4
 10
361.565791
 20
251.663763
 11
361.57354
 21
251.663763
  0
ARC
  8
001
 62
     4
 10
357.208051
 20
250.213763
 40
4.6
 50
311.409622
 51
341.626062
  0
ARC
  8
001
 62
     4
 10
357.208051
 20
250.213763
 40
4.6
 50
18.373938
 51
48.590378
  0
LINE
  8
001
 62
     4
 10
361.57354
 20
248.763763
 11
361.565791
 21
248.763763
  0
LINE
  8
001
 62
     4
 10
360.250665
 20
246.763763
 11
360.250665
 21
253.663763
  0
ENDBLK
  8
0
  0
BLOCK
  8
0
  2
JZB-94
 70
     0
 10
0.0
 20
0.0
  0
ARC
  8
001
 62
     4
 10
357.208051
 20
240.813763
 40
4.592646295982307
 50
341.595587
 51
356.754622
  0
LINE
  8
001
 62
     4
 10
361.793331
 20
240.553763
 11
361.565821
 21
240.553763
  0
ARC
  8
001
 62
     4
 10
357.208051
 20
240.813763
 40
4.365519452123944
 50
356.585578
 51
3.414422
  0
LINE
  8
001
 62
     4
 10
361.565821
 20
241.073763
 11
361.793331
 21
241.073763
  0
ARC
  8
001
 62
     4
 10
357.208051
 20
240.813763
 40
4.592646295982307
 50
3.245378
 51
18.404413
  0
LINE
  8
001
 62
     4
 10
361.565791
 20
242.263763
 11
361.57354
 21
242.263763
  0
ARC
  8
001
 62
     4
 10
357.208051
 20
240.813763
 40
4.6
 50
311.409622
 51
341.626062
  0
ARC
  8
001
 62
     4
 10
357.208051
 20
240.813763
 40
4.6
 50
18.373938
 51
48.590378
  0
LINE
  8
001
 62
     4
 10
361.57354
 20
239.363763
 11
361.565791
 21
239.363763
  0
LINE
  8
001
 62
     4
 10
359.908051
 20
237.363763
 11
360.250665
 21
237.363763
  0
LINE
  8
001
 62
     4
 10
360.250665
 20
244.263763
 11
359.908051
 21
244.263763
  0
LINE
  8
001
 62
     4
 10
360.250665
 20
237.363763
 11
360.250665
 21
244.263763
  0
ENDBLK
  8
0
  0
BLOCK
  8
0
  2
JZB-95
 70
     0
 10
0.0
 20
0.0
  0
CIRCLE
  8
001
 62
     4
 10
254.408051
 20
243.013765
 40
3.499999999999998
  0
LINE
  8
001
 62
     4
 10
255.897614
 20
243.873765
 11
254.408051
 21
244.733765
  0
LINE
  8
001
 62
     4
 10
255.897614
 20
242.153765
 11
255.897614
 21
243.873765
  0
LINE
  8
001
 62
     4
 10
254.408051
 20
241.293765
 11
255.897614
 21
242.153765
  0
LINE
  8
001
 62
     4
 10
252.918487
 20
242.153765
 11
254.408051
 21
241.293765
  0
LINE
  8
001
 62
     4
 10
252.918487
 20
243.873765
 11
252.918487
 21
242.153765
  0
LINE
  8
001
 62
     4
 10
254.408051
 20
244.733765
 11
252.918487
 21
243.873765
  0
CIRCLE
  8
001
 62
     4
 10
254.408051
 20
243.013765
 40
3.09999999999999
  0
ENDBLK
  8
0
  0
BLOCK
  8
0
  2
JZB-96
 70
     0
 10
0.0
 20
0.0
  0
CIRCLE
  8
001
 62
     4
 10
348.908051
 20
198.513763
 40
2.749999999999998
  0
LINE
  8
001
 62
     4
 10
347.665304
 20
197.796263
 11
348.908051
 21
197.078763
  0
CIRCLE
  8
001
 62
     4
 10
348.908051
 20
198.513763
 40
2.449999999999992
  0
LINE
  8
001
 62
     4
 10
348.908051
 20
199.948763
 11
347.665304
 21
199.231263
  0
LINE
  8
001
 62
     4
 10
350.150797
 20
199.231263
 11
348.908051
 21
199.948763
  0
LINE
  8
001
 62
     4
 10
350.150797
 20
197.796263
 11
350.150797
 21
199.231263
  0
LINE
  8
001
 62
     4
 10
348.908051
 20
197.078763
 11
350.150797
 21
197.796263
  0
LINE
  8
001
 62
     4
 10
347.665304
 20
199.231263
 11
347.665304
 21
197.796263
  0
ENDBLK
  8
0
  0
BLOCK
  8
0
  2
JZB-97
 70
     0
 10
0.0
 20
0.0
  0
LINE
  8
001
 62
     4
 10
254.408051
 20
205.293765
 11
255.897614
 21
206.153765
  0
LINE
  8
001
 62
     4
 10
254.408051
 20
208.733765
 11
252.918487
 21
207.873765
  0
LINE
  8
001
 62
     4
 10
255.897614
 20
206.153765
 11
255.897614
 21
207.873765
  0
LINE
  8
001
 62
     4
 10
255.897614
 20
207.873765
 11
254.408051
 21
208.733765
  0
LINE
  8
001
 62
     4
 10
252.918487
 20
206.153765
 11
254.408051
 21
205.293765
  0
LINE
  8
001
 62
     4
 10
252.918487
 20
207.873765
 11
252.918487
 21
206.153765
  0
CIRCLE
  8
001
 62
     4
 10
254.408051
 20
207.013765
 40
3.09999999999999
  0
CIRCLE
  8
001
 62
     4
 10
254.408051
 20
207.013765
 40
3.499999999999998
  0
ENDBLK
  8
0
  0
BLOCK
  8
0
  2
JZB-98
 70
     0
 10
0.0
 20
0.0
  0
CIRCLE
  8
001
 62
     4
 10
300.908051
 20
198.513763
 40
2.749999999999998
  0
CIRCLE
  8
001
 62
     4
 10
300.908051
 20
198.513763
 40
2.449999999999992
  0
LINE
  8
001
 62
     4
 10
300.908051
 20
199.948763
 11
299.665304
 21
199.231263
  0
LINE
  8
001
 62
     4
 10
302.150797
 20
199.231263
 11
300.908051
 21
199.948763
  0
LINE
  8
001
 62
     4
 10
302.150797
 20
197.796263
 11
302.150797
 21
199.231263
  0
LINE
  8
001
 62
     4
 10
300.908051
 20
197.078763
 11
302.150797
 21
197.796263
  0
LINE
  8
001
 62
     4
 10
299.665304
 20
197.796263
 11
300.908051
 21
197.078763
  0
LINE
  8
001
 62
     4
 10
299.665304
 20
199.231263
 11
299.665304
 21
197.796263
  0
ENDBLK
  8
0
  0
BLOCK
  8
0
  2
JZB-99
 70
     0
 10
0.0
 20
0.0
  0
CIRCLE
  8
001
 62
     4
 10
316.908051
 20
198.513763
 40
2.749999999999998
  0
LINE
  8
001
 62
     4
 10
318.150797
 20
197.796263
 11
318.150797
 21
199.231263
  0
CIRCLE
  8
001
 62
     4
 10
316.908051
 20
198.513763
 40
2.449999999999992
  0
LINE
  8
001
 62
     4
 10
316.908051
 20
199.948763
 11
315.665304
 21
199.231263
  0
LINE
  8
001
 62
     4
 10
318.150797
 20
199.231263
 11
316.908051
 21
199.948763
  0
LINE
  8
001
 62
     4
 10
316.908051
 20
197.078763
 11
318.150797
 21
197.796263
  0
LINE
  8
001
 62
     4
 10
315.665304
 20
197.796263
 11
316.908051
 21
197.078763
  0
LINE
  8
001
 62
     4
 10
315.665304
 20
199.231263
 11
315.665304
 21
197.796263
  0
ENDBLK
  8
0
  0
BLOCK
  8
0
  2
JZB-100
 70
     0
 10
0.0
 20
0.0
  0
CIRCLE
  8
001
 62
     4
 10
332.908051
 20
198.513763
 40
2.749999999999998
  0
CIRCLE
  8
001
 62
     4
 10
332.908051
 20
198.513763
 40
2.449999999999992
  0
LINE
  8
001
 62
     4
 10
332.908051
 20
199.948763
 11
331.665304
 21
199.231263
  0
LINE
  8
001
 62
     4
 10
334.150797
 20
199.231263
 11
332.908051
 21
199.948763
  0
LINE
  8
001
 62
     4
 10
334.150797
 20
197.796263
 11
334.150797
 21
199.231263
  0
LINE
  8
001
 62
     4
 10
332.908051
 20
197.078763
 11
334.150797
 21
197.796263
  0
LINE
  8
001
 62
     4
 10
331.665304
 20
197.796263
 11
332.908051
 21
197.078763
  0
LINE
  8
001
 62
     4
 10
331.665304
 20
199.231263
 11
331.665304
 21
197.796263
  0
ENDBLK
  8
0
  0
BLOCK
  8
0
  2
DP007167-1020-00-101
 70
     0
 10
0.0
 20
0.0
  0
LINE
  8
001
 62
     3
 10
240.408051
 20
250.013763
 11
240.408051
 21
232.98239
  0
LINE
  8
001
 62
     3
 10
228.408051
 20
250.013763
 11
228.408051
 21
200.013763
  0
LINE
  8
001
 62
     3
 10
228.408051
 20
250.013763
 11
240.408051
 21
250.013763
  0
LINE
  8
001
 62
     3
 10
240.408051
 20
200.013763
 11
240.408051
 21
225.045136
  0
LINE
  8
001
 62
     3
 10
240.408051
 20
200.013763
 11
228.408051
 21
200.013763
  0
ARC
  8
001
 62
     3
 10
240.908051
 20
229.013763
 40
4.0
 50
97.180756
 51
262.819244
  0
LINE
  8
001
 62
     3
 10
240.408051
 20
248.013763
 11
228.408051
 21
248.013763
  0
LINE
  8
001
 62
     3
 10
228.408051
 20
202.013763
 11
240.408051
 21
202.013763
  0
ENDBLK
  8
0
  0
BLOCK
  8
0
  2
DP007165-1010-00-102
 70
     0
 10
0.0
 20
0.0
  0
LINE
  8
001
 62
     3
 10
273.908051
 20
250.013765
 11
263.408051
 21
250.013765
  0
LINE
  8
001
 62
     3
 10
263.408051
 20
200.013762
 11
263.408051
 21
250.013765
  0
LINE
  8
001
 62
     3
 10
273.908051
 20
200.013762
 11
263.408051
 21
200.013762
  0
LINE
  8
001
 62
     3
 10
273.908051
 20
200.013762
 11
273.908051
 21
215.513763
  0
LINE
  8
001
 62
     3
 10
278.408051
 20
215.513763
 11
273.908051
 21
215.513763
  0
LINE
  8
001
 62
     3
 10
278.408051
 20
234.513763
 11
278.408051
 21
215.513763
  0
LINE
  8
001
 62
     3
 10
273.908051
 20
234.513763
 11
278.408051
 21
234.513763
  0
LINE
  8
001
 62
     3
 10
273.908051
 20
234.513763
 11
273.908051
 21
250.013765
  0
ENDBLK
  8
0
  0
BLOCK
  8
0
  2
DP007167-1010-00-103
 70
     0
 10
0.0
 20
0.0
  0
CIRCLE
  8
001
 62
     3
 10
296.908051
 20
219.013763
 40
2.650000000000006
  0
CIRCLE
  8
001
 62
     3
 10
296.908051
 20
231.013763
 40
2.650000000000006
  0
LINE
  8
001
 62
     3
 10
359.908051
 20
260.013763
 11
359.908051
 21
190.013763
  0
LINE
  8
001
 62
     3
 10
289.908051
 20
260.013763
 11
359.908051
 21
260.013763
  0
LINE
  8
001
 62
     3
 10
289.908051
 20
260.013763
 11
289.908051
 21
190.013763
  0
LINE
  8
001
 62
     3
 10
289.908051
 20
190.013763
 11
359.908051
 21
190.013763
  0
LINE
  8
001
  6
CENTER
 10
309.908051
 20
211.813763
 11
309.908051
 21
208.213763
  0
LINE
  8
001
  6
CENTER
 10
308.108051
 20
210.013763
 11
311.708051
 21
210.013763
  0
CIRCLE
  8
001
 62
     3
 10
309.908051
 20
210.013763
 40
1.23
  0
CIRCLE
  8
001
 62
     3
 10
309.908051
 20
210.013763
 40
1.5
  0
LINE
  8
001
  6
CENTER
 10
304.908051
 20
206.813763
 11
304.908051
 21
203.213763
  0
LINE
  8
001
  6
CENTER
 10
303.108051
 20
205.013763
 11
306.708051
 21
205.013763
  0
CIRCLE
  8
001
 62
     3
 10
304.908051
 20
205.013763
 40
1.23
  0
CIRCLE
  8
001
 62
     3
 10
304.908051
 20
205.013763
 40
1.5
  0
LINE
  8
001
  6
CENTER
 10
339.908051
 20
211.813763
 11
339.908051
 21
208.213763
  0
LINE
  8
001
  6
CENTER
 10
338.108051
 20
210.013763
 11
341.708051
 21
210.013763
  0
CIRCLE
  8
001
 62
     3
 10
339.908051
 20
210.013763
 40
1.23
  0
CIRCLE
  8
001
 62
     3
 10
339.908051
 20
210.013763
 40
1.5
  0
LINE
  8
001
  6
CENTER
 10
339.908051
 20
241.813763
 11
339.908051
 21
238.213763
  0
LINE
  8
001
  6
CENTER
 10
338.108051
 20
240.013763
 11
341.708051
 21
240.013763
  0
CIRCLE
  8
001
 62
     3
 10
339.908051
 20
240.013763
 40
1.23
  0
CIRCLE
  8
001
 62
     3
 10
339.908051
 20
240.013763
 40
1.5
  0
LINE
  8
001
  6
CENTER
 10
344.908051
 20
206.813763
 11
344.908051
 21
203.213763
  0
LINE
  8
001
  6
CENTER
 10
343.108051
 20
205.013763
 11
346.708051
 21
205.013763
  0
CIRCLE
  8
001
 62
     3
 10
344.908051
 20
205.013763
 40
1.23
  0
CIRCLE
  8
001
 62
     3
 10
344.908051
 20
205.013763
 40
1.5
  0
LINE
  8
001
  6
CENTER
 10
344.908051
 20
246.813763
 11
344.908051
 21
243.213763
  0
LINE
  8
001
  6
CENTER
 10
343.108051
 20
245.013763
 11
346.708051
 21
245.013763
  0
CIRCLE
  8
001
 62
     3
 10
344.908051
 20
245.013763
 40
1.23
  0
CIRCLE
  8
001
 62
     3
 10
344.908051
 20
245.013763
 40
1.5
  0
LINE
  8
001
  6
CENTER
 10
309.908051
 20
241.813763
 11
309.908051
 21
238.213763
  0
LINE
  8
001
  6
CENTER
 10
308.108051
 20
240.013763
 11
311.708051
 21
240.013763
  0
CIRCLE
  8
001
 62
     3
 10
309.908051
 20
240.013763
 40
1.23
  0
CIRCLE
  8
001
 62
     3
 10
309.908051
 20
240.013763
 40
1.5
  0
LINE
  8
001
  6
CENTER
 10
304.908051
 20
246.813763
 11
304.908051
 21
243.213763
  0
LINE
  8
001
  6
CENTER
 10
303.108051
 20
245.013763
 11
306.708051
 21
245.013763
  0
CIRCLE
  8
001
 62
     3
 10
304.908051
 20
245.013763
 40
1.23
  0
CIRCLE
  8
001
 62
     3
 10
304.908051
 20
245.013763
 40
1.5
  0
LINE
  8
001
  6
CENTER
 10
294.908051
 20
197.413763
 11
294.908051
 21
192.613763
  0
LINE
  8
001
  6
CENTER
 10
292.508051
 20
195.013763
 11
297.308051
 21
195.013763
  0
CIRCLE
  8
001
 62
     3
 10
294.908051
 20
195.013763
 40
1.62
  0
CIRCLE
  8
001
 62
     3
 10
294.908051
 20
195.013763
 40
2.0
  0
LINE
  8
001
  6
CENTER
 10
294.908051
 20
257.413763
 11
294.908051
 21
252.613763
  0
LINE
  8
001
  6
CENTER
 10
292.508051
 20
255.013763
 11
297.308051
 21
255.013763
  0
CIRCLE
  8
001
 62
     3
 10
294.908051
 20
255.013763
 40
1.62
  0
CIRCLE
  8
001
 62
     3
 10
294.908051
 20
255.013763
 40
2.0
  0
LINE
  8
001
  6
CENTER
 10
354.908051
 20
257.413763
 11
354.908051
 21
252.613763
  0
LINE
  8
001
  6
CENTER
 10
352.508051
 20
255.013763
 11
357.308051
 21
255.013763
  0
CIRCLE
  8
001
 62
     3
 10
354.908051
 20
255.013763
 40
1.62
  0
CIRCLE
  8
001
 62
     3
 10
354.908051
 20
255.013763
 40
2.0
  0
LINE
  8
001
  6
CENTER
 10
355.908051
 20
226.813763
 11
355.908051
 21
223.213763
  0
CIRCLE
  8
001
 62
     3
 10
355.908051
 20
225.013763
 40
1.23
  0
CIRCLE
  8
001
 62
     3
 10
355.908051
 20
225.013763
 40
1.5
  0
LINE
  8
001
  6
CENTER
 10
354.908051
 20
197.413763
 11
354.908051
 21
192.613763
  0
LINE
  8
001
  6
CENTER
 10
352.508051
 20
195.013763
 11
357.308051
 21
195.013763
  0
CIRCLE
  8
001
 62
     3
 10
354.908051
 20
195.013763
 40
1.62
  0
CIRCLE
  8
001
 62
     3
 10
354.908051
 20
195.013763
 40
2.0
  0
CIRCLE
  8
001
 62
     3
 10
324.908051
 20
225.013763
 40
1.62
  0
CIRCLE
  8
001
 62
     3
 10
324.908051
 20
225.013763
 40
2.0
  0
CIRCLE
  8
001
 62
     3
 10
316.908051
 20
251.513763
 40
3.0
  0
CIRCLE
  8
001
 62
     3
 10
332.908051
 20
251.513763
 40
3.0
  0
CIRCLE
  8
001
 62
     3
 10
348.908051
 20
251.513763
 40
3.0
  0
CIRCLE
  8
001
 62
     3
 10
348.908051
 20
198.513763
 40
3.0
  0
CIRCLE
  8
001
 62
     3
 10
332.908051
 20
198.513763
 40
3.0
  0
CIRCLE
  8
001
 62
     3
 10
316.908051
 20
198.513763
 40
3.0
  0
CIRCLE
  8
001
 62
     3
 10
300.908051
 20
198.513763
 40
3.0
  0
CIRCLE
  8
001
 62
     3
 10
300.908051
 20
251.513763
 40
3.0
  0
ENDBLK
  8
0
  0
BLOCK
  8
0
  2
DP007023-1060-00-104
 70
     0
 10
0.0
 20
0.0
  0
CIRCLE
  8
001
 62
     3
 10
254.408051
 20
243.013765
 40
4.0
  0
CIRCLE
  8
001
 62
     3
 10
254.408051
 20
207.013765
 40
4.0
  0
CIRCLE
  8
001
 62
     3
 10
243.408051
 20
229.513763
 40
1.750000000000001
  0
LINE
  8
001
 62
     3
 10
249.408051
 20
235.513763
 11
249.408051
 21
214.513763
  0
LINE
  8
001
 62
     3
 10
263.408051
 20
250.013765
 11
240.408051
 21
250.013765
  0
LINE
  8
001
 62
     3
 10
249.408051
 20
235.513763
 11
263.408051
 21
235.513763
  0
LINE
  8
001
 62
     3
 10
263.408051
 20
250.013765
 11
263.408051
 21
235.513763
  0
LINE
  8
001
 62
     3
 10
242.408051
 20
250.013765
 11
242.408051
 21
233.713765
  0
LINE
  8
001
 62
     3
 10
240.408051
 20
200.013765
 11
263.408051
 21
200.013765
  0
LINE
  8
001
 62
     3
 10
242.408051
 20
216.313765
 11
242.408051
 21
200.013765
  0
LINE
  8
001
 62
     3
 10
263.408051
 20
214.513763
 11
263.408051
 21
200.013765
  0
LINE
  8
001
 62
     3
 10
249.408051
 20
214.513763
 11
263.408051
 21
214.513763
  0
LINE
  8
001
 62
     3
 10
240.408051
 20
232.98239
 11
240.408051
 21
225.045136
  0
LINE
  8
001
 62
     3
 10
240.408051
 20
233.713765
 11
249.408051
 21
233.713765
  0
LINE
  8
001
 62
     3
 10
249.408051
 20
216.313765
 11
240.408051
 21
216.313765
  0
ENDBLK
  8
0
  0
BLOCK
  8
0
  2
DP007037-1040-00-105
 70
     0
 10
0.0
 20
0.0
  0
ARC
  8
001
 62
     3
 10
276.908051
 20
219.513763
 40
5.0
 50
270.0
 51
0.0
  0
ARC
  8
001
 62
     3
 10
276.908051
 20
230.513763
 40
5.000000000000001
 50
0.0
 51
90.0
  0
LINE
  8
001
 62
     3
 10
281.908051
 20
222.513763
 11
281.908051
 21
219.513763
  0
LINE
  8
001
 62
     3
 10
281.908051
 20
230.513763
 11
281.908051
 21
227.513763
  0
LINE
  8
001
 62
     3
 10
289.908051
 20
234.013763
 11
280.478765
 21
234.013763
  0
LINE
  8
001
 62
     3
 10
276.908051
 20
235.513763
 11
273.908051
 21
235.513763
  0
LINE
  8
001
 62
     3
 10
249.408051
 20
260.013763
 11
249.408051
 21
250.013765
  0
LINE
  8
001
 62
     3
 10
249.408051
 20
260.013763
 11
289.908051
 21
260.013763
  0
LINE
  8
001
 62
     3
 10
280.478765
 20
216.013763
 11
289.908051
 21
216.013763
  0
LINE
  8
001
 62
     3
 10
273.908051
 20
214.513763
 11
276.908051
 21
214.513763
  0
ENDBLK
  8
0
  0
BLOCK
  8
0
  2
ORIENTAL_PK544PMB-106
 70
     0
 10
0.0
 20
0.0
  0
LINE
  8
001
 62
    15
 10
228.408051
 20
241.984326
 11
228.408051
 21
208.043201
  0
ENDBLK
  8
0
  0
BLOCK
  8
0
  2
ORIENTAL_AZM46AK-107
 70
     0
 10
0.0
 20
0.0
  0
LINE
  8
001
 62
    15
 10
161.399246
 20
204.013789
 11
159.915135
 21
204.013789
  0
ARC
  8
001
 62
    15
 10
257.68528
 20
225.013761
 40
100.0
 50
190.650651
 51
192.122336
  0
LINE
  8
001
 62
    15
 10
94.508032
 20
158.438808
 11
94.508032
 21
159.188808
  0
LINE
  8
001
 62
    15
 10
94.508032
 20
158.338808
 11
94.508032
 21
158.438808
  0
LINE
  8
001
 62
    15
 10
94.508032
 20
158.013808
 11
94.508032
 21
158.338808
  0
LINE
  8
001
 62
    15
 10
94.508032
 20
157.913808
 11
94.508032
 21
158.013808
  0
LINE
  8
001
 62
    15
 10
94.508032
 20
158.013808
 11
94.508032
 21
157.913808
  0
LINE
  8
001
 62
    15
 10
94.508032
 20
158.013808
 11
94.508033
 21
159.613808
  0
LINE
  8
001
 62
    15
 10
94.508032
 20
160.513808
 11
94.508032
 21
159.613808
  0
LINE
  8
001
 62
    15
 10
94.508032
 20
159.613808
 11
94.508031
 21
158.013808
  0
LINE
  8
001
 62
    15
 10
94.508031
 20
158.013808
 11
94.508031
 21
157.113808
  0
LINE
  8
001
 62
    15
 10
94.508033
 20
161.313808
 11
94.508034
 21
164.713808
  0
LINE
  8
001
 62
    15
 10
103.408034
 20
164.713805
 11
94.508034
 21
164.713808
  0
LINE
  8
001
 62
    15
 10
103.408033
 20
161.313805
 11
94.508033
 21
161.313808
  0
LINE
  8
001
 62
    15
 10
94.508034
 20
163.913808
 11
94.508034
 21
163.813808
  0
LINE
  8
001
 62
    15
 10
94.508034
 20
163.813808
 11
94.508034
 21
163.913808
  0
LINE
  8
001
 62
    15
 10
94.508033
 20
163.488808
 11
94.508033
 21
163.813808
  0
LINE
  8
001
 62
    15
 10
94.508033
 20
163.388808
 11
94.508033
 21
163.488808
  0
LINE
  8
001
 62
    15
 10
94.508033
 20
162.638808
 11
94.508033
 21
163.388808
  0
LINE
  8
001
 62
    15
 10
94.508033
 20
162.538808
 11
94.508033
 21
162.638808
  0
LINE
  8
001
 62
    15
 10
94.508033
 20
162.213808
 11
94.508033
 21
162.538808
  0
LINE
  8
001
 62
    15
 10
94.508033
 20
162.113808
 11
94.508033
 21
162.213808
  0
LINE
  8
001
 62
    15
 10
94.508033
 20
162.213808
 11
94.508033
 21
162.113808
  0
LINE
  8
001
 62
    15
 10
94.508033
 20
162.213808
 11
94.508034
 21
163.813808
  0
LINE
  8
001
 62
    15
 10
94.508033
 20
164.713808
 11
94.508033
 21
163.813808
  0
LINE
  8
001
 62
    15
 10
94.508033
 20
163.813808
 11
94.508033
 21
162.213808
  0
LINE
  8
001
 62
    15
 10
94.508033
 20
162.213808
 11
94.508032
 21
161.313808
  0
LINE
  8
001
 62
    15
 10
94.508035
 20
168.113808
 11
94.508035
 21
168.013808
  0
LINE
  8
001
 62
    15
 10
94.508035
 20
168.013808
 11
94.508035
 21
168.113808
  0
LINE
  8
001
 62
    15
 10
94.508035
 20
167.688808
 11
94.508035
 21
168.013808
  0
LINE
  8
001
 62
    15
 10
94.508035
 20
167.588808
 11
94.508035
 21
167.688808
  0
LINE
  8
001
 62
    15
 10
94.508034
 20
166.838808
 11
94.508035
 21
167.588808
  0
ARC
  8
001
 62
    15
 10
257.68528
 20
225.013761
 40
100.0
 50
167.877631
 51
169.349316
  0
LINE
  8
001
 62
    15
 10
159.408056
 20
243.49584
 11
159.408045
 21
206.531738
  0
ARC
  8
001
 62
    15
 10
257.685283
 20
225.013761
 40
99.20302414745248
 50
167.778745
 51
171.010961
  0
POLYLINE
  8
001
 62
    15
 66
     1
  0
VERTEX
  8
001
 62
    15
 10
159.700646
 20
240.513789
  0
VERTEX
  8
001
 62
    15
 10
159.664904
 20
240.274137
  0
VERTEX
  8
001
 62
    15
 10
159.631171
 20
240.034226
  0
VERTEX
  8
001
 62
    15
 10
159.601834
 20
239.800387
  0
VERTEX
  8
001
 62
    15
 10
159.575996
 20
239.566073
  0
VERTEX
  8
001
 62
    15
 10
159.554704
 20
239.344441
  0
VERTEX
  8
001
 62
    15
 10
159.537006
 20
239.122668
  0
VERTEX
  8
001
 62
    15
 10
159.524475
 20
238.920224
  0
VERTEX
  8
001
 62
    15
 10
159.515254
 20
238.717063
  0
VERTEX
  8
001
 62
    15
 10
159.510401
 20
238.540968
  0
VERTEX
  8
001
 62
    15
 10
159.511639
 20
238.36637
  0
VERTEX
  8
001
 62
    15
 10
159.518597
 20
238.222369
  0
VERTEX
  8
001
 62
    15
 10
159.525607
 20
238.074187
  0
VERTEX
  8
001
 62
    15
 10
159.537127
 20
237.872462
  0
VERTEX
  8
001
 62
    15
 10
159.603807
 20
237.698956
  0
VERTEX
  8
001
 62
    15
 10
159.648773
 20
237.654229
  0
VERTEX
  8
001
 62
    15
 10
159.700646
 20
237.613789
  0
SEQEND
  8
001
 62
    15
  0
LINE
  8
001
 62
    15
 10
161.399249
 20
208.043226
 11
161.399246
 21
204.013789
  0
LINE
  8
001
 62
    15
 10
160.730455
 20
246.013789
 11
159.915147
 21
246.013789
  0
LINE
  8
001
 62
    15
 10
159.700646
 20
237.613789
 11
160.730455
 21
237.613789
  0
LINE
  8
001
 62
    15
 10
228.408049
 20
204.013769
 11
161.399246
 21
204.013789
  0
LINE
  8
001
 62
    15
 10
176.208061
 20
241.984347
 11
176.208061
 21
246.013784
  0
LINE
  8
001
 62
    15
 10
176.208059
 20
240.513784
 11
176.208059
 21
237.613784
  0
LINE
  8
001
 62
    15
 10
176.20806
 20
246.013784
 11
176.208059
 21
240.513784
  0
LINE
  8
001
 62
    15
 10
176.208061
 20
246.013784
 11
228.408061
 21
246.013769
  0
LINE
  8
001
 62
    15
 10
180.816273
 20
201.859112
 11
182.400942
 21
200.274443
  0
LINE
  8
001
 62
    15
 10
181.739267
 20
200.936118
 11
180.816273
 21
201.859112
  0
LINE
  8
001
 62
    15
 10
181.739267
 20
200.936118
 11
182.400942
 21
200.274443
  0
ARC
  8
001
 62
    15
 10
183.108048
 20
199.213782
 40
3.500000000000003
 50
319.096027
 51
0.0
  0
LINE
  8
001
 62
    15
 10
185.753376
 20
196.922006
 11
184.830383
 21
197.845
  0
ARC
  8
001
 62
    15
 10
183.108048
 20
199.213782
 40
3.500000000000003
 50
90.0
 51
130.90394
  0
LINE
  8
001
 62
    15
 10
184.476829
 20
197.491447
 11
185.399823
 21
196.568453
  0
ARC
  8
001
 62
    15
 10
183.108048
 20
199.213782
 40
3.500000000000003
 50
270.0
 51
310.90394
  0
LINE
  8
001
 62
    15
 10
180.46272
 20
201.505559
 11
181.385714
 21
200.582564
  0
LINE
  8
001
 62
    15
 10
184.168708
 20
198.506675
 11
184.830383
 21
197.845
  0
LINE
  8
001
 62
    15
 10
184.168708
 20
198.506675
 11
185.753376
 21
196.922006
  0
ARC
  8
001
 62
    15
 10
181.340282
 20
199.213783
 40
1.000000000000001
 50
314.999984
 51
44.999984
  0
LINE
  8
001
 62
    15
 10
181.446347
 20
197.905635
 11
181.7999
 21
197.552082
  0
LINE
  8
001
 62
    15
 10
181.7999
 20
197.552082
 11
182.400941
 21
198.153122
  0
ARC
  8
001
 62
    15
 10
183.108048
 20
197.446015
 40
1.000000000000001
 50
44.999984
 51
90.0
  0
LINE
  8
001
 62
    15
 10
181.446347
 20
197.905635
 11
182.047388
 21
198.506676
  0
LINE
  8
001
 62
    15
 10
181.385714
 20
200.582564
 11
182.047388
 21
199.920889
  0
LINE
  8
001
 62
    15
 10
183.815155
 20
198.153122
 11
184.476829
 21
197.491447
  0
LINE
  8
001
 62
    15
 10
181.7999
 20
197.552082
 11
182.400941
 21
198.153122
  0
ARC
  8
001
 62
    15
 10
183.108048
 20
197.446015
 40
1.000000000000001
 50
90.0
 51
134.999984
  0
ARC
  8
001
 62
    15
 10
183.108048
 20
197.446015
 40
1.000000000000001
 50
90.0
 51
134.999984
  0
ARC
  8
001
 62
    15
 10
184.875815
 20
199.213782
 40
1.000000000000001
 50
134.999984
 51
224.999984
  0
LINE
  8
001
 62
    15
 10
184.168709
 20
199.920889
 11
184.76975
 21
200.521929
  0
LINE
  8
001
 62
    15
 10
184.416196
 20
200.875483
 11
184.76975
 21
200.521929
  0
LINE
  8
001
 62
    15
 10
183.815156
 20
200.274442
 11
184.416196
 21
200.875483
  0
ARC
  8
001
 62
    15
 10
183.108049
 20
200.981549
 40
1.000000000000001
 50
224.999984
 51
270.0
  0
ARC
  8
001
 62
    15
 10
183.108049
 20
200.981549
 40
1.000000000000001
 50
270.0
 51
314.999984
  0
ARC
  8
001
 62
    15
 10
183.108049
 20
200.981549
 40
1.000000000000001
 50
224.999984
 51
270.0
  0
ARC
  8
001
 62
    15
 10
184.875815
 20
199.213782
 40
1.000000000000001
 50
134.999984
 51
224.999984
  0
LINE
  8
001
 62
    15
 10
184.168708
 20
199.920889
 11
184.769749
 21
200.521929
  0
LINE
  8
001
 62
    15
 10
184.416196
 20
200.875483
 11
184.769749
 21
200.521929
  0
LINE
  8
001
 62
    15
 10
158.408046
 20
208.263789
 11
158.408055
 21
241.763789
  0
LINE
  8
001
 62
    15
 10
159.408056
 20
243.49584
 11
158.408055
 21
241.763789
  0
LINE
  8
001
 62
    15
 10
158.408046
 20
208.263789
 11
159.408045
 21
206.531738
  0
LINE
  8
001
 62
    15
 10
158.408055
 20
241.763789
 11
158.408046
 21
208.263789
  0
ARC
  8
001
 62
    15
 10
183.108048
 20
199.213782
 40
3.500000000000003
 50
310.90394
 51
319.096027
  0
ARC
  8
001
 62
    15
 10
183.108048
 20
199.213782
 40
3.500000000000003
 50
130.90394
 51
139.096027
  0
ARC
  8
001
 62
    15
 10
183.108048
 20
199.213782
 40
3.500000000000003
 50
139.096027
 51
270.0
  0
ARC
  8
001
 62
    15
 10
183.108048
 20
199.213782
 40
3.500000000000003
 50
0.0
 51
90.0
  0
ARC
  8
001
 62
    15
 10
183.108047
 20
199.213782
 40
3.500000000000003
 50
90.0
 51
139.094659
  0
ARC
  8
001
 62
    15
 10
183.108047
 20
199.213782
 40
3.500000000000003
 50
139.094659
 51
270.0
  0
LINE
  8
001
 62
    15
 10
191.058047
 20
199.51378
 11
191.058047
 21
199.21378
  0
LINE
  8
001
 62
    15
 10
191.058047
 20
199.51378
 11
191.058047
 21
199.21378
  0
LINE
  8
001
 62
    15
 10
193.258048
 20
202.113779
 11
193.258047
 21
199.513779
  0
LINE
  8
001
 62
    15
 10
193.258047
 20
199.513779
 11
195.158047
 21
199.513779
  0
LINE
  8
001
 62
    15
 10
195.158047
 20
199.513779
 11
195.158047
 21
199.213779
  0
LINE
  8
001
 62
    15
 10
191.058047
 20
199.21378
 11
195.158047
 21
199.213779
  0
LINE
  8
001
 62
    15
 10
191.058047
 20
199.51378
 11
192.958047
 21
199.51378
  0
LINE
  8
001
 62
    15
 10
192.958048
 20
202.11378
 11
192.958047
 21
199.51378
  0
LINE
  8
001
 62
    15
 10
192.958048
 20
202.11378
 11
193.258048
 21
202.113779
  0
LINE
  8
001
 62
    15
 10
191.658047
 20
198.86378
 11
191.658047
 21
198.56378
  0
LINE
  8
001
 62
    15
 10
191.658047
 20
198.86378
 11
191.658047
 21
198.56378
  0
LINE
  8
001
 62
    15
 10
191.658047
 20
198.86378
 11
194.558047
 21
198.863779
  0
LINE
  8
001
 62
    15
 10
194.558047
 20
198.863779
 11
194.558047
 21
198.563779
  0
LINE
  8
001
 62
    15
 10
191.658047
 20
198.56378
 11
194.558047
 21
198.563779
  0
LINE
  8
001
 62
    15
 10
192.258047
 20
198.21378
 11
192.258047
 21
197.91378
  0
LINE
  8
001
 62
    15
 10
192.258047
 20
198.21378
 11
192.258047
 21
197.91378
  0
LINE
  8
001
 62
    15
 10
192.258047
 20
198.21378
 11
193.958047
 21
198.213779
  0
LINE
  8
001
 62
    15
 10
193.958047
 20
198.213779
 11
193.958047
 21
197.913779
  0
LINE
  8
001
 62
    15
 10
192.258047
 20
197.91378
 11
193.958047
 21
197.913779
  0
LINE
  8
001
 62
    15
 10
192.958048
 20
202.11378
 11
192.958047
 21
199.51378
  0
ARC
  8
001
 62
    15
 10
193.108047
 20
200.013779
 40
2.9
 50
270.0
 51
359.999984
  0
ARC
  8
001
 62
    15
 10
193.108047
 20
200.013779
 40
2.9
 50
90.0
 51
270.0
  0
ARC
  8
001
 62
    15
 10
193.108047
 20
200.013779
 40
2.9
 50
90.0
 51
270.0
  0
ARC
  8
001
 62
    15
 10
193.108047
 20
200.013779
 40
2.9
 50
359.999984
 51
90.0
  0
ARC
  8
001
 62
    15
 10
193.108047
 20
200.013779
 40
2.599999999999999
 50
179.999984
 51
270.0
  0
ARC
  8
001
 62
    15
 10
193.108047
 20
200.013779
 40
2.599999999999999
 50
90.0
 51
179.999984
  0
ARC
  8
001
 62
    15
 10
193.108047
 20
200.013779
 40
2.599999999999999
 50
270.0
 51
90.0
  0
ARC
  8
001
 62
    15
 10
193.108047
 20
200.013779
 40
2.599999999999999
 50
359.999984
 51
90.0
  0
ARC
  8
001
 62
    15
 10
193.108047
 20
200.013779
 40
2.599999999999999
 50
270.0
 51
359.999984
  0
LINE
  8
001
 62
    15
 10
194.308041
 20
193.013779
 11
206.608043
 21
199.013776
  0
LINE
  8
001
 62
    15
 10
194.308046
 20
194.552253
 11
194.308041
 21
193.013779
  0
LINE
  8
001
 62
    15
 10
202.608047
 20
198.601031
 11
194.308046
 21
194.552253
  0
POLYLINE
  8
001
 62
    15
 66
     1
  0
VERTEX
  8
001
 62
    15
 10
206.608046
 20
199.770633
  0
VERTEX
  8
001
 62
    15
 10
206.587398
 20
199.813653
  0
VERTEX
  8
001
 62
    15
 10
206.560512
 20
199.848936
  0
VERTEX
  8
001
 62
    15
 10
206.49662
 20
199.878212
  0
VERTEX
  8
001
 62
    15
 10
206.419386
 20
199.886069
  0
VERTEX
  8
001
 62
    15
 10
206.299947
 20
199.88665
  0
VERTEX
  8
001
 62
    15
 10
206.185814
 20
199.8792
  0
VERTEX
  8
001
 62
    15
 10
206.027469
 20
199.858093
  0
VERTEX
  8
001
 62
    15
 10
205.868295
 20
199.828209
  0
VERTEX
  8
001
 62
    15
 10
205.67334
 20
199.784262
  0
VERTEX
  8
001
 62
    15
 10
205.48062
 20
199.734565
  0
VERTEX
  8
001
 62
    15
 10
205.256355
 20
199.670439
  0
VERTEX
  8
001
 62
    15
 10
205.033388
 20
199.600988
  0
VERTEX
  8
001
 62
    15
 10
204.776311
 20
199.514895
  0
VERTEX
  8
001
 62
    15
 10
204.521069
 20
199.42378
  0
VERTEX
  8
001
 62
    15
 10
204.246945
 20
199.320414
  0
VERTEX
  8
001
 62
    15
 10
203.974519
 20
199.212554
  0
VERTEX
  8
001
 62
    15
 10
203.633422
 20
199.070772
  0
VERTEX
  8
001
 62
    15
 10
203.295174
 20
198.922401
  0
VERTEX
  8
001
 62
    15
 10
202.950781
 20
198.763532
  0
VERTEX
  8
001
 62
    15
 10
202.608047
 20
198.601031
  0
SEQEND
  8
001
 62
    15
  0
LINE
  8
001
 62
    15
 10
206.608046
 20
199.770633
 11
206.608043
 21
199.013776
  0
LINE
  8
001
 62
    15
 10
206.608047
 20
204.013776
 11
206.608046
 21
199.770633
  0
LINE
  8
001
 62
    15
 10
178.108046
 20
194.552258
 11
178.108041
 21
193.013784
  0
LINE
  8
001
 62
    15
 10
192.358041
 20
193.01378
 11
194.308041
 21
193.013779
  0
LINE
  8
001
 62
    15
 10
178.108041
 20
193.013784
 11
181.858041
 21
193.013783
  0
POLYLINE
  8
001
 62
    15
 66
     1
  0
VERTEX
  8
001
 62
    15
 10
192.358041
 20
193.01378
  0
VERTEX
  8
001
 62
    15
 10
192.321999
 20
193.016918
  0
VERTEX
  8
001
 62
    15
 10
192.285955
 20
193.020044
  0
VERTEX
  8
001
 62
    15
 10
192.174691
 20
193.02955
  0
VERTEX
  8
001
 62
    15
 10
192.063409
 20
193.038842
  0
VERTEX
  8
001
 62
    15
 10
191.886336
 20
193.05321
  0
VERTEX
  8
001
 62
    15
 10
191.709222
 20
193.067067
  0
VERTEX
  8
001
 62
    15
 10
191.461305
 20
193.085587
  0
VERTEX
  8
001
 62
    15
 10
191.213314
 20
193.10309
  0
VERTEX
  8
001
 62
    15
 10
190.914492
 20
193.122824
  0
VERTEX
  8
001
 62
    15
 10
190.615576
 20
193.141079
  0
VERTEX
  8
001
 62
    15
 10
190.257755
 20
193.160976
  0
VERTEX
  8
001
 62
    15
 10
189.899821
 20
193.178744
  0
VERTEX
  8
001
 62
    15
 10
189.51226
 20
193.195575
  0
VERTEX
  8
001
 62
    15
 10
189.124599
 20
193.209901
  0
VERTEX
  8
001
 62
    15
 10
188.69658
 20
193.222804
  0
VERTEX
  8
001
 62
    15
 10
188.268479
 20
193.232646
  0
VERTEX
  8
001
 62
    15
 10
187.837223
 20
193.239462
  0
VERTEX
  8
001
 62
    15
 10
187.405929
 20
193.243168
  0
VERTEX
  8
001
 62
    15
 10
186.957853
 20
193.243721
  0
VERTEX
  8
001
 62
    15
 10
186.509785
 20
193.240916
  0
VERTEX
  8
001
 62
    15
 10
186.083824
 20
193.235135
  0
VERTEX
  8
001
 62
    15
 10
185.657915
 20
193.226322
  0
VERTEX
  8
001
 62
    15
 10
185.240534
 20
193.214743
  0
VERTEX
  8
001
 62
    15
 10
184.823245
 20
193.200257
  0
VERTEX
  8
001
 62
    15
 10
184.448816
 20
193.184784
  0
VERTEX
  8
001
 62
    15
 10
184.074492
 20
193.166978
  0
VERTEX
  8
001
 62
    15
 10
183.732823
 20
193.148687
  0
VERTEX
  8
001
 62
    15
 10
183.391264
 20
193.128459
  0
VERTEX
  8
001
 62
    15
 10
183.109957
 20
193.110342
  0
VERTEX
  8
001
 62
    15
 10
182.828738
 20
193.090916
  0
VERTEX
  8
001
 62
    15
 10
182.60094
 20
193.074218
  0
VERTEX
  8
001
 62
    15
 10
182.373207
 20
193.056663
  0
VERTEX
  8
001
 62
    15
 10
182.218066
 20
193.044211
  0
VERTEX
  8
001
 62
    15
 10
182.062957
 20
193.031365
  0
VERTEX
  8
001
 62
    15
 10
181.976073
 20
193.023997
  0
VERTEX
  8
001
 62
    15
 10
181.8892
 20
193.016501
  0
VERTEX
  8
001
 62
    15
 10
181.873621
 20
193.015143
  0
VERTEX
  8
001
 62
    15
 10
181.858041
 20
193.013783
  0
SEQEND
  8
001
 62
    15
  0
LINE
  8
001
 62
    15
 10
178.108038
 20
194.552258
 11
178.108041
 21
193.013784
  0
LINE
  8
001
 62
    15
 10
178.108046
 20
194.552258
 11
194.308046
 21
194.552253
  0
LINE
  8
001
 62
    15
 10
178.108046
 20
194.552258
 11
178.108048
 21
204.013784
  0
LINE
  8
001
 62
    15
 10
178.108038
 20
194.552258
 11
178.108041
 21
204.013784
  0
LINE
  8
001
 62
    15
 10
173.408046
 20
194.439047
 11
173.408048
 21
204.013785
  0
LINE
  8
001
 62
    15
 10
161.408046
 20
194.43905
 11
173.408046
 21
194.439047
  0
LINE
  8
001
 62
    15
 10
161.408046
 20
194.43905
 11
161.408048
 21
204.013789
  0
LINE
  8
001
 62
    15
 10
161.408038
 20
194.43905
 11
161.408041
 21
193.013789
  0
LINE
  8
001
 62
    15
 10
161.408038
 20
194.43905
 11
161.408041
 21
204.013789
  0
LINE
  8
001
 62
    15
 10
161.408046
 20
194.43905
 11
161.408041
 21
193.013789
  0
LINE
  8
001
 62
    15
 10
173.408046
 20
194.439047
 11
173.408041
 21
193.013785
  0
LINE
  8
001
 62
    15
 10
172.408041
 20
193.013785
 11
173.408041
 21
193.013785
  0
LINE
  8
001
 62
    15
 10
161.408041
 20
193.013789
 11
162.408041
 21
193.013788
  0
POLYLINE
  8
001
 62
    15
 66
     1
  0
VERTEX
  8
001
 62
    15
 10
172.408041
 20
193.013785
  0
VERTEX
  8
001
 62
    15
 10
172.373701
 20
193.016633
  0
VERTEX
  8
001
 62
    15
 10
172.33936
 20
193.01947
  0
VERTEX
  8
001
 62
    15
 10
172.23335
 20
193.028095
  0
VERTEX
  8
001
 62
    15
 10
172.127323
 20
193.036526
  0
VERTEX
  8
001
 62
    15
 10
171.958604
 20
193.049564
  0
VERTEX
  8
001
 62
    15
 10
171.789849
 20
193.062136
  0
VERTEX
  8
001
 62
    15
 10
171.553617
 20
193.07894
  0
VERTEX
  8
001
 62
    15
 10
171.317322
 20
193.09482
  0
VERTEX
  8
001
 62
    15
 10
171.032655
 20
193.112719
  0
VERTEX
  8
001
 62
    15
 10
170.747907
 20
193.129275
  0
VERTEX
  8
001
 62
    15
 10
170.407048
 20
193.147318
  0
VERTEX
  8
001
 62
    15
 10
170.066092
 20
193.163429
  0
VERTEX
  8
001
 62
    15
 10
169.696986
 20
193.178686
  0
VERTEX
  8
001
 62
    15
 10
169.327792
 20
193.191671
  0
VERTEX
  8
001
 62
    15
 10
168.920189
 20
193.203364
  0
VERTEX
  8
001
 62
    15
 10
168.512515
 20
193.212283
  0
VERTEX
  8
001
 62
    15
 10
168.101749
 20
193.218459
  0
VERTEX
  8
001
 62
    15
 10
167.690949
 20
193.221814
  0
VERTEX
  8
001
 62
    15
 10
167.264183
 20
193.22231
  0
VERTEX
  8
001
 62
    15
 10
166.837424
 20
193.21976
  0
VERTEX
  8
001
 62
    15
 10
166.431625
 20
193.214511
  0
VERTEX
  8
001
 62
    15
 10
166.025872
 20
193.20651
  0
VERTEX
  8
001
 62
    15
 10
165.62826
 20
193.196
  0
VERTEX
  8
001
 62
    15
 10
165.230727
 20
193.182853
  0
VERTEX
  8
001
 62
    15
 10
164.874104
 20
193.168814
  0
VERTEX
  8
001
 62
    15
 10
164.517571
 20
193.152658
  0
VERTEX
  8
001
 62
    15
 10
164.192179
 20
193.136064
  0
VERTEX
  8
001
 62
    15
 10
163.86688
 20
193.117713
  0
VERTEX
  8
001
 62
    15
 10
163.599102
 20
193.101285
  0
VERTEX
  8
001
 62
    15
 10
163.331399
 20
193.08367
  0
VERTEX
  8
001
 62
    15
 10
163.1146
 20
193.068533
  0
VERTEX
  8
001
 62
    15
 10
162.897857
 20
193.052619
  0
VERTEX
  8
001
 62
    15
 10
162.750261
 20
193.041336
  0
VERTEX
  8
001
 62
    15
 10
162.602693
 20
193.029695
  0
VERTEX
  8
001
 62
    15
 10
162.520106
 20
193.023025
  0
VERTEX
  8
001
 62
    15
 10
162.437528
 20
193.016238
  0
VERTEX
  8
001
 62
    15
 10
162.422785
 20
193.015014
  0
VERTEX
  8
001
 62
    15
 10
162.408041
 20
193.013788
  0
SEQEND
  8
001
 62
    15
  0
LINE
  8
001
 62
    15
 10
176.20806
 20
246.013784
 11
160.730455
 21
246.013789
  0
LINE
  8
001
 62
    15
 10
181.858041
 20
193.013783
 11
181.858041
 21
191.013783
  0
LINE
  8
001
 62
    15
 10
192.358041
 20
191.01378
 11
192.358041
 21
193.01378
  0
LINE
  8
001
 62
    15
 10
181.858041
 20
191.013783
 11
192.358041
 21
191.01378
  0
LINE
  8
001
 62
    15
 10
162.408041
 20
193.013788
 11
162.408041
 21
191.013788
  0
LINE
  8
001
 62
    15
 10
172.408041
 20
191.013785
 11
172.408041
 21
193.013785
  0
LINE
  8
001
 62
    15
 10
162.408041
 20
191.013788
 11
172.408041
 21
191.013785
  0
LINE
  8
001
 62
    15
 10
105.008038
 20
179.363805
 11
105.008038
 21
179.482351
  0
LINE
  8
001
 62
    15
 10
105.008038
 20
179.482351
 11
105.008039
 21
180.66017
  0
LINE
  8
001
 62
    15
 10
105.008039
 20
180.66017
 11
105.008039
 21
181.363805
  0
LINE
  8
001
 62
    15
 10
105.008039
 20
181.363805
 11
105.008042
 21
190.263805
  0
LINE
  8
001
 62
    15
 10
105.008042
 20
190.263805
 11
105.008042
 21
190.663805
  0
LINE
  8
001
 62
    15
 10
105.00804
 20
194.413805
 11
105.008039
 21
191.913805
  0
LINE
  8
001
 62
    15
 10
105.008039
 20
191.913805
 11
105.008039
 21
190.663805
  0
LINE
  8
001
 62
    15
 10
105.008039
 20
190.663805
 11
105.008036
 21
179.363805
  0
LINE
  8
001
 62
    15
 10
105.008036
 20
179.363805
 11
105.008035
 21
178.113805
  0
LINE
  8
001
 62
    15
 10
105.008035
 20
178.113805
 11
105.008035
 21
175.613805
  0
LINE
  8
001
 62
    15
 10
105.008041
 20
191.913805
 11
105.008042
 21
194.413805
  0
LINE
  8
001
 62
    15
 10
105.008043
 20
194.413805
 11
105.008042
 21
191.913805
  0
LINE
  8
001
 62
    15
 10
105.008044
 20
194.413805
 11
105.008038
 21
175.613805
  0
LINE
  8
001
 62
    15
 10
105.008038
 20
178.113805
 11
105.008037
 21
175.613805
  0
LINE
  8
001
 62
    15
 10
105.008036
 20
175.613805
 11
105.008037
 21
178.113805
  0
LINE
  8
001
 62
    15
 10
138.008038
 20
176.313795
 11
138.008043
 21
193.713795
  0
ARC
  8
001
 62
    15
 10
137.508038
 20
176.313795
 40
0.5000000000000004
 50
269.999984
 51
359.999984
  0
LINE
  8
001
 62
    15
 10
133.27314
 20
175.813797
 11
137.508038
 21
175.813795
  0
ARC
  8
001
 62
    15
 10
133.273141
 20
180.813797
 40
5.000000000001226
 50
221.256995
 51
269.999984
  0
LINE
  8
001
 62
    15
 10
128.632093
 20
178.522377
 11
129.514345
 21
177.516609
  0
LINE
  8
001
 62
    15
 10
123.508039
 20
178.522378
 11
128.632093
 21
178.522377
  0
LINE
  8
001
 62
    15
 10
121.508038
 20
176.522379
 11
123.508039
 21
178.522378
  0
LINE
  8
001
 62
    15
 10
121.508038
 20
175.6138
 11
121.508038
 21
176.522379
  0
LINE
  8
001
 62
    15
 10
121.508044
 20
194.4138
 11
105.008044
 21
194.413805
  0
LINE
  8
001
 62
    15
 10
121.508043
 20
193.505221
 11
121.508044
 21
194.4138
  0
LINE
  8
001
 62
    15
 10
123.508043
 20
191.505221
 11
121.508043
 21
193.505221
  0
LINE
  8
001
 62
    15
 10
128.632097
 20
191.505219
 11
123.508043
 21
191.505221
  0
LINE
  8
001
 62
    15
 10
129.514349
 20
192.510987
 11
128.632097
 21
191.505219
  0
ARC
  8
001
 62
    15
 10
133.273144
 20
189.213797
 40
5.000000000000338
 50
89.999984
 51
138.742972
  0
LINE
  8
001
 62
    15
 10
137.508043
 20
194.213795
 11
133.273145
 21
194.213797
  0
ARC
  8
001
 62
    15
 10
137.508043
 20
193.713795
 40
0.5000000000000004
 50
359.999984
 51
89.999984
  0
LINE
  8
001
 62
    15
 10
105.008038
 20
175.613805
 11
121.508038
 21
175.6138
  0
LINE
  8
001
 62
    15
 10
128.632089
 20
178.522377
 11
129.514341
 21
177.516609
  0
LINE
  8
001
 62
    15
 10
129.514346
 20
192.510987
 11
128.632093
 21
191.505219
  0
ARC
  8
001
 62
    15
 10
133.273138
 20
180.813797
 40
5.000000000001226
 50
221.256995
 51
269.999984
  0
ARC
  8
001
 62
    15
 10
133.27314
 20
189.213797
 40
5.000000000000338
 50
89.999984
 51
138.742972
  0
LINE
  8
001
 62
    15
 10
128.508038
 20
178.122377
 11
128.108038
 21
178.522377
  0
LINE
  8
001
 62
    15
 10
128.508038
 20
178.122377
 11
128.508038
 21
177.072377
  0
ARC
  8
001
 62
    15
 10
128.208038
 20
177.072377
 40
0.3000000000000225
 50
269.999984
 51
359.999984
  0
LINE
  8
001
 62
    15
 10
127.658038
 20
176.772377
 11
128.208038
 21
176.772377
  0
LINE
  8
001
 62
    15
 10
124.358038
 20
178.022378
 11
127.658038
 21
176.772377
  0
LINE
  8
001
 62
    15
 10
123.858038
 20
178.022378
 11
124.358038
 21
178.022378
  0
LINE
  8
001
 62
    15
 10
123.858038
 20
178.022378
 11
121.508038
 21
175.672379
  0
LINE
  8
001
 62
    15
 10
121.508043
 20
194.355221
 11
123.858042
 21
192.005221
  0
LINE
  8
001
 62
    15
 10
123.858042
 20
192.005221
 11
124.358042
 21
192.00522
  0
LINE
  8
001
 62
    15
 10
127.658043
 20
193.25522
 11
124.358042
 21
192.00522
  0
LINE
  8
001
 62
    15
 10
128.208043
 20
193.255219
 11
127.658043
 21
193.25522
  0
ARC
  8
001
 62
    15
 10
128.208043
 20
192.955219
 40
0.3000000000000225
 50
359.999984
 51
89.999984
  0
LINE
  8
001
 62
    15
 10
128.508043
 20
192.955219
 11
128.508042
 21
191.905219
  0
LINE
  8
001
 62
    15
 10
128.508042
 20
191.905219
 11
128.108042
 21
191.505219
  0
LINE
  8
001
 62
    15
 10
126.808038
 20
177.094347
 11
127.658038
 21
176.772377
  0
LINE
  8
001
 62
    15
 10
125.958038
 20
177.416317
 11
126.808038
 21
177.094347
  0
LINE
  8
001
 62
    15
 10
125.108038
 20
177.738287
 11
125.958038
 21
177.416317
  0
LINE
  8
001
 62
    15
 10
124.358038
 20
178.022378
 11
125.108038
 21
177.738287
  0
LINE
  8
001
 62
    15
 10
125.108042
 20
192.289311
 11
124.358042
 21
192.00522
  0
LINE
  8
001
 62
    15
 10
125.958042
 20
192.611281
 11
125.108042
 21
192.289311
  0
LINE
  8
001
 62
    15
 10
126.808042
 20
192.93325
 11
125.958042
 21
192.611281
  0
LINE
  8
001
 62
    15
 10
127.658042
 20
193.25522
 11
126.808042
 21
192.93325
  0
LINE
  8
001
 62
    15
 10
94.508039
 20
180.660173
 11
94.508039
 21
181.363808
  0
LINE
  8
001
 62
    15
 10
94.508039
 20
181.363808
 11
94.508042
 21
190.263808
  0
LINE
  8
001
 62
    15
 10
94.508038
 20
179.482354
 11
94.508039
 21
180.660173
  0
LINE
  8
001
 62
    15
 10
94.508038
 20
179.363808
 11
94.508038
 21
179.482354
  0
LINE
  8
001
 62
    15
 10
94.508037
 20
179.482354
 11
94.508037
 21
179.363808
  0
LINE
  8
001
 62
    15
 10
94.508037
 20
180.660173
 11
94.508037
 21
179.482354
  0
LINE
  8
001
 62
    15
 10
94.508037
 20
181.363808
 11
94.508037
 21
180.660173
  0
LINE
  8
001
 62
    15
 10
94.50804
 20
190.263808
 11
94.508037
 21
181.363808
  0
LINE
  8
001
 62
    15
 10
94.50804
 20
190.663808
 11
94.50804
 21
190.263808
  0
LINE
  8
001
 62
    15
 10
94.508042
 20
190.263808
 11
94.508042
 21
190.663808
  0
LINE
  8
001
 62
    15
 10
94.508042
 20
190.663808
 11
105.008042
 21
190.663805
  0
LINE
  8
001
 62
    15
 10
125.108038
 20
177.738287
 11
124.358038
 21
177.738287
  0
LINE
  8
001
 62
    15
 10
124.358038
 20
177.738287
 11
124.358038
 21
178.022378
  0
LINE
  8
001
 62
    15
 10
124.358037
 20
178.022378
 11
124.358037
 21
177.738287
  0
LINE
  8
001
 62
    15
 10
124.358042
 20
192.00522
 11
124.358042
 21
192.289311
  0
LINE
  8
001
 62
    15
 10
124.358042
 20
192.289311
 11
125.108042
 21
192.289311
  0
LINE
  8
001
 62
    15
 10
124.358041
 20
192.289311
 11
124.358041
 21
192.00522
  0
LINE
  8
001
 62
    15
 10
125.108038
 20
177.416317
 11
125.108038
 21
177.738287
  0
LINE
  8
001
 62
    15
 10
125.108037
 20
177.738287
 11
125.108037
 21
177.416317
  0
LINE
  8
001
 62
    15
 10
125.958038
 20
177.416317
 11
125.108038
 21
177.416317
  0
LINE
  8
001
 62
    15
 10
125.108042
 20
192.289311
 11
125.108042
 21
192.611281
  0
LINE
  8
001
 62
    15
 10
125.108041
 20
192.611281
 11
125.108041
 21
192.289311
  0
LINE
  8
001
 62
    15
 10
125.108042
 20
192.611281
 11
125.958042
 21
192.611281
  0
LINE
  8
001
 62
    15
 10
125.958038
 20
177.094347
 11
125.958038
 21
177.416317
  0
LINE
  8
001
 62
    15
 10
125.958037
 20
177.416317
 11
125.958037
 21
177.094347
  0
LINE
  8
001
 62
    15
 10
126.808038
 20
177.094347
 11
125.958038
 21
177.094347
  0
LINE
  8
001
 62
    15
 10
125.958042
 20
192.611281
 11
125.958042
 21
192.93325
  0
LINE
  8
001
 62
    15
 10
125.958042
 20
192.93325
 11
126.808042
 21
192.93325
  0
LINE
  8
001
 62
    15
 10
125.958041
 20
192.93325
 11
125.958041
 21
192.611281
  0
LINE
  8
001
 62
    15
 10
126.808038
 20
176.772377
 11
126.808038
 21
177.094347
  0
LINE
  8
001
 62
    15
 10
126.808037
 20
177.094347
 11
126.808036
 21
176.772377
  0
LINE
  8
001
 62
    15
 10
127.658038
 20
176.772377
 11
126.808038
 21
176.772377
  0
LINE
  8
001
 62
    15
 10
126.808042
 20
192.93325
 11
126.808042
 21
193.25522
  0
LINE
  8
001
 62
    15
 10
126.808041
 20
193.25522
 11
126.808041
 21
192.93325
  0
LINE
  8
001
 62
    15
 10
126.808042
 20
193.25522
 11
127.658042
 21
193.25522
  0
LINE
  8
001
 62
    15
 10
127.658038
 20
176.450407
 11
127.658038
 21
176.772377
  0
LINE
  8
001
 62
    15
 10
127.658036
 20
176.772377
 11
127.658036
 21
176.450407
  0
LINE
  8
001
 62
    15
 10
128.208038
 20
176.450407
 11
127.658038
 21
176.450407
  0
ARC
  8
001
 62
    15
 10
128.208038
 20
176.750407
 40
0.3000000000000225
 50
269.999984
 51
359.999984
  0
LINE
  8
001
 62
    15
 10
128.508038
 20
177.072377
 11
128.508038
 21
176.750407
  0
LINE
  8
001
 62
    15
 10
127.658042
 20
193.577189
 11
128.208042
 21
193.577189
  0
ARC
  8
001
 62
    15
 10
128.208042
 20
193.277189
 40
0.3000000000000225
 50
359.999984
 51
89.999984
  0
LINE
  8
001
 62
    15
 10
127.658042
 20
193.25522
 11
127.658042
 21
193.577189
  0
LINE
  8
001
 62
    15
 10
128.508042
 20
193.277189
 11
128.508042
 21
192.955219
  0
LINE
  8
001
 62
    15
 10
127.658041
 20
193.577189
 11
127.658041
 21
193.25522
  0
LINE
  8
001
 62
    15
 10
161.40804
 20
188.013789
 11
138.00804
 21
188.013795
  0
LINE
  8
001
 62
    15
 10
138.008038
 20
182.013795
 11
161.408038
 21
182.013789
  0
ARC
  8
001
 62
    15
 10
161.408041
 20
191.013789
 40
3.0
 50
269.999984
 51
359.999984
  0
ARC
  8
001
 62
    15
 10
161.408041
 20
191.013789
 40
9.000000000000002
 50
269.999984
 51
359.999984
  0
LINE
  8
001
 62
    15
 10
100.608037
 20
175.613806
 11
100.608038
 21
178.113806
  0
LINE
  8
001
 62
    15
 10
100.608038
 20
178.113806
 11
105.008038
 21
178.113805
  0
LINE
  8
001
 62
    15
 10
105.008037
 20
175.613805
 11
100.608037
 21
175.613806
  0
LINE
  8
001
 62
    15
 10
100.608036
 20
175.613806
 11
100.608037
 21
178.113806
  0
LINE
  8
001
 62
    15
 10
100.608042
 20
191.913806
 11
100.608043
 21
194.413806
  0
LINE
  8
001
 62
    15
 10
100.608041
 20
191.913806
 11
100.608042
 21
194.413806
  0
LINE
  8
001
 62
    15
 10
105.008042
 20
191.913805
 11
100.608042
 21
191.913806
  0
LINE
  8
001
 62
    15
 10
100.608043
 20
194.413806
 11
105.008043
 21
194.413805
  0
LINE
  8
001
 62
    15
 10
94.508038
 20
179.363808
 11
105.008038
 21
179.363805
  0
LINE
  8
001
 62
    15
 10
110.408035
 20
160.313803
 11
110.408036
 21
165.713803
  0
LINE
  8
001
 62
    15
 10
110.408036
 20
165.713803
 11
111.908036
 21
165.713803
  0
LINE
  8
001
 62
    15
 10
111.908035
 20
160.313803
 11
111.908036
 21
165.713803
  0
LINE
  8
001
 62
    15
 10
111.908035
 20
160.313803
 11
110.408035
 21
160.313803
  0
LINE
  8
001
 62
    15
 10
110.408034
 20
160.313803
 11
110.408035
 21
161.513803
  0
LINE
  8
001
 62
    15
 10
110.408035
 20
161.513803
 11
110.408036
 21
164.513803
  0
LINE
  8
001
 62
    15
 10
110.408036
 20
164.513803
 11
110.408036
 21
165.713803
  0
LINE
  8
001
 62
    15
 10
97.108035
 20
161.513807
 11
97.108035
 21
164.513807
  0
LINE
  8
001
 62
    15
 10
97.108035
 20
164.513807
 11
97.808036
 21
164.513807
  0
LINE
  8
001
 62
    15
 10
97.808035
 20
161.513807
 11
97.808036
 21
164.513807
  0
LINE
  8
001
 62
    15
 10
97.808035
 20
161.513807
 11
97.108035
 21
161.513807
  0
LINE
  8
001
 62
    15
 10
110.408036
 20
164.513803
 11
97.808036
 21
164.513807
  0
LINE
  8
001
 62
    15
 10
97.808035
 20
161.513807
 11
110.408035
 21
161.513803
  0
LINE
  8
001
 62
    15
 10
109.908034
 20
160.313803
 11
109.908035
 21
161.513803
  0
LINE
  8
001
 62
    15
 10
109.908034
 20
160.313803
 11
110.408034
 21
160.313803
  0
LINE
  8
001
 62
    15
 10
109.908036
 20
165.713803
 11
109.908035
 21
164.513803
  0
LINE
  8
001
 62
    15
 10
110.408036
 20
165.713803
 11
109.908036
 21
165.713803
  0
LINE
  8
001
 62
    15
 10
97.108035
 20
164.513807
 11
97.108034
 21
161.513807
  0
LINE
  8
001
 62
    15
 10
104.658034
 20
161.513805
 11
104.658034
 21
160.313805
  0
LINE
  8
001
 62
    15
 10
104.658034
 20
160.313805
 11
104.658035
 21
161.513805
  0
LINE
  8
001
 62
    15
 10
104.658034
 20
160.313805
 11
109.908034
 21
160.313803
  0
LINE
  8
001
 62
    15
 10
104.658036
 20
165.713805
 11
104.658035
 21
164.513805
  0
LINE
  8
001
 62
    15
 10
109.908036
 20
165.713803
 11
104.658036
 21
165.713805
  0
LINE
  8
001
 62
    15
 10
104.658035
 20
165.713805
 11
104.658035
 21
164.513805
  0
LINE
  8
001
 62
    15
 10
113.108033
 20
159.513802
 11
113.108032
 21
156.113802
  0
LINE
  8
001
 62
    15
 10
113.108033
 20
159.513802
 11
113.108033
 21
156.113802
  0
LINE
  8
001
 62
    15
 10
114.108033
 20
159.513802
 11
113.108033
 21
159.513802
  0
LINE
  8
001
 62
    15
 10
114.108033
 20
156.113802
 11
114.108033
 21
159.513802
  0
LINE
  8
001
 62
    15
 10
113.108033
 20
156.113802
 11
114.108033
 21
156.113802
  0
LINE
  8
001
 62
    15
 10
113.108036
 20
169.913802
 11
113.108035
 21
166.513802
  0
LINE
  8
001
 62
    15
 10
113.108036
 20
169.913802
 11
113.108035
 21
166.513802
  0
LINE
  8
001
 62
    15
 10
113.108036
 20
169.913802
 11
114.108036
 21
169.913802
  0
LINE
  8
001
 62
    15
 10
114.108035
 20
166.513802
 11
114.108036
 21
169.913802
  0
LINE
  8
001
 62
    15
 10
113.108035
 20
166.513802
 11
114.108035
 21
166.513802
  0
LINE
  8
001
 62
    15
 10
104.358033
 20
160.313805
 11
104.658034
 21
160.313805
  0
LINE
  8
001
 62
    15
 10
104.658035
 20
165.713805
 11
104.358035
 21
165.713805
  0
LINE
  8
001
 62
    15
 10
103.408036
 20
169.913805
 11
103.408035
 21
164.513805
  0
LINE
  8
001
 62
    15
 10
103.408034
 20
161.513805
 11
103.408032
 21
156.113805
  0
LINE
  8
001
 62
    15
 10
114.108035
 20
166.513802
 11
114.108033
 21
159.513802
  0
LINE
  8
001
 62
    15
 10
113.108036
 20
169.913802
 11
103.408036
 21
169.913805
  0
LINE
  8
001
 62
    15
 10
113.108032
 20
156.113802
 11
103.408032
 21
156.113805
  0
LINE
  8
001
 62
    15
 10
103.408035
 20
165.513805
 11
103.408036
 21
168.913805
  0
LINE
  8
001
 62
    15
 10
103.408033
 20
165.513805
 11
103.408034
 21
166.413805
  0
LINE
  8
001
 62
    15
 10
103.408034
 20
168.013805
 11
103.408034
 21
168.913805
  0
LINE
  8
001
 62
    15
 10
103.408033
 20
161.313805
 11
103.408033
 21
161.513805
  0
LINE
  8
001
 62
    15
 10
103.408034
 20
164.513805
 11
103.408034
 21
164.713805
  0
LINE
  8
001
 62
    15
 10
103.408032
 20
161.313805
 11
103.408032
 21
161.513805
  0
LINE
  8
001
 62
    15
 10
103.408033
 20
164.513805
 11
103.408033
 21
164.713805
  0
LINE
  8
001
 62
    15
 10
103.408032
 20
157.113805
 11
103.408033
 21
160.513805
  0
LINE
  8
001
 62
    15
 10
103.408031
 20
157.113805
 11
103.408031
 21
158.013805
  0
LINE
  8
001
 62
    15
 10
103.408032
 20
159.613805
 11
103.408032
 21
160.513805
  0
LINE
  8
001
 62
    15
 10
103.40803
 20
159.613805
 11
103.408031
 21
160.513805
  0
LINE
  8
001
 62
    15
 10
103.408031
 20
160.513805
 11
103.408031
 21
161.313805
  0
LINE
  8
001
 62
    15
 10
103.408031
 20
161.313805
 11
103.408031
 21
161.513805
  0
LINE
  8
001
 62
    15
 10
103.408032
 20
164.513805
 11
103.408032
 21
164.713805
  0
LINE
  8
001
 62
    15
 10
103.408032
 20
164.713805
 11
103.408032
 21
165.513805
  0
LINE
  8
001
 62
    15
 10
103.408032
 20
165.513805
 11
103.408032
 21
166.413805
  0
LINE
  8
001
 62
    15
 10
103.408033
 20
169.913805
 11
103.408033
 21
168.913805
  0
LINE
  8
001
 62
    15
 10
103.408033
 20
168.913805
 11
103.408033
 21
168.013805
  0
LINE
  8
001
 62
    15
 10
103.408029
 20
156.113805
 11
103.40803
 21
157.113805
  0
LINE
  8
001
 62
    15
 10
103.40803
 20
157.113805
 11
103.40803
 21
158.013805
  0
LINE
  8
001
 62
    15
 10
174.108034
 20
167.513785
 11
149.608034
 21
167.513792
  0
LINE
  8
001
 62
    15
 10
149.608032
 20
158.513792
 11
174.108032
 21
158.513785
  0
LINE
  8
001
 62
    15
 10
174.108032
 20
158.513785
 11
174.108034
 21
167.513785
  0
ARC
  8
001
 62
    15
 10
149.608034
 20
167.013792
 40
0.5
 50
89.999984
 51
179.999984
  0
ARC
  8
001
 62
    15
 10
149.608032
 20
159.013792
 40
0.5
 50
179.999984
 51
269.999984
  0
LINE
  8
001
 62
    15
 10
149.108034
 20
167.013792
 11
149.108032
 21
159.013792
  0
ARC
  8
001
 62
    15
 10
148.608034
 20
167.013792
 40
0.5
 50
269.999984
 51
359.999984
  0
ARC
  8
001
 62
    15
 10
148.608032
 20
159.013792
 40
0.5
 50
359.999984
 51
89.999984
  0
LINE
  8
001
 62
    15
 10
179.108034
 20
167.013783
 11
174.108034
 21
167.013785
  0
LINE
  8
001
 62
    15
 10
174.108032
 20
159.013785
 11
179.108032
 21
159.013783
  0
ARC
  8
001
 62
    15
 10
179.108035
 20
171.013783
 40
4.0
 50
269.999984
 51
359.999984
  0
ARC
  8
001
 62
    15
 10
179.108035
 20
171.013783
 40
12.0
 50
269.999984
 51
359.999984
  0
LINE
  8
001
 62
    15
 10
191.108035
 20
171.01378
 11
191.108041
 21
191.01378
  0
LINE
  8
001
 62
    15
 10
183.108041
 20
191.013782
 11
183.108035
 21
171.013782
  0
LINE
  8
001
 62
    15
 10
94.508032
 20
157.113808
 11
94.508033
 21
160.513808
  0
LINE
  8
001
 62
    15
 10
103.408033
 20
160.513805
 11
94.508033
 21
160.513808
  0
LINE
  8
001
 62
    15
 10
103.408032
 20
157.113805
 11
94.508032
 21
157.113808
  0
LINE
  8
001
 62
    15
 10
94.508033
 20
159.713808
 11
94.508033
 21
159.613808
  0
LINE
  8
001
 62
    15
 10
94.508034
 20
166.738808
 11
94.508034
 21
166.838808
  0
LINE
  8
001
 62
    15
 10
94.508034
 20
166.413808
 11
94.508034
 21
166.738808
  0
LINE
  8
001
 62
    15
 10
94.508034
 20
166.313808
 11
94.508034
 21
166.413808
  0
LINE
  8
001
 62
    15
 10
94.508035
 20
166.413808
 11
94.508035
 21
166.313808
  0
LINE
  8
001
 62
    15
 10
94.508035
 20
166.413808
 11
94.508035
 21
168.013808
  0
LINE
  8
001
 62
    15
 10
94.508034
 20
168.163808
 11
94.508035
 21
168.913808
  0
LINE
  8
001
 62
    15
 10
94.508035
 20
165.513808
 11
94.508036
 21
168.913808
  0
LINE
  8
001
 62
    15
 10
94.508034
 20
165.513808
 11
94.508034
 21
166.263808
  0
LINE
  8
001
 62
    15
 10
94.508034
 20
168.163808
 11
94.508034
 21
168.013808
  0
LINE
  8
001
 62
    15
 10
94.508034
 20
168.013808
 11
94.508034
 21
166.413808
  0
LINE
  8
001
 62
    15
 10
94.508034
 20
166.413808
 11
94.508034
 21
166.263808
  0
LINE
  8
001
 62
    15
 10
94.508036
 20
168.913808
 11
103.408036
 21
168.913805
  0
LINE
  8
001
 62
    15
 10
103.408035
 20
165.513805
 11
94.508035
 21
165.513808
  0
LINE
  8
001
 62
    15
 10
134.108033
 20
162.293146
 11
134.108034
 21
163.763795
  0
LINE
  8
001
 62
    15
 10
134.108033
 20
164.172142
 11
134.108034
 21
165.664998
  0
LINE
  8
001
 62
    15
 10
134.108033
 20
161.861683
 11
134.108033
 21
161.855141
  0
LINE
  8
001
 62
    15
 10
134.108032
 20
162.588226
 11
134.108032
 21
162.58361
  0
LINE
  8
001
 62
    15
 10
134.108033
 20
163.440829
 11
134.108033
 21
163.758362
  0
LINE
  8
001
 62
    15
 10
134.108033
 20
163.758362
 11
134.108033
 21
164.166409
  0
LINE
  8
001
 62
    15
 10
134.108033
 20
164.166409
 11
134.108033
 21
164.935967
  0
LINE
  8
001
 62
    15
 10
134.108032
 20
159.513796
 11
134.108034
 21
166.513796
  0
LINE
  8
001
 62
    15
 10
134.108034
 20
166.513796
 11
134.108033
 21
165.696218
  0
LINE
  8
001
 62
    15
 10
134.108033
 20
165.696218
 11
134.108033
 21
164.956253
  0
LINE
  8
001
 62
    15
 10
134.108033
 20
164.956253
 11
134.108032
 21
164.173326
  0
LINE
  8
001
 62
    15
 10
134.108032
 20
164.173326
 11
134.108032
 21
163.773193
  0
LINE
  8
001
 62
    15
 10
134.108032
 20
163.773193
 11
134.108032
 21
163.440829
  0
LINE
  8
001
 62
    15
 10
134.108032
 20
163.440829
 11
134.108032
 21
162.580365
  0
LINE
  8
001
 62
    15
 10
134.108032
 20
162.580365
 11
134.108032
 21
162.26332
  0
LINE
  8
001
 62
    15
 10
134.108032
 20
162.26332
 11
134.108032
 21
161.841042
  0
LINE
  8
001
 62
    15
 10
134.108032
 20
161.841042
 11
134.108031
 21
161.079292
  0
LINE
  8
001
 62
    15
 10
134.108031
 20
161.079292
 11
134.108031
 21
160.358907
  0
LINE
  8
001
 62
    15
 10
134.108031
 20
160.358907
 11
134.108032
 21
159.513796
  0
LINE
  8
001
 62
    15
 10
148.608034
 20
166.513792
 11
134.108034
 21
166.513796
  0
LINE
  8
001
 62
    15
 10
134.108032
 20
159.513796
 11
148.608032
 21
159.513792
  0
LINE
  8
001
 62
    15
 10
134.108032
 20
160.367231
 11
134.108033
 21
161.861683
  0
POLYLINE
  8
001
 62
    15
 66
     1
  0
VERTEX
  8
001
 62
    15
 10
114.108019
 20
158.175452
  0
VERTEX
  8
001
 62
    15
 10
116.21592
 20
158.406579
  0
VERTEX
  8
001
 62
    15
 10
118.323823
 20
158.637693
  0
VERTEX
  8
001
 62
    15
 10
120.431729
 20
158.86878
  0
VERTEX
  8
001
 62
    15
 10
122.539639
 20
159.099827
  0
VERTEX
  8
001
 62
    15
 10
124.853309
 20
159.35337
  0
VERTEX
  8
001
 62
    15
 10
127.166985
 20
159.606862
  0
VERTEX
  8
001
 62
    15
 10
129.480665
 20
159.860316
  0
VERTEX
  8
001
 62
    15
 10
131.794348
 20
160.113744
  0
VERTEX
  8
001
 62
    15
 10
134.108032
 20
160.367159
  0
SEQEND
  8
001
 62
    15
  0
LINE
  8
001
 62
    15
 10
116.165078
 20
158.400938
 11
134.108032
 21
160.361683
  0
LINE
  8
001
 62
    15
 10
114.108031
 20
159.670273
 11
134.108033
 21
161.861683
  0
POLYLINE
  8
001
 62
    15
 66
     1
  0
VERTEX
  8
001
 62
    15
 10
134.108034
 20
163.763795
  0
VERTEX
  8
001
 62
    15
 10
131.73234
 20
163.761373
  0
VERTEX
  8
001
 62
    15
 10
129.356646
 20
163.759111
  0
VERTEX
  8
001
 62
    15
 10
126.980952
 20
163.757169
  0
VERTEX
  8
001
 62
    15
 10
124.605259
 20
163.755706
  0
VERTEX
  8
001
 62
    15
 10
122.229564
 20
163.754884
  0
VERTEX
  8
001
 62
    15
 10
120.199181
 20
163.754768
  0
VERTEX
  8
001
 62
    15
 10
118.168797
 20
163.755091
  0
VERTEX
  8
001
 62
    15
 10
116.138413
 20
163.755705
  0
VERTEX
  8
001
 62
    15
 10
114.10803
 20
163.756465
  0
SEQEND
  8
001
 62
    15
  0
LINE
  8
001
 62
    15
 10
118.922994
 20
163.755674
 11
114.108032
 21
163.762404
  0
LINE
  8
001
 62
    15
 10
134.108033
 20
162.293146
 11
114.108032
 21
162.2652
  0
POLYLINE
  8
001
 62
    15
 66
     1
  0
VERTEX
  8
001
 62
    15
 10
134.108034
 20
165.665074
  0
VERTEX
  8
001
 62
    15
 10
131.913521
 20
165.895276
  0
VERTEX
  8
001
 62
    15
 10
129.719102
 20
166.126331
  0
VERTEX
  8
001
 62
    15
 10
127.52487
 20
166.35909
  0
VERTEX
  8
001
 62
    15
 10
125.330917
 20
166.594405
  0
VERTEX
  8
001
 62
    15
 10
123.137337
 20
166.833128
  0
VERTEX
  8
001
 62
    15
 10
120.879508
 20
167.083009
  0
VERTEX
  8
001
 62
    15
 10
118.62205
 20
167.336276
  0
VERTEX
  8
001
 62
    15
 10
116.364838
 20
167.591801
  0
VERTEX
  8
001
 62
    15
 10
114.10775
 20
167.848455
  0
SEQEND
  8
001
 62
    15
  0
LINE
  8
001
 62
    15
 10
134.108033
 20
164.166709
 11
134.108033
 21
164.165982
  0
LINE
  8
001
 62
    15
 10
134.108033
 20
164.165982
 11
134.108033
 21
164.172142
  0
POLYLINE
  8
001
 62
    15
 66
     1
  0
VERTEX
  8
001
 62
    15
 10
114.108088
 20
166.36033
  0
VERTEX
  8
001
 62
    15
 10
114.735644
 20
166.295044
  0
VERTEX
  8
001
 62
    15
 10
115.363186
 20
166.229621
  0
VERTEX
  8
001
 62
    15
 10
116.004502
 20
166.162505
  0
VERTEX
  8
001
 62
    15
 10
116.645792
 20
166.095145
  0
VERTEX
  8
001
 62
    15
 10
118.848492
 20
165.862119
  0
VERTEX
  8
001
 62
    15
 10
121.050888
 20
165.626226
  0
VERTEX
  8
001
 62
    15
 10
123.252918
 20
165.386975
  0
VERTEX
  8
001
 62
    15
 10
125.424438
 20
165.147427
  0
VERTEX
  8
001
 62
    15
 10
127.595627
 20
164.90488
  0
VERTEX
  8
001
 62
    15
 10
129.766567
 20
164.660085
  0
VERTEX
  8
001
 62
    15
 10
131.937342
 20
164.41379
  0
VERTEX
  8
001
 62
    15
 10
134.108033
 20
164.166745
  0
SEQEND
  8
001
 62
    15
  0
LINE
  8
001
 62
    15
 10
114.544538
 20
159.718044
 11
114.108036
 21
159.670402
  0
LINE
  8
001
 62
    15
 10
134.108033
 20
162.263803
 11
134.108033
 21
162.293146
  0
POLYLINE
  8
001
 62
    15
 66
     1
  0
VERTEX
  8
001
 62
    15
 10
118.650703
 20
162.271554
  0
VERTEX
  8
001
 62
    15
 10
118.962149
 20
162.271639
  0
VERTEX
  8
001
 62
    15
 10
119.273596
 20
162.271719
  0
VERTEX
  8
001
 62
    15
 10
121.481641
 20
162.272021
  0
VERTEX
  8
001
 62
    15
 10
123.689686
 20
162.271833
  0
VERTEX
  8
001
 62
    15
 10
125.364092
 20
162.271355
  0
VERTEX
  8
001
 62
    15
 10
127.038498
 20
162.27059
  0
VERTEX
  8
001
 62
    15
 10
128.761396
 20
162.269494
  0
VERTEX
  8
001
 62
    15
 10
130.484294
 20
162.268021
  0
VERTEX
  8
001
 62
    15
 10
132.296164
 20
162.266038
  0
VERTEX
  8
001
 62
    15
 10
134.108033
 20
162.263803
  0
SEQEND
  8
001
 62
    15
  0
LINE
  8
001
 62
    15
 10
134.108032
 20
161.093536
 11
134.108032
 21
161.854031
  0
LINE
  8
001
 62
    15
 10
134.108032
 20
161.854031
 11
134.108032
 21
162.270103
  0
LINE
  8
001
 62
    15
 10
134.108032
 20
162.270103
 11
134.108032
 21
162.588226
  0
LINE
  8
001
 62
    15
 10
131.877827
 20
162.266399
 11
114.108031
 21
159.702154
  0
POLYLINE
  8
001
 62
    15
 66
     1
  0
VERTEX
  8
001
 62
    15
 10
114.108056
 20
166.321699
  0
VERTEX
  8
001
 62
    15
 10
116.435267
 20
165.988151
  0
VERTEX
  8
001
 62
    15
 10
118.762431
 20
165.654276
  0
VERTEX
  8
001
 62
    15
 10
121.089501
 20
165.31975
  0
VERTEX
  8
001
 62
    15
 10
122.378316
 20
165.134104
  0
VERTEX
  8
001
 62
    15
 10
123.667109
 20
164.948308
  0
SEQEND
  8
001
 62
    15
  0
LINE
  8
001
 62
    15
 10
126.249243
 20
164.573643
 11
126.428057
 21
164.547867
  0
LINE
  8
001
 62
    15
 10
123.667905
 20
164.945732
 11
126.249243
 21
164.573643
  0
LINE
  8
001
 62
    15
 10
117.476447
 20
165.838207
 11
123.667905
 21
164.945732
  0
LINE
  8
001
 62
    15
 10
134.108032
 20
163.442127
 11
134.108033
 21
163.440829
  0
LINE
  8
001
 62
    15
 10
126.428057
 20
164.547867
 11
131.879086
 21
163.762123
  0
ARC
  8
001
 62
    15
 10
257.685286
 20
225.013761
 40
97.77013859047152
 50
172.595471
 51
189.995792
  0
LINE
  8
001
 62
    15
 10
176.20806
 20
237.613784
 11
160.730455
 21
237.613789
  0
LINE
  8
001
 62
    15
 10
176.208061
 20
241.984347
 11
176.20806
 21
237.613784
  0
LINE
  8
001
 62
    15
 10
228.408061
 20
241.984332
 11
176.208061
 21
241.984347
  0
LINE
  8
001
 62
    15
 10
228.408052
 20
208.043207
 11
228.408061
 21
241.984332
  0
LINE
  8
001
 62
    15
 10
161.399249
 20
208.043226
 11
228.408052
 21
208.043207
  0
LINE
  8
001
 62
    15
 10
94.508032
 20
159.613808
 11
94.508032
 21
159.713808
  0
LINE
  8
001
 62
    15
 10
94.508032
 20
159.288808
 11
94.508032
 21
159.613808
  0
LINE
  8
001
 62
    15
 10
94.508032
 20
159.188808
 11
94.508032
 21
159.288808
  0
ENDBLK
  8
0
  0
BLOCK
  8
0
  2
ICAD_ARW2
 70
     0
 10
0.0
 20
0.0
  0
LINE
  8
0
  6
CONTINUOUS
 62
     0
 10
-1.0
 20
0.258819
 11
0.0
 21
0.0
  0
LINE
  8
0
  6
CONTINUOUS
 62
     0
 10
0.0
 20
0.0
 11
-1.0
 21
-0.258819
  0
LINE
  8
0
  6
CONTINUOUS
 62
     0
 10
0.0
 20
0.0
 11
-1.0
 21
0.0
  0
ENDBLK
  8
0
  0
BLOCK
  8
0
  2
*D109
 70
     1
 10
0.0
 20
0.0
  0
LINE
  8
001
 10
467.569304
 20
205.013763
 11
445.083801
 21
205.013763
  0
LINE
  8
001
 10
453.083801
 20
225.013763
 11
445.083801
 21
225.013763
  0
LINE
  8
001
 10
446.083801
 20
205.013763
 11
446.083801
 21
225.013763
  0
POLYLINE
  8
001
 66
     1
  0
VERTEX
  8
001
 10
446.6197
 20
207.013763
  0
VERTEX
  8
001
 10
446.083801
 20
205.013763
  0
VERTEX
  8
001
 10
445.547903
 20
207.013763
  0
SEQEND
  8
001
  0
POLYLINE
  8
001
 66
     1
  0
VERTEX
  8
001
 10
445.547903
 20
223.013763
  0
VERTEX
  8
001
 10
446.083801
 20
225.013763
  0
VERTEX
  8
001
 10
446.6197
 20
223.013763
  0
SEQEND
  8
001
  0
TEXT
  8
001
 10
445.083801
 20
211.413763
 40
4.0
  1
２０
 50
90.000003
 41
0.666667
  0
POINT
  8
001
 10
467.569304
 20
205.013763
 30
0.0
  0
POINT
  8
001
 10
453.083801
 20
225.013763
 30
0.0
  0
POINT
  8
001
 10
446.083801
 20
225.013763
 30
0.0
  0
ENDBLK
  8
0
  0
BLOCK
  8
0
  2
*D110
 70
     1
 10
0.0
 20
0.0
  0
LINE
  8
001
 10
513.333801
 20
204.013763
 11
513.333801
 21
179.32164
  0
LINE
  8
001
 10
508.833801
 20
204.013763
 11
508.833801
 21
179.32164
  0
LINE
  8
001
 10
513.333801
 20
180.32164
 11
508.833801
 21
180.32164
  0
POLYLINE
  8
001
 66
     1
  0
VERTEX
  8
001
 10
515.333801
 20
179.785742
  0
VERTEX
  8
001
 10
513.333801
 20
180.32164
  0
VERTEX
  8
001
 10
515.333801
 20
180.857538
  0
SEQEND
  8
001
  0
POLYLINE
  8
001
 66
     1
  0
VERTEX
  8
001
 10
506.833801
 20
180.857538
  0
VERTEX
  8
001
 10
508.833801
 20
180.32164
  0
VERTEX
  8
001
 10
506.833801
 20
179.785742
  0
SEQEND
  8
001
  0
TEXT
  8
001
 10
499.433801
 20
181.32164
 40
4.0
  1
４.５
 41
0.695122
  0
POINT
  8
001
 10
513.333801
 20
204.013763
 30
0.0
  0
POINT
  8
001
 10
508.833801
 20
204.013763
 30
0.0
  0
POINT
  8
001
 10
508.833801
 20
180.32164
 30
0.0
  0
LINE
  8
001
 10
513.333801
 20
180.32164
 11
516.333801
 21
180.32164
  0
LINE
  8
001
 10
508.833801
 20
180.32164
 11
499.433801
 21
180.32164
  0
ENDBLK
  8
0
  0
BLOCK
  8
0
  2
*D111
 70
     1
 10
0.0
 20
0.0
  0
LINE
  8
001
 10
288.908051
 20
360.975922
 11
281.908051
 21
360.975922
  0
LINE
  8
001
 10
241.408051
 20
371.975922
 11
283.908051
 21
371.975922
  0
LINE
  8
001
 10
282.908051
 20
360.975922
 11
282.908051
 21
371.975922
  0
POLYLINE
  8
001
 66
     1
  0
VERTEX
  8
001
 10
283.443949
 20
362.975922
  0
VERTEX
  8
001
 10
282.908051
 20
360.975922
  0
VERTEX
  8
001
 10
282.372152
 20
362.975922
  0
SEQEND
  8
001
  0
POLYLINE
  8
001
 66
     1
  0
VERTEX
  8
001
 10
282.372152
 20
369.975922
  0
VERTEX
  8
001
 10
282.908051
 20
371.975922
  0
VERTEX
  8
001
 10
283.443949
 20
369.975922
  0
SEQEND
  8
001
  0
TEXT
  8
001
 10
281.908051
 20
359.675922
 40
4.0
  1
（１１）
 50
90.000003
 41
0.666667
  0
POINT
  8
001
 10
288.908051
 20
360.975922
 30
0.0
  0
POINT
  8
001
 10
283.908051
 20
371.975922
 30
0.0
  0
POINT
  8
001
 10
282.908051
 20
371.975922
 30
0.0
  0
ENDBLK
  8
0
  0
BLOCK
  8
0
  2
*D112
 70
     1
 10
0.0
 20
0.0
  0
LINE
  8
001
 10
288.908051
 20
339.975922
 11
281.908051
 21
339.975922
  0
LINE
  8
001
 10
241.408051
 20
329.975922
 11
283.908051
 21
329.975922
  0
LINE
  8
001
 10
282.908051
 20
339.975922
 11
282.908051
 21
329.975922
  0
POLYLINE
  8
001
 66
     1
  0
VERTEX
  8
001
 10
282.372152
 20
337.975922
  0
VERTEX
  8
001
 10
282.908051
 20
339.975922
  0
VERTEX
  8
001
 10
283.443949
 20
337.975922
  0
SEQEND
  8
001
  0
POLYLINE
  8
001
 66
     1
  0
VERTEX
  8
001
 10
283.443949
 20
331.975922
  0
VERTEX
  8
001
 10
282.908051
 20
329.975922
  0
VERTEX
  8
001
 10
282.372152
 20
331.975922
  0
SEQEND
  8
001
  0
TEXT
  8
001
 10
281.908051
 20
328.175922
 40
4.0
  1
（１０）
 50
90.000003
 41
0.666667
  0
POINT
  8
001
 10
288.908051
 20
339.975922
 30
0.0
  0
POINT
  8
001
 10
283.908051
 20
329.975922
 30
0.0
  0
POINT
  8
001
 10
282.908051
 20
329.975922
 30
0.0
  0
ENDBLK
  8
0
  0
BLOCK
  8
0
  2
*D113
 70
     1
 10
0.0
 20
0.0
  0
LINE
  8
001
 10
360.908051
 20
339.975922
 11
380.908051
 21
339.975922
  0
LINE
  8
001
 10
360.908051
 20
360.975922
 11
380.908051
 21
360.975922
  0
LINE
  8
001
 10
379.908051
 20
339.975922
 11
379.908051
 21
360.975922
  0
POLYLINE
  8
001
 66
     1
  0
VERTEX
  8
001
 10
380.443949
 20
341.975922
  0
VERTEX
  8
001
 10
379.908051
 20
339.975922
  0
VERTEX
  8
001
 10
379.372152
 20
341.975922
  0
SEQEND
  8
001
  0
POLYLINE
  8
001
 66
     1
  0
VERTEX
  8
001
 10
379.372152
 20
358.975922
  0
VERTEX
  8
001
 10
379.908051
 20
360.975922
  0
VERTEX
  8
001
 10
380.443949
 20
358.975922
  0
SEQEND
  8
001
  0
TEXT
  8
001
 10
378.908051
 20
346.875922
 40
4.0
  1
２１
 50
90.000003
 41
0.666667
  0
POINT
  8
001
 10
360.908051
 20
339.975922
 30
0.0
  0
POINT
  8
001
 10
360.908051
 20
360.975922
 30
0.0
  0
POINT
  8
001
 10
379.908051
 20
360.975922
 30
0.0
  0
ENDBLK
  8
0
  0
BLOCK
  8
0
  2
*D114
 70
     1
 10
0.0
 20
0.0
  0
LINE
  8
001
 10
354.908051
 20
363.975922
 11
354.908051
 21
371.975922
  0
LINE
  8
001
 10
294.908051
 20
363.975922
 11
294.908051
 21
371.975922
  0
LINE
  8
001
 10
354.908051
 20
370.975922
 11
294.908051
 21
370.975922
  0
POLYLINE
  8
001
 66
     1
  0
VERTEX
  8
001
 10
352.908051
 20
371.51182
  0
VERTEX
  8
001
 10
354.908051
 20
370.975922
  0
VERTEX
  8
001
 10
352.908051
 20
370.440023
  0
SEQEND
  8
001
  0
POLYLINE
  8
001
 66
     1
  0
VERTEX
  8
001
 10
296.908051
 20
370.440023
  0
VERTEX
  8
001
 10
294.908051
 20
370.975922
  0
VERTEX
  8
001
 10
296.908051
 20
371.51182
  0
SEQEND
  8
001
  0
TEXT
  8
001
 10
319.70805
 20
371.975922
 40
4.0
  1
□６０
 41
0.666667
  0
POINT
  8
001
 10
354.908051
 20
363.975922
 30
0.0
  0
POINT
  8
001
 10
294.908051
 20
363.975922
 30
0.0
  0
POINT
  8
001
 10
294.908051
 20
370.975922
 30
0.0
  0
ENDBLK
  8
0
  0
BLOCK
  8
0
  2
DIM-108
 70
     0
 10
0.0
 20
0.0
  0
TEXT
  8
001
 10
363.369061
 20
372.033326
 40
4.0
  1
４－Ｚ
 41
0.666667
  0
POLYLINE
  8
001
 66
     1
  0
VERTEX
  8
001
 10
356.569542
 20
362.211491
  0
VERTEX
  8
001
 10
354.908051
 20
360.975922
  0
VERTEX
  8
001
 10
355.72916
 20
362.876702
  0
SEQEND
  8
001
  0
POLYLINE
  8
001
 66
     1
  0
VERTEX
  8
001
 10
354.908051
 20
360.975922
  0
VERTEX
  8
001
 10
362.869061
 20
371.033326
  0
VERTEX
  8
001
 10
374.269061
 20
371.033326
  0
SEQEND
  8
001
  0
ENDBLK
  8
0
  0
BLOCK
  8
0
  2
*D116
 70
     1
 10
0.0
 20
0.0
  0
LINE
  8
001
 10
359.658051
 20
358.475922
 11
370.908051
 21
358.475922
  0
LINE
  8
001
 10
360.908051
 20
360.975922
 11
370.908051
 21
360.975922
  0
LINE
  8
001
 10
369.908051
 20
358.475922
 11
369.908051
 21
360.975922
  0
POLYLINE
  8
001
 66
     1
  0
VERTEX
  8
001
 10
369.372152
 20
356.475922
  0
VERTEX
  8
001
 10
369.908051
 20
358.475922
  0
VERTEX
  8
001
 10
370.443949
 20
356.475922
  0
SEQEND
  8
001
  0
POLYLINE
  8
001
 66
     1
  0
VERTEX
  8
001
 10
370.443949
 20
362.975922
  0
VERTEX
  8
001
 10
369.908051
 20
360.975922
  0
VERTEX
  8
001
 10
369.372152
 20
362.975922
  0
SEQEND
  8
001
  0
TEXT
  8
001
 10
368.908051
 20
349.075922
 40
4.0
  1
２.５
 50
90.000003
 41
0.695122
  0
POINT
  8
001
 10
359.658051
 20
358.475922
 30
0.0
  0
POINT
  8
001
 10
360.908051
 20
360.975922
 30
0.0
  0
POINT
  8
001
 10
369.908051
 20
360.975922
 30
0.0
  0
LINE
  8
001
 10
369.908051
 20
358.475922
 11
369.908051
 21
349.075922
  0
LINE
  8
001
 10
369.908051
 20
360.975922
 11
369.908051
 21
363.975922
  0
ENDBLK
  8
0
  0
BLOCK
  8
0
  2
*D117
 70
     1
 10
0.0
 20
0.0
  0
LINE
  8
001
 10
158.915147
 20
329.975896
 11
144.338867
 21
329.975896
  0
LINE
  8
001
 10
158.915135
 20
371.975896
 11
144.338867
 21
371.975896
  0
LINE
  8
001
 10
145.338867
 20
329.975896
 11
145.338867
 21
371.975896
  0
POLYLINE
  8
001
 66
     1
  0
VERTEX
  8
001
 10
145.874766
 20
331.975896
  0
VERTEX
  8
001
 10
145.338867
 20
329.975896
  0
VERTEX
  8
001
 10
144.802969
 20
331.975896
  0
SEQEND
  8
001
  0
POLYLINE
  8
001
 66
     1
  0
VERTEX
  8
001
 10
144.802969
 20
369.975896
  0
VERTEX
  8
001
 10
145.338867
 20
371.975896
  0
VERTEX
  8
001
 10
145.874766
 20
369.975896
  0
SEQEND
  8
001
  0
TEXT
  8
001
 10
144.338867
 20
344.175896
 40
4.0
  1
（４２）
 50
90.000003
 41
0.666667
  0
POINT
  8
001
 10
158.915147
 20
329.975896
 30
0.0
  0
POINT
  8
001
 10
158.915135
 20
371.975896
 30
0.0
  0
POINT
  8
001
 10
145.338867
 20
371.975896
 30
0.0
  0
ENDBLK
  8
0
  0
BLOCK
  8
0
  2
*D118
 70
     1
 10
0.0
 20
0.0
  0
LINE
  8
001
 10
360.908051
 20
190.013763
 11
370.908051
 21
190.013763
  0
LINE
  8
001
 10
360.908051
 20
260.013763
 11
370.908051
 21
260.013763
  0
LINE
  8
001
 10
369.908051
 20
190.013763
 11
369.908051
 21
260.013763
  0
POLYLINE
  8
001
 66
     1
  0
VERTEX
  8
001
 10
370.443949
 20
192.013763
  0
VERTEX
  8
001
 10
369.908051
 20
190.013763
  0
VERTEX
  8
001
 10
369.372152
 20
192.013763
  0
SEQEND
  8
001
  0
POLYLINE
  8
001
 66
     1
  0
VERTEX
  8
001
 10
369.372152
 20
258.013763
  0
VERTEX
  8
001
 10
369.908051
 20
260.013763
  0
VERTEX
  8
001
 10
370.443949
 20
258.013763
  0
SEQEND
  8
001
  0
TEXT
  8
001
 10
368.908051
 20
221.413763
 40
4.0
  1
７０
 50
90.000003
 41
0.666667
  0
POINT
  8
001
 10
360.908051
 20
190.013763
 30
0.0
  0
POINT
  8
001
 10
360.908051
 20
260.013763
 30
0.0
  0
POINT
  8
001
 10
369.908051
 20
260.013763
 30
0.0
  0
ENDBLK
  8
0
  0
BLOCK
  8
0
  2
*D119
 70
     1
 10
0.0
 20
0.0
  0
LINE
  8
001
 10
289.908051
 20
261.013763
 11
289.908051
 21
276.013763
  0
LINE
  8
001
 10
359.908051
 20
261.013763
 11
359.908051
 21
276.013763
  0
LINE
  8
001
 10
289.908051
 20
275.013763
 11
359.908051
 21
275.013763
  0
POLYLINE
  8
001
 66
     1
  0
VERTEX
  8
001
 10
291.908051
 20
274.477865
  0
VERTEX
  8
001
 10
289.908051
 20
275.013763
  0
VERTEX
  8
001
 10
291.908051
 20
275.549662
  0
SEQEND
  8
001
  0
POLYLINE
  8
001
 66
     1
  0
VERTEX
  8
001
 10
357.908051
 20
275.549662
  0
VERTEX
  8
001
 10
359.908051
 20
275.013763
  0
VERTEX
  8
001
 10
357.908051
 20
274.477865
  0
SEQEND
  8
001
  0
TEXT
  8
001
 10
321.308051
 20
276.013763
 40
4.0
  1
７０
 41
0.666667
  0
POINT
  8
001
 10
289.908051
 20
261.013763
 30
0.0
  0
POINT
  8
001
 10
359.908051
 20
261.013763
 30
0.0
  0
POINT
  8
001
 10
359.908051
 20
275.013763
 30
0.0
  0
ENDBLK
  8
0
  0
BLOCK
  8
0
  2
*D120
 70
     1
 10
0.0
 20
0.0
  0
LINE
  8
001
 10
359.908051
 20
261.013763
 11
359.908051
 21
286.013763
  0
LINE
  8
001
 10
158.408055
 20
242.763789
 11
158.408055
 21
286.013763
  0
LINE
  8
001
 10
359.908051
 20
285.013763
 11
158.408055
 21
285.013763
  0
POLYLINE
  8
001
 66
     1
  0
VERTEX
  8
001
 10
357.908051
 20
285.549662
  0
VERTEX
  8
001
 10
359.908051
 20
285.013763
  0
VERTEX
  8
001
 10
357.908051
 20
284.477865
  0
SEQEND
  8
001
  0
POLYLINE
  8
001
 66
     1
  0
VERTEX
  8
001
 10
160.408055
 20
284.477865
  0
VERTEX
  8
001
 10
158.408055
 20
285.013763
  0
VERTEX
  8
001
 10
160.408055
 20
285.549662
  0
SEQEND
  8
001
  0
TEXT
  8
001
 10
248.558053
 20
286.013763
 40
4.0
  1
（２０１.５）
 41
0.676991
  0
POINT
  8
001
 10
359.908051
 20
261.013763
 30
0.0
  0
POINT
  8
001
 10
158.408055
 20
242.763789
 30
0.0
  0
POINT
  8
001
 10
158.408055
 20
285.013763
 30
0.0
  0
ENDBLK
  8
0
  0
BLOCK
  8
0
  2
*D121
 70
     1
 10
0.0
 20
0.0
  0
LINE
  8
001
 10
289.908051
 20
261.013763
 11
289.908051
 21
276.013763
  0
LINE
  8
001
 10
158.408055
 20
242.763789
 11
158.408055
 21
276.013763
  0
LINE
  8
001
 10
289.908051
 20
275.013763
 11
158.408055
 21
275.013763
  0
POLYLINE
  8
001
 66
     1
  0
VERTEX
  8
001
 10
287.908051
 20
275.549662
  0
VERTEX
  8
001
 10
289.908051
 20
275.013763
  0
VERTEX
  8
001
 10
287.908051
 20
274.477865
  0
SEQEND
  8
001
  0
POLYLINE
  8
001
 66
     1
  0
VERTEX
  8
001
 10
160.408055
 20
274.477865
  0
VERTEX
  8
001
 10
158.408055
 20
275.013763
  0
VERTEX
  8
001
 10
160.408055
 20
275.549662
  0
SEQEND
  8
001
  0
TEXT
  8
001
 10
213.558053
 20
276.013763
 40
4.0
  1
（１３１.５）
 41
0.676991
  0
POINT
  8
001
 10
289.908051
 20
261.013763
 30
0.0
  0
POINT
  8
001
 10
158.408055
 20
242.763789
 30
0.0
  0
POINT
  8
001
 10
158.408055
 20
275.013763
 30
0.0
  0
ENDBLK
  8
0
  0
ENDSEC
  0
SECTION
  2
ENTITIES
  0
INSERT
  8
001
  6
BYBLOCK
 62
     0
  2
JZB-1
 10
0.0
 20
0.0
 30
0.0
  0
INSERT
  8
001
  6
BYBLOCK
 62
     0
  2
JZB-2
 10
0.0
 20
0.0
 30
0.0
  0
INSERT
  8
001
  6
BYBLOCK
 62
     0
  2
JZB-3
 10
0.0
 20
0.0
 30
0.0
  0
INSERT
  8
001
  6
BYBLOCK
 62
     0
  2
JZB-4
 10
0.0
 20
0.0
 30
0.0
  0
INSERT
  8
001
  6
BYBLOCK
 62
     0
  2
JZB-5
 10
0.0
 20
0.0
 30
0.0
  0
INSERT
  8
001
  6
BYBLOCK
 62
     0
  2
JZB-7
 10
0.0
 20
0.0
 30
0.0
  0
INSERT
  8
001
  6
BYBLOCK
 62
     0
  2
SYS_FRAMETITLEDATA-8
 10
0.0
 20
0.0
 30
0.0
  0
INSERT
  8
001
  6
BYBLOCK
 62
     0
  2
JZB-9
 10
0.0
 20
0.0
 30
0.0
  0
INSERT
  8
001
  6
BYBLOCK
 62
     0
  2
JZB-10
 10
0.0
 20
0.0
 30
0.0
  0
INSERT
  8
001
  6
BYBLOCK
 62
     0
  2
DA007167-0101-000-00-11
 10
0.0
 20
0.0
 30
0.0
  0
INSERT
  8
001
  6
BYBLOCK
 62
     0
  2
JZB-12
 10
0.0
 20
0.0
 30
0.0
  0
INSERT
  8
001
  6
BYBLOCK
 62
     0
  2
JZB-13
 10
0.0
 20
0.0
 30
0.0
  0
INSERT
  8
001
  6
BYBLOCK
 62
     0
  2
DP007165-1030-00-14
 10
0.0
 20
0.0
 30
0.0
  0
INSERT
  8
001
  6
BYBLOCK
 62
     0
  2
DP007165-1020-00-15
 10
0.0
 20
0.0
 30
0.0
  0
INSERT
  8
001
  6
BYBLOCK
 62
     0
  2
DP007205-1020-00-16
 10
0.0
 20
0.0
 30
0.0
  0
INSERT
  8
001
  6
BYBLOCK
 62
     0
  2
JZB-17
 10
0.0
 20
0.0
 30
0.0
  0
INSERT
  8
001
  6
BYBLOCK
 62
     0
  2
JZB-18
 10
0.0
 20
0.0
 30
0.0
  0
INSERT
  8
001
  6
BYBLOCK
 62
     0
  2
JZB-19
 10
0.0
 20
0.0
 30
0.0
  0
INSERT
  8
001
  6
BYBLOCK
 62
     0
  2
JZB-20
 10
0.0
 20
0.0
 30
0.0
  0
INSERT
  8
001
  6
BYBLOCK
 62
     0
  2
JZB-21
 10
0.0
 20
0.0
 30
0.0
  0
INSERT
  8
001
  6
BYBLOCK
 62
     0
  2
JZB-22
 10
0.0
 20
0.0
 30
0.0
  0
INSERT
  8
001
  6
BYBLOCK
 62
     0
  2
JZB-23
 10
0.0
 20
0.0
 30
0.0
  0
INSERT
  8
001
  6
BYBLOCK
 62
     0
  2
JZB-24
 10
0.0
 20
0.0
 30
0.0
  0
INSERT
  8
001
  6
BYBLOCK
 62
     0
  2
JZB-25
 10
0.0
 20
0.0
 30
0.0
  0
INSERT
  8
001
  6
BYBLOCK
 62
     0
  2
JZB-26
 10
0.0
 20
0.0
 30
0.0
  0
INSERT
  8
001
  6
BYBLOCK
 62
     0
  2
JZB-27
 10
0.0
 20
0.0
 30
0.0
  0
INSERT
  8
001
  6
BYBLOCK
 62
     0
  2
JZB-28
 10
0.0
 20
0.0
 30
0.0
  0
INSERT
  8
001
  6
BYBLOCK
 62
     0
  2
JZB-29
 10
0.0
 20
0.0
 30
0.0
  0
INSERT
  8
001
  6
BYBLOCK
 62
     0
  2
JZB-30
 10
0.0
 20
0.0
 30
0.0
  0
INSERT
  8
001
  6
BYBLOCK
 62
     0
  2
SHRJ-F-380-31
 10
0.0
 20
0.0
 30
0.0
  0
INSERT
  8
001
  6
BYBLOCK
 62
     0
  2
DP007165-1010-00-32
 10
0.0
 20
0.0
 30
0.0
  0
INSERT
  8
001
  6
BYBLOCK
 62
     0
  2
DP007023-1060-00-33
 10
0.0
 20
0.0
 30
0.0
  0
INSERT
  8
001
  6
BYBLOCK
 62
     0
  2
DP007037-1040-00-34
 10
0.0
 20
0.0
 30
0.0
  0
INSERT
  8
001
  6
BYBLOCK
 62
     0
  2
XA07A-R103-35
 10
0.0
 20
0.0
 30
0.0
  0
INSERT
  8
001
  6
BYBLOCK
 62
     0
  2
ORIENTAL_AZM46AK-36
 10
0.0
 20
0.0
 30
0.0
  0
INSERT
  8
001
  6
BYBLOCK
 62
     0
  2
DA007167-0101-000-00-37
 10
0.0
 20
0.0
 30
0.0
  0
INSERT
  8
001
  6
BYBLOCK
 62
     0
  2
001490-1031-00-38
 10
0.0
 20
0.0
 30
0.0
  0
INSERT
  8
001
  6
BYBLOCK
 62
     0
  2
JZB-39
 10
0.0
 20
0.0
 30
0.0
  0
INSERT
  8
001
  6
BYBLOCK
 62
     0
  2
JZB-40
 10
0.0
 20
0.0
 30
0.0
  0
INSERT
  8
001
  6
BYBLOCK
 62
     0
  2
JZB-41
 10
0.0
 20
0.0
 30
0.0
  0
INSERT
  8
001
  6
BYBLOCK
 62
     0
  2
JZB-42
 10
0.0
 20
0.0
 30
0.0
  0
INSERT
  8
001
  6
BYBLOCK
 62
     0
  2
JZB-43
 10
0.0
 20
0.0
 30
0.0
  0
INSERT
  8
001
  6
BYBLOCK
 62
     0
  2
DP007205-1020-00-44
 10
0.0
 20
0.0
 30
0.0
  0
INSERT
  8
001
  6
BYBLOCK
 62
     0
  2
DP001560-1321-00-45
 10
0.0
 20
0.0
 30
0.0
  0
INSERT
  8
001
  6
BYBLOCK
 62
     0
  2
DP000010-1090-00-46
 10
0.0
 20
0.0
 30
0.0
  0
INSERT
  8
001
  6
BYBLOCK
 62
     0
  2
DP000020-1100-00-47
 10
0.0
 20
0.0
 30
0.0
  0
INSERT
  8
001
  6
BYBLOCK
 62
     0
  2
JZB-48
 10
0.0
 20
0.0
 30
0.0
  0
INSERT
  8
001
  6
BYBLOCK
 62
     0
  2
JZB-49
 10
0.0
 20
0.0
 30
0.0
  0
INSERT
  8
001
  6
BYBLOCK
 62
     0
  2
JZB-50
 10
0.0
 20
0.0
 30
0.0
  0
INSERT
  8
001
  6
BYBLOCK
 62
     0
  2
JZB-51
 10
0.0
 20
0.0
 30
0.0
  0
INSERT
  8
001
  6
BYBLOCK
 62
     0
  2
DP001560-1380-00-52
 10
0.0
 20
0.0
 30
0.0
  0
INSERT
  8
001
  6
BYBLOCK
 62
     0
  2
JZB-53
 10
0.0
 20
0.0
 30
0.0
  0
INSERT
  8
001
  6
BYBLOCK
 62
     0
  2
JZB-54
 10
0.0
 20
0.0
 30
0.0
  0
INSERT
  8
001
  6
BYBLOCK
 62
     0
  2
MOLEX_51103-0500-55
 10
0.0
 20
0.0
 30
0.0
  0
INSERT
  8
001
  6
BYBLOCK
 62
     0
  2
DP007167-1020-00-56
 10
0.0
 20
0.0
 30
0.0
  0
INSERT
  8
001
  6
BYBLOCK
 62
     0
  2
DP007165-1010-00-57
 10
0.0
 20
0.0
 30
0.0
  0
INSERT
  8
001
  6
BYBLOCK
 62
     0
  2
DP007167-1010-00-58
 10
0.0
 20
0.0
 30
0.0
  0
INSERT
  8
001
  6
BYBLOCK
 62
     0
  2
DP007023-1060-00-59
 10
0.0
 20
0.0
 30
0.0
  0
INSERT
  8
001
  6
BYBLOCK
 62
     0
  2
DP007037-1040-00-60
 10
0.0
 20
0.0
 30
0.0
  0
INSERT
  8
001
  6
BYBLOCK
 62
     0
  2
DA007167-0101-000-00-61
 10
0.0
 20
0.0
 30
0.0
  0
INSERT
  8
001
  6
BYBLOCK
 62
     0
  2
JZB-62
 10
0.0
 20
0.0
 30
0.0
  0
INSERT
  8
001
  6
BYBLOCK
 62
     0
  2
JZB-63
 10
0.0
 20
0.0
 30
0.0
  0
INSERT
  8
001
  6
BYBLOCK
 62
     0
  2
JZB-64
 10
0.0
 20
0.0
 30
0.0
  0
INSERT
  8
001
  6
BYBLOCK
 62
     0
  2
JZB-65
 10
0.0
 20
0.0
 30
0.0
  0
INSERT
  8
001
  6
BYBLOCK
 62
     0
  2
DP007205-1020-00-66
 10
0.0
 20
0.0
 30
0.0
  0
INSERT
  8
001
  6
BYBLOCK
 62
     0
  2
JZB-67
 10
0.0
 20
0.0
 30
0.0
  0
INSERT
  8
001
  6
BYBLOCK
 62
     0
  2
JZB-68
 10
0.0
 20
0.0
 30
0.0
  0
INSERT
  8
001
  6
BYBLOCK
 62
     0
  2
DP007167-1020-00-69
 10
0.0
 20
0.0
 30
0.0
  0
INSERT
  8
001
  6
BYBLOCK
 62
     0
  2
DP007165-1010-00-70
 10
0.0
 20
0.0
 30
0.0
  0
INSERT
  8
001
  6
BYBLOCK
 62
     0
  2
DP007167-1010-00-71
 10
0.0
 20
0.0
 30
0.0
  0
INSERT
  8
001
  6
BYBLOCK
 62
     0
  2
DP007023-1060-00-72
 10
0.0
 20
0.0
 30
0.0
  0
INSERT
  8
001
  6
BYBLOCK
 62
     0
  2
DP007037-1040-00-73
 10
0.0
 20
0.0
 30
0.0
  0
INSERT
  8
001
  6
BYBLOCK
 62
     0
  2
ORIENTAL_AZM46AK-74
 10
0.0
 20
0.0
 30
0.0
  0
INSERT
  8
001
  6
BYBLOCK
 62
     0
  2
JZB-75
 10
0.0
 20
0.0
 30
0.0
  0
INSERT
  8
001
  6
BYBLOCK
 62
     0
  2
JZB-76
 10
0.0
 20
0.0
 30
0.0
  0
INSERT
  8
001
  6
BYBLOCK
 62
     0
  2
JZB-77
 10
0.0
 20
0.0
 30
0.0
  0
INSERT
  8
001
  6
BYBLOCK
 62
     0
  2
JZB-78
 10
0.0
 20
0.0
 30
0.0
  0
INSERT
  8
001
  6
BYBLOCK
 62
     0
  2
JZB-79
 10
0.0
 20
0.0
 30
0.0
  0
INSERT
  8
001
  6
BYBLOCK
 62
     0
  2
JZB-80
 10
0.0
 20
0.0
 30
0.0
  0
INSERT
  8
001
  6
BYBLOCK
 62
     0
  2
JZB-81
 10
0.0
 20
0.0
 30
0.0
  0
INSERT
  8
001
  6
BYBLOCK
 62
     0
  2
JZB-82
 10
0.0
 20
0.0
 30
0.0
  0
INSERT
  8
001
  6
BYBLOCK
 62
     0
  2
JZB-83
 10
0.0
 20
0.0
 30
0.0
  0
INSERT
  8
001
  6
BYBLOCK
 62
     0
  2
JZB-84
 10
0.0
 20
0.0
 30
0.0
  0
INSERT
  8
001
  6
BYBLOCK
 62
     0
  2
JZB-85
 10
0.0
 20
0.0
 30
0.0
  0
INSERT
  8
001
  6
BYBLOCK
 62
     0
  2
JZB-86
 10
0.0
 20
0.0
 30
0.0
  0
INSERT
  8
001
  6
BYBLOCK
 62
     0
  2
DP007165-1030-00-87
 10
0.0
 20
0.0
 30
0.0
  0
INSERT
  8
001
  6
BYBLOCK
 62
     0
  2
DP007165-1020-00-88
 10
0.0
 20
0.0
 30
0.0
  0
INSERT
  8
001
  6
BYBLOCK
 62
     0
  2
DP007205-1020-00-89
 10
0.0
 20
0.0
 30
0.0
  0
INSERT
  8
001
  6
BYBLOCK
 62
     0
  2
JZB-90
 10
0.0
 20
0.0
 30
0.0
  0
INSERT
  8
001
  6
BYBLOCK
 62
     0
  2
JZB-91
 10
0.0
 20
0.0
 30
0.0
  0
INSERT
  8
001
  6
BYBLOCK
 62
     0
  2
JZB-92
 10
0.0
 20
0.0
 30
0.0
  0
INSERT
  8
001
  6
BYBLOCK
 62
     0
  2
JZB-93
 10
0.0
 20
0.0
 30
0.0
  0
INSERT
  8
001
  6
BYBLOCK
 62
     0
  2
JZB-94
 10
0.0
 20
0.0
 30
0.0
  0
INSERT
  8
001
  6
BYBLOCK
 62
     0
  2
JZB-95
 10
0.0
 20
0.0
 30
0.0
  0
INSERT
  8
001
  6
BYBLOCK
 62
     0
  2
JZB-96
 10
0.0
 20
0.0
 30
0.0
  0
INSERT
  8
001
  6
BYBLOCK
 62
     0
  2
JZB-97
 10
0.0
 20
0.0
 30
0.0
  0
INSERT
  8
001
  6
BYBLOCK
 62
     0
  2
JZB-98
 10
0.0
 20
0.0
 30
0.0
  0
INSERT
  8
001
  6
BYBLOCK
 62
     0
  2
JZB-99
 10
0.0
 20
0.0
 30
0.0
  0
INSERT
  8
001
  6
BYBLOCK
 62
     0
  2
JZB-100
 10
0.0
 20
0.0
 30
0.0
  0
INSERT
  8
001
  6
BYBLOCK
 62
     0
  2
DP007167-1020-00-101
 10
0.0
 20
0.0
 30
0.0
  0
INSERT
  8
001
  6
BYBLOCK
 62
     0
  2
DP007165-1010-00-102
 10
0.0
 20
0.0
 30
0.0
  0
INSERT
  8
001
  6
BYBLOCK
 62
     0
  2
DP007167-1010-00-103
 10
0.0
 20
0.0
 30
0.0
  0
INSERT
  8
001
  6
BYBLOCK
 62
     0
  2
DP007023-1060-00-104
 10
0.0
 20
0.0
 30
0.0
  0
INSERT
  8
001
  6
BYBLOCK
 62
     0
  2
DP007037-1040-00-105
 10
0.0
 20
0.0
 30
0.0
  0
INSERT
  8
001
  6
BYBLOCK
 62
     0
  2
ORIENTAL_PK544PMB-106
 10
0.0
 20
0.0
 30
0.0
  0
INSERT
  8
001
  6
BYBLOCK
 62
     0
  2
ORIENTAL_AZM46AK-107
 10
0.0
 20
0.0
 30
0.0
  0
DIMENSION
  8
001
  2
*D109
 10
446.083801
 20
225.013763
 11
443.083801
 21
215.013763
 70
   160
 13
467.569304
 23
205.013763
 33
0.0
 14
453.083801
 24
225.013763
 34
0.0
 50
90.0
  0
DIMENSION
  8
001
  2
*D110
 10
508.833801
 20
180.32164
 11
503.633801
 21
183.32164
 70
   160
 13
513.333801
 23
204.013763
 33
0.0
 14
508.833801
 24
204.013763
 34
0.0
 50
180.0
  0
TEXT
  8
001
 10
438.813154
 20
171.063557
 40
4.0
  1
%%c４Ｈ８
 41
0.695652
  0
TEXT
  8
001
 10
452.413154
 20
171.063557
 40
4.0
  1
深サ４
 41
0.666667
  0
POLYLINE
  8
001
 66
     1
  0
VERTEX
  8
001
 10
469.692536
 20
201.225417
  0
VERTEX
  8
001
 10
470.649731
 20
203.061436
  0
VERTEX
  8
001
 10
470.738785
 20
200.992799
  0
SEQEND
  8
001
  0
POLYLINE
  8
001
 66
     1
  0
VERTEX
  8
001
 10
470.649731
 20
203.061436
  0
VERTEX
  8
001
 10
463.313154
 20
170.063557
  0
VERTEX
  8
001
 10
438.313154
 20
170.063557
  0
SEQEND
  8
001
  0
TEXT
  8
001
 10
536.93367
 20
167.324328
 40
4.0
  1
４Ｈ８
 50
90.000003
 41
0.666667
  0
TEXT
  8
001
 10
536.93367
 20
177.724328
 40
4.0
  1
深サ４
 50
90.000003
 41
0.666667
  0
POLYLINE
  8
001
 66
     1
  0
VERTEX
  8
001
 10
537.397772
 20
201.013763
  0
VERTEX
  8
001
 10
537.93367
 20
203.013763
  0
VERTEX
  8
001
 10
538.469568
 20
201.013763
  0
SEQEND
  8
001
  0
POLYLINE
  8
001
 66
     1
  0
VERTEX
  8
001
 10
538.469568
 20
209.013763
  0
VERTEX
  8
001
 10
537.93367
 20
207.013763
  0
VERTEX
  8
001
 10
537.397772
 20
209.013763
  0
SEQEND
  8
001
  0
LINE
  8
001
 10
537.93367
 20
167.324328
 11
537.93367
 21
210.013763
  0
POLYLINE
  8
001
 66
     1
  0
VERTEX
  8
001
 10
512.333801
 20
203.013763
  0
VERTEX
  8
001
 10
537.93367
 20
203.013763
  0
VERTEX
  8
001
 10
538.93367
 20
203.013763
  0
SEQEND
  8
001
  0
POLYLINE
  8
001
 66
     1
  0
VERTEX
  8
001
 10
512.333801
 20
207.013763
  0
VERTEX
  8
001
 10
537.93367
 20
207.013763
  0
VERTEX
  8
001
 10
538.93367
 20
207.013763
  0
SEQEND
  8
001
  0
TEXT
  8
001
 10
487.483801
 20
171.063557
 40
4.0
  1
４０
 41
0.666667
  0
POLYLINE
  8
001
 66
     1
  0
VERTEX
  8
001
 10
509.083801
 20
170.599455
  0
VERTEX
  8
001
 10
511.083801
 20
170.063557
  0
VERTEX
  8
001
 10
509.083801
 20
169.527658
  0
SEQEND
  8
001
  0
POLYLINE
  8
001
 66
     1
  0
VERTEX
  8
001
 10
473.083801
 20
169.527658
  0
VERTEX
  8
001
 10
471.083801
 20
170.063557
  0
VERTEX
  8
001
 10
473.083801
 20
170.599455
  0
SEQEND
  8
001
  0
LINE
  8
001
 10
511.083801
 20
170.063557
 11
471.083801
 21
170.063557
  0
POLYLINE
  8
001
 66
     1
  0
VERTEX
  8
001
 10
511.083801
 20
201.336786
  0
VERTEX
  8
001
 10
511.083801
 20
181.216324
  0
SEQEND
  8
001
  0
POLYLINE
  8
001
 66
     1
  0
VERTEX
  8
001
 10
511.083801
 20
179.260044
  0
VERTEX
  8
001
 10
511.083801
 20
170.063557
  0
VERTEX
  8
001
 10
511.083801
 20
169.063557
  0
SEQEND
  8
001
  0
POLYLINE
  8
001
 66
     1
  0
VERTEX
  8
001
 10
471.083801
 20
201.517841
  0
VERTEX
  8
001
 10
471.083801
 20
170.063557
  0
VERTEX
  8
001
 10
471.083801
 20
169.063557
  0
SEQEND
  8
001
  0
DIMENSION
  8
001
  2
*D111
 10
282.908051
 20
371.975922
 11
279.90805
 21
366.475922
 70
   160
 13
288.908051
 23
360.975922
 33
0.0
 14
283.908051
 24
371.975922
 34
0.0
 50
90.0
  0
DIMENSION
  8
001
  2
*D112
 10
282.908051
 20
329.975922
 11
279.90805
 21
334.975922
 70
   160
 13
288.908051
 23
339.975922
 33
0.0
 14
283.908051
 24
329.975922
 34
0.0
 50
270.0
  0
DIMENSION
  8
001
  2
*D113
 10
379.908051
 20
360.975922
 11
376.90805
 21
350.475922
 70
   160
 13
360.908051
 23
339.975922
 33
0.0
 14
360.908051
 24
360.975922
 34
0.0
 50
90.0
  0
DIMENSION
  8
001
  2
*D114
 10
294.908051
 20
370.975922
 11
324.908051
 21
373.975922
 70
   160
 13
354.908051
 23
363.975922
 33
0.0
 14
294.908051
 24
363.975922
 34
0.0
 50
180.0
  0
INSERT
  8
001
  6
BYBLOCK
 62
     0
  2
DIM-108
 10
0.0
 20
0.0
 30
0.0
  0
DIMENSION
  8
001
  2
*D116
 10
369.908051
 20
360.975922
 11
366.90805
 21
353.275921
 70
   160
 13
359.658051
 23
358.475922
 33
0.0
 14
360.908051
 24
360.975922
 34
0.0
 50
90.0
  0
DIMENSION
  8
001
  2
*D117
 10
145.338867
 20
371.975896
 11
142.338867
 21
350.975896
 70
   160
 13
158.915147
 23
329.975896
 33
0.0
 14
158.915135
 24
371.975896
 34
0.0
 50
90.0
  0
DIMENSION
  8
001
  2
*D118
 10
369.908051
 20
260.013763
 11
366.90805
 21
225.013763
 70
   160
 13
360.908051
 23
190.013763
 33
0.0
 14
360.908051
 24
260.013763
 34
0.0
 50
90.0
  0
TEXT
  8
001
 10
325.798088
 20
266.609558
 40
4.0
  1
４－Ｅ
 41
0.666667
  0
POLYLINE
  8
001
 66
     1
  0
VERTEX
  8
001
 10
344.109848
 20
248.46341
  0
VERTEX
  8
001
 10
344.352619
 20
246.407139
  0
VERTEX
  8
001
 10
343.114238
 20
248.066536
  0
SEQEND
  8
001
  0
POLYLINE
  8
001
 66
     1
  0
VERTEX
  8
001
 10
344.352619
 20
246.407139
  0
VERTEX
  8
001
 10
336.698088
 20
265.609558
  0
VERTEX
  8
001
 10
325.298088
 20
265.609558
  0
SEQEND
  8
001
  0
TEXT
  8
001
 10
362.023712
 20
266.609558
 40
4.0
  1
４－Ｆ
 41
0.666667
  0
POLYLINE
  8
001
 66
     1
  0
VERTEX
  8
001
 10
357.481071
 20
258.122903
  0
VERTEX
  8
001
 10
355.967276
 20
256.710243
  0
VERTEX
  8
001
 10
356.571931
 20
258.690541
  0
SEQEND
  8
001
  0
POLYLINE
  8
001
 66
     1
  0
VERTEX
  8
001
 10
355.967276
 20
256.710243
  0
VERTEX
  8
001
 10
361.523712
 20
265.609558
  0
VERTEX
  8
001
 10
372.923712
 20
265.609558
  0
SEQEND
  8
001
  0
TEXT
  8
001
 10
343.046133
 20
231.718403
 40
4.0
  1
４－Ｄ
 41
0.666667
  0
POLYLINE
  8
001
 66
     1
  0
VERTEX
  8
001
 10
340.348096
 20
236.500425
  0
VERTEX
  8
001
 10
340.317586
 20
238.570753
  0
VERTEX
  8
001
 10
341.379172
 20
236.793051
  0
SEQEND
  8
001
  0
POLYLINE
  8
001
 66
     1
  0
VERTEX
  8
001
 10
340.317586
 20
238.570753
  0
VERTEX
  8
001
 10
342.546133
 20
230.718403
  0
VERTEX
  8
001
 10
353.946133
 20
230.718403
  0
SEQEND
  8
001
  0
TEXT
  8
001
 10
330.379538
 20
233.947361
 40
4.0
  1
Ａ
 41
0.666667
  0
POLYLINE
  8
001
 66
     1
  0
VERTEX
  8
001
 10
327.486142
 20
228.1187
  0
VERTEX
  8
001
 10
325.970043
 20
226.708512
  0
VERTEX
  8
001
 10
326.577929
 20
228.68782
  0
SEQEND
  8
001
  0
POLYLINE
  8
001
 66
     1
  0
VERTEX
  8
001
 10
325.970043
 20
226.708512
  0
VERTEX
  8
001
 10
329.879538
 20
232.947361
  0
VERTEX
  8
001
 10
334.879538
 20
232.947361
  0
SEQEND
  8
001
  0
DIMENSION
  8
001
  2
*D119
 10
359.908051
 20
275.013763
 11
324.908051
 21
278.013763
 70
   160
 13
289.908051
 23
261.013763
 33
0.0
 14
359.908051
 24
261.013763
 34
0.0
  0
DIMENSION
  8
001
  2
*D120
 10
158.408055
 20
285.013763
 11
259.158053
 21
288.013763
 70
   160
 13
359.908051
 23
261.013763
 33
0.0
 14
158.408055
 24
242.763789
 34
0.0
 50
180.0
  0
DIMENSION
  8
001
  2
*D121
 10
158.408055
 20
275.013763
 11
224.158053
 21
278.013763
 70
   160
 13
289.908051
 23
261.013763
 33
0.0
 14
158.408055
 24
242.763789
 34
0.0
 50
180.0
  0
LINE
  8
001
 10
390.47046
 20
65.5
 11
390.47046
 21
17.5
  0
LINE
  8
001
 10
378.47046
 20
65.5
 11
378.47046
 21
17.5
  0
LINE
  8
001
 10
348.47046
 20
65.5
 11
348.47046
 21
17.5
  0
LINE
  8
001
 10
336.47046
 20
65.5
 11
336.47046
 21
17.5
  0
LINE
  8
001
 10
336.47046
 20
17.5
 11
390.47046
 21
17.5
  0
LINE
  8
001
 10
336.47046
 20
25.5
 11
390.47046
 21
25.5
  0
LINE
  8
001
 10
336.47046
 20
33.5
 11
390.47046
 21
33.5
  0
LINE
  8
001
 10
336.47046
 20
41.5
 11
390.47046
 21
41.5
  0
LINE
  8
001
 10
336.47046
 20
49.5
 11
390.47046
 21
49.5
  0
LINE
  8
001
 10
336.47046
 20
57.5
 11
390.47046
 21
57.5
  0
LINE
  8
001
 10
336.47046
 20
65.5
 11
390.47046
 21
65.5
  0
LINE
  8
001
 10
348.47046
 20
57.5
 11
336.47046
 21
65.5
  0
LINE
  8
001
 10
378.47046
 20
25.5
 11
390.47046
 21
17.5
  0
TEXT
  8
001
 10
340.47046
 20
27.5
 40
4.0
  1
Ｆ
 41
0.666667
  0
TEXT
  8
001
 10
340.47046
 20
35.5
 40
4.0
  1
Ｅ
 41
0.666667
  0
TEXT
  8
001
 10
340.47046
 20
43.5
 40
4.0
  1
Ｄ
 41
0.666667
  0
TEXT
  8
001
 10
353.470459
 20
43.5
 40
4.0
  1
□３０　Ｍ３
 41
0.666667
  0
TEXT
  8
001
 10
353.470459
 20
35.5
 40
4.0
  1
□４０　Ｍ３
 41
0.666667
  0
TEXT
  8
001
 10
353.470459
 20
27.5
 40
4.0
  1
□６０　Ｍ４
 41
0.666667
  0
TEXT
  8
001
 10
351.870459
 20
19.5
 40
4.0
  1
Ｍ４用平座グリ
 41
0.666667
  0
TEXT
  8
001
 10
380.87046
 20
59.5
 40
4.0
  1
深サ
 41
0.666667
  0
TEXT
  8
001
 10
340.47046
 20
19.5
 40
4.0
  1
Ｚ
 41
0.666667
  0
TEXT
  8
001
 10
340.47046
 20
51.5
 40
4.0
  1
Ａ
 41
0.666667
  0
TEXT
  8
001
 10
358.27046
 20
59.5
 40
4.0
  1
サイズ
 41
0.666667
  0
TEXT
  8
001
 10
359.87046
 20
51.5
 40
4.0
  1
Ｍ４
 41
0.666667
  0
TEXT
  8
001
 10
382.47046
 20
27.5
 40
4.0
  1
５
 41
0.666667
  0
TEXT
  8
001
 10
382.47046
 20
35.5
 40
4.0
  1
５
 41
0.666667
  0
TEXT
  8
001
 10
382.47046
 20
43.5
 40
4.0
  1
５
 41
0.666667
  0
TEXT
  8
001
 10
382.47046
 20
51.5
 40
4.0
  1
４
 41
0.666667
  0
TEXT
  8
001
 10
429.06704
 20
96.154724
 40
4.0
  1
注記
 41
0.666667
  0
TEXT
  8
001
 10
429.06704
 20
89.654724
 40
4.0
  1
リミットセンサーがないためオーバーランに注意のこと
 41
0.666667
  0
LINE
  8
001
 10
429.06704
 20
95.154724
 11
436.26704
 21
95.154724
  0
LINE
  8
001
 10
429.06704
 20
88.654724
 11
509.867042
 21
88.654724
  0
TEXT
  8
001
 10
65.17046
 20
63.0
 40
4.0
  1
≦０.５μｍ／２０ｍｍ
 41
0.672973
  0
TEXT
  8
001
 10
65.17046
 20
82.5
 40
4.0
  1
≦１０μｍ／２０ｍｍ
 41
0.666667
  0
TEXT
  8
001
 10
65.17046
 20
50.0
 40
4.0
  1
≦１μｍ
 41
0.666667
  0
TEXT
  8
001
 10
65.17046
 20
56.5
 40
4.0
  1
≦１μｍ／２０ｍｍ
 41
0.666667
  0
TEXT
  8
001
 10
65.17046
 20
69.5
 40
4.0
  1
≦１μｍ
 41
0.666667
  0
TEXT
  8
001
 10
65.17046
 20
76.0
 40
4.0
  1
≦%%p０.３μｍ
 41
0.695455
  0
TEXT
  8
001
 10
29.97046
 20
95.5
 40
4.0
  1
分解能
 41
0.666667
  0
TEXT
  8
001
 10
65.17046
 20
108.5
 40
4.0
  1
%%p１０ｍｍ
 41
0.689655
  0
TEXT
  8
001
 10
29.97046
 20
108.5
 40
4.0
  1
移動範囲
 41
0.666667
  0
TEXT
  8
001
 10
65.17046
 20
102.0
 40
4.0
  1
研削ネジ　リード０.５ｍｍ
 41
0.671946
  0
TEXT
  8
001
 10
65.17046
 20
37.0
 40
4.0
  1
９８Ｎ（１０ｋｇｆ）
 41
0.666667
  0
TEXT
  8
001
 10
65.17046
 20
43.5
 40
4.0
  1
０.１０ａｒｃｓｅｃ／Ｎ・ｃｍ（ロール方向）
 41
0.669713
  0
TEXT
  8
001
 10
29.97046
 20
37.0
 40
4.0
  1
水平耐荷重
 41
0.666667
  0
TEXT
  8
001
 10
29.97046
 20
50.0
 40
4.0
  1
バックラッシュ
 41
0.666667
  0
TEXT
  8
001
 10
29.97046
 20
56.5
 40
4.0
  1
真直度（垂直）
 41
0.666667
  0
TEXT
  8
001
 10
29.97046
 20
63.0
 40
4.0
  1
真直度（水平）
 41
0.666667
  0
TEXT
  8
001
 10
29.97046
 20
69.5
 40
4.0
  1
ロストモーション
 41
0.666667
  0
TEXT
  8
001
 10
29.97046
 20
76.0
 40
4.0
  1
繰返し位置決め精度
 41
0.666667
  0
TEXT
  8
001
 10
29.97046
 20
82.5
 40
4.0
  1
累積リード誤差
 41
0.666667
  0
TEXT
  8
001
 10
65.17046
 20
24.0
 40
4.0
  1
白色仕上げ
 41
0.666667
  0
TEXT
  8
001
 10
65.17046
 20
30.5
 40
4.0
  1
アルミ合金
 41
0.666667
  0
TEXT
  8
001
 10
65.17046
 20
121.5
 40
4.0
  1
７０ｍｍ×７０ｍｍ
 41
0.666667
  0
TEXT
  8
001
 10
65.17046
 20
115.0
 40
4.0
  1
精密クロスローラガイド
 41
0.666667
  0
TEXT
  8
001
 10
29.97046
 20
17.5
 40
4.0
  1
自　重
 41
0.666667
  0
TEXT
  8
001
 10
29.97046
 20
24.0
 40
4.0
  1
外　観
 41
0.666667
  0
TEXT
  8
001
 10
29.97046
 20
30.5
 40
4.0
  1
材　質
 41
0.666667
  0
TEXT
  8
001
 10
29.97046
 20
89.0
 40
4.0
  1
最高速度
 41
0.666667
  0
TEXT
  8
001
 10
29.97046
 20
102.0
 40
4.0
  1
送り方式
 41
0.666667
  0
TEXT
  8
001
 10
29.97046
 20
115.0
 40
4.0
  1
案内方式
 41
0.666667
  0
TEXT
  8
001
 10
29.97046
 20
121.5
 40
4.0
  1
テーブル面
 41
0.666667
  0
TEXT
  8
001
 10
29.97046
 20
11.0
 40
4.0
  1
モーター
 41
0.666667
  0
LINE
  8
001
 62
     4
 10
25.97046
 20
127.0
 11
25.97046
 21
10.0
  0
LINE
  8
001
 62
     4
 10
150.570461
 20
127.0
 11
150.570461
 21
10.0
  0
LINE
  8
001
 62
     4
 10
63.625518
 20
127.0
 11
63.625518
 21
10.0
  0
TEXT
  8
001
 10
65.17046
 20
95.5
 40
4.0
  1
０.５μｍ（１０００Ｐ／Ｒ設定時）
 41
0.670648
  0
TEXT
  8
001
 10
65.17046
 20
89.0
 40
4.0
  1
２.５ｍｍ／ｓｅｃ（１０００Ｐ／Ｒ設定時、５ｋｐｐｓ）
 41
0.669133
  0
TEXT
  8
001
 10
65.17046
 20
11.0
 40
4.0
  1
ＡＺＭ４６ＡＫ（オリエンタルモーター）
 41
0.666667
  0
LINE
  8
001
 62
     4
 10
25.97046
 20
42.5
 11
150.570461
 21
42.5
  0
LINE
  8
001
 62
     4
 10
25.97046
 20
23.0
 11
150.570461
 21
23.0
  0
LINE
  8
001
 62
     4
 10
25.97046
 20
10.0
 11
150.570461
 21
10.0
  0
LINE
  8
001
 62
     4
 10
25.97046
 20
127.0
 11
150.570461
 21
127.0
  0
LINE
  8
001
 62
     4
 10
25.97046
 20
120.5
 11
150.570461
 21
120.5
  0
LINE
  8
001
 62
     4
 10
25.97046
 20
114.0
 11
150.570461
 21
114.0
  0
LINE
  8
001
 62
     4
 10
25.97046
 20
107.5
 11
150.570461
 21
107.5
  0
LINE
  8
001
 62
     4
 10
25.97046
 20
101.0
 11
150.570461
 21
101.0
  0
LINE
  8
001
 62
     4
 10
25.97046
 20
101.0
 11
150.570461
 21
101.0
  0
LINE
  8
001
 62
     4
 10
25.97046
 20
94.5
 11
150.570461
 21
94.5
  0
LINE
  8
001
 62
     4
 10
25.97046
 20
88.0
 11
150.570461
 21
88.0
  0
LINE
  8
001
 62
     4
 10
25.97046
 20
81.5
 11
150.570461
 21
81.5
  0
LINE
  8
001
 62
     4
 10
25.97046
 20
81.5
 11
150.570461
 21
81.5
  0
LINE
  8
001
 62
     4
 10
25.97046
 20
75.0
 11
150.570461
 21
75.0
  0
LINE
  8
001
 62
     4
 10
25.97046
 20
68.5
 11
150.570461
 21
68.5
  0
LINE
  8
001
 62
     4
 10
25.97046
 20
62.0
 11
150.570461
 21
62.0
  0
LINE
  8
001
 62
     4
 10
25.97046
 20
62.0
 11
150.570461
 21
62.0
  0
LINE
  8
001
 62
     4
 10
25.97046
 20
55.5
 11
150.570461
 21
55.5
  0
LINE
  8
001
 62
     4
 10
25.97046
 20
49.0
 11
150.570461
 21
49.0
  0
LINE
  8
001
 62
     4
 10
25.97046
 20
36.0
 11
150.570461
 21
36.0
  0
LINE
  8
001
 62
     4
 10
25.97046
 20
36.0
 11
150.570461
 21
36.0
  0
LINE
  8
001
 62
     4
 10
25.97046
 20
29.5
 11
150.570461
 21
29.5
  0
LINE
  8
001
 62
     4
 10
25.97046
 20
16.5
 11
150.570461
 21
16.5
  0
TEXT
  8
001
 10
65.17046
 20
17.5
 40
4.0
  1
約０.９６ｋｇ
 41
0.676991
  0
TEXT
  8
001
 10
29.97046
 20
43.5
 40
4.0
  1
モーメント剛性
 41
0.666667
  0
LINE
  8
001
  6
CENTER
 10
324.908051
 20
116.574554
 11
324.908051
 21
91.574554
  0
LINE
  8
001
 62
    15
 10
161.399249
 20
124.57458
 11
228.408052
 21
124.57456
  0
LINE
  8
001
 62
    15
 10
159.408056
 20
122.056631
 11
159.408045
 21
85.092529
  0
LINE
  8
001
 62
    15
 10
161.399249
 20
124.57458
 11
159.915147
 21
124.57458
  0
LINE
  8
001
 62
    15
 10
159.915135
 20
82.57458
 11
160.730435
 21
82.57458
  0
ARC
  8
001
 62
    15
 10
257.68528
 20
103.574552
 40
100.0
 50
190.650651
 51
192.122336
  0
ARC
  8
001
 62
    15
 10
257.68528
 20
103.574552
 40
100.0
 50
167.877631
 51
169.349316
  0
POLYLINE
  8
001
 62
    15
 66
     1
  0
VERTEX
  8
001
 62
    15
 10
160.434543
 20
89.07458
  0
VERTEX
  8
001
 62
    15
 10
160.382722
 20
89.301276
  0
VERTEX
  8
001
 62
    15
 10
160.328531
 20
89.527442
  0
VERTEX
  8
001
 62
    15
 10
160.275331
 20
89.732643
  0
VERTEX
  8
001
 62
    15
 10
160.217884
 20
89.936598
  0
VERTEX
  8
001
 62
    15
 10
160.16386
 20
90.113726
  0
VERTEX
  8
001
 62
    15
 10
160.105755
 20
90.28988
  0
VERTEX
  8
001
 62
    15
 10
160.053432
 20
90.435607
  0
VERTEX
  8
001
 62
    15
 10
159.99528
 20
90.578216
  0
VERTEX
  8
001
 62
    15
 10
159.944786
 20
90.685628
  0
VERTEX
  8
001
 62
    15
 10
159.889333
 20
90.792728
  0
VERTEX
  8
001
 62
    15
 10
159.846349
 20
90.866025
  0
VERTEX
  8
001
 62
    15
 10
159.791254
 20
90.926708
  0
VERTEX
  8
001
 62
    15
 10
159.748026
 20
90.953177
  0
VERTEX
  8
001
 62
    15
 10
159.70063
 20
90.97458
  0
SEQEND
  8
001
 62
    15
  0
ARC
  8
001
 62
    15
 10
257.685276
 20
103.574552
 40
99.20302414745237
 50
188.989007
 51
192.221222
  0
LINE
  8
001
 62
    15
 10
160.434543
 20
89.07458
 11
160.996335
 21
89.07458
  0
LINE
  8
001
 62
    15
 10
158.408055
 20
120.32458
 11
158.408046
 21
86.82458
  0
LINE
  8
001
 62
    15
 10
159.408056
 20
122.056631
 11
158.408055
 21
120.32458
  0
LINE
  8
001
 62
    15
 10
158.408046
 20
86.82458
 11
159.408045
 21
85.092529
  0
POLYLINE
  8
001
 62
    15
 66
     1
  0
VERTEX
  8
001
 62
    15
 10
159.70063
 20
90.97458
  0
VERTEX
  8
001
 62
    15
 10
159.663436
 20
90.956866
  0
VERTEX
  8
001
 62
    15
 10
159.631155
 20
90.934364
  0
VERTEX
  8
001
 62
    15
 10
159.596276
 20
90.880627
  0
VERTEX
  8
001
 62
    15
 10
159.57598
 20
90.815353
  0
VERTEX
  8
001
 62
    15
 10
159.553461
 20
90.716206
  0
VERTEX
  8
001
 62
    15
 10
159.53699
 20
90.618788
  0
VERTEX
  8
001
 62
    15
 10
159.522856
 20
90.48575
  0
VERTEX
  8
001
 62
    15
 10
159.515239
 20
90.350931
  0
VERTEX
  8
001
 62
    15
 10
159.51122
 20
90.186826
  0
VERTEX
  8
001
 62
    15
 10
159.511624
 20
90.023133
  0
VERTEX
  8
001
 62
    15
 10
159.516596
 20
89.832816
  0
VERTEX
  8
001
 62
    15
 10
159.525592
 20
89.64249
  0
VERTEX
  8
001
 62
    15
 10
159.539397
 20
89.432137
  0
VERTEX
  8
001
 62
    15
 10
159.556703
 20
89.222091
  0
VERTEX
  8
001
 62
    15
 10
159.578669
 20
88.997002
  0
VERTEX
  8
001
 62
    15
 10
159.603791
 20
88.772228
  0
VERTEX
  8
001
 62
    15
 10
159.62522
 20
88.598733
  0
VERTEX
  8
001
 62
    15
 10
159.648518
 20
88.425487
  0
VERTEX
  8
001
 62
    15
 10
159.674047
 20
88.249958
  0
VERTEX
  8
001
 62
    15
 10
159.70063
 20
88.07458
  0
SEQEND
  8
001
 62
    15
  0
LINE
  8
001
 62
    15
 10
176.208041
 20
82.574575
 11
160.730435
 21
82.57458
  0
LINE
  8
001
 62
     3
 10
273.908051
 20
101.324554
 11
273.908051
 21
113.074554
  0
LINE
  8
001
 62
     3
 10
273.908051
 20
101.324554
 11
263.408051
 21
101.324554
  0
LINE
  8
001
 62
     3
 10
273.908051
 20
113.074554
 11
263.408051
 21
113.074554
  0
LINE
  8
001
 62
     3
 10
263.408051
 20
113.074554
 11
263.408051
 21
101.324554
  0
LINE
  8
001
 62
     3
 10
278.408051
 20
100.084952
 11
273.908051
 21
100.084952
  0
LINE
  8
001
 62
     3
 10
273.908051
 20
100.084952
 11
273.908051
 21
101.324554
  0
LINE
  8
001
 62
     3
 10
278.408051
 20
100.084952
 11
278.408051
 21
113.074554
  0
LINE
  8
001
 62
     3
 10
278.408051
 20
113.074554
 11
273.908051
 21
113.074554
  0
LINE
  8
001
 10
279.458051
 20
106.136291
 11
279.458051
 21
108.324554
  0
LINE
  8
001
 10
279.458051
 20
108.324554
 11
278.408051
 21
108.324554
  0
LINE
  8
001
 10
278.408051
 20
106.136292
 11
279.458051
 21
106.136292
  0
LINE
  8
001
 10
278.408051
 20
101.012816
 11
279.458051
 21
101.012816
  0
LINE
  8
001
 10
279.458051
 20
101.012816
 11
279.458051
 21
100.074554
  0
LINE
  8
001
 10
279.458051
 20
106.136291
 11
279.458051
 21
101.012816
  0
LINE
  8
001
 10
280.458051
 20
101.074554
 11
280.458051
 21
106.074554
  0
LINE
  8
001
 10
288.259488
 20
106.074554
 11
280.458051
 21
106.074554
  0
LINE
  8
001
 10
280.458051
 20
101.074554
 11
289.908051
 21
101.074554
  0
LINE
  8
001
 10
280.458051
 20
105.574554
 11
279.458051
 21
105.574554
  0
LINE
  8
001
 10
279.458051
 20
101.574554
 11
280.458051
 21
101.574554
  0
LINE
  8
001
 62
     4
 10
289.565437
 20
108.024554
 11
289.565437
 21
104.574554
  0
LINE
  8
001
 62
     4
 10
288.242531
 20
106.024465
 11
288.25028
 21
106.024465
  0
ARC
  8
001
 62
     4
 10
292.608051
 20
104.574554
 40
4.6
 50
198.375115
 51
228.590378
  0
ARC
  8
001
 62
     4
 10
292.608051
 20
104.574554
 40
4.6
 50
131.409622
 51
161.627239
  0
LINE
  8
001
 62
     4
 10
289.565437
 20
104.574554
 11
289.565437
 21
101.124554
  0
LINE
  8
001
 62
     4
 10
288.25034
 20
103.124465
 11
288.242591
 21
103.124465
  0
ARC
  8
001
 62
     4
 10
292.608051
 20
104.574554
 40
4.592646295982306
 50
183.245378
 51
198.405592
  0
LINE
  8
001
 62
     4
 10
288.25031
 20
104.314554
 11
288.02277
 21
104.314554
  0
ARC
  8
001
 62
     4
 10
292.608051
 20
104.574554
 40
4.365489663256575
 50
176.585555
 51
183.414445
  0
LINE
  8
001
 62
     4
 10
288.02277
 20
104.834554
 11
288.25031
 21
104.834554
  0
ARC
  8
001
 62
     4
 10
292.608051
 20
104.574554
 40
4.592646295982306
 50
161.596767
 51
176.754622
  0
LINE
  8
001
 62
     4
 10
289.565437
 20
101.124554
 11
289.908051
 21
101.124554
  0
LINE
  8
001
 62
     4
 10
289.908051
 20
108.024554
 11
289.565437
 21
108.024554
  0
LINE
  8
001
 62
     4
 10
360.250665
 20
101.124554
 11
360.250665
 21
108.024554
  0
LINE
  8
001
 62
     4
 10
360.250665
 20
108.024554
 11
359.908051
 21
108.024554
  0
LINE
  8
001
 62
     4
 10
359.908051
 20
101.124554
 11
360.250665
 21
101.124554
  0
LINE
  8
001
 62
     4
 10
361.57351
 20
103.124465
 11
361.565761
 21
103.124465
  0
ARC
  8
001
 62
     4
 10
357.208051
 20
104.574554
 40
4.6
 50
18.372761
 51
48.590378
  0
ARC
  8
001
 62
     4
 10
357.208051
 20
104.574554
 40
4.6
 50
311.409622
 51
341.624885
  0
ARC
  8
001
 62
     4
 10
357.208051
 20
104.574554
 40
4.592646295982308
 50
341.594408
 51
356.754622
  0
LINE
  8
001
 62
     4
 10
361.565821
 20
106.024465
 11
361.57357
 21
106.024465
  0
ARC
  8
001
 62
     4
 10
357.208051
 20
104.574554
 40
4.592646295982308
 50
3.245378
 51
18.403233
  0
LINE
  8
001
 62
     4
 10
361.565791
 20
104.834554
 11
361.793331
 21
104.834554
  0
ARC
  8
001
 62
     4
 10
357.208051
 20
104.574554
 40
4.365489663256575
 50
356.585555
 51
3.414445
  0
LINE
  8
001
 62
     4
 10
361.793331
 20
104.314554
 11
361.565791
 21
104.314554
  0
LINE
  8
001
 62
     4
 10
252.408051
 20
106.574554
 11
252.408051
 21
103.574554
  0
LINE
  8
001
 62
     3
 10
240.408051
 20
122.574554
 11
228.408051
 21
122.574554
  0
LINE
  8
001
 62
     3
 10
240.408051
 20
84.574554
 11
240.408051
 21
94.574554
  0
LINE
  8
001
 62
     3
 10
240.408051
 20
94.574554
 11
240.408051
 21
111.074554
  0
LINE
  8
001
 62
     3
 10
240.408051
 20
111.074554
 11
240.408051
 21
122.574554
  0
LINE
  8
001
 62
     3
 10
228.408051
 20
84.574554
 11
240.408051
 21
84.574554
  0
LINE
  8
001
 62
     3
 10
228.408051
 20
84.574554
 11
228.408051
 21
122.574554
  0
LINE
  8
001
 62
     3
 10
240.408051
 20
82.574554
 11
228.408051
 21
82.574554
  0
LINE
  8
001
 62
     3
 10
240.408051
 20
84.574554
 11
240.408051
 21
82.574554
  0
LINE
  8
001
 62
     3
 10
228.408051
 20
82.574554
 11
228.408051
 21
84.574554
  0
LINE
  8
001
 62
     3
 10
228.408051
 20
124.574554
 11
240.408051
 21
124.574554
  0
LINE
  8
001
 62
     3
 10
240.408051
 20
124.574554
 11
240.408051
 21
122.574554
  0
LINE
  8
001
 62
     3
 10
228.408051
 20
122.574554
 11
228.408051
 21
124.574554
  0
LINE
  8
001
 62
     3
 10
289.908051
 20
100.574554
 11
359.908051
 21
100.574554
  0
LINE
  8
001
 62
     3
 10
359.908051
 20
114.574554
 11
359.908051
 21
100.574554
  0
LINE
  8
001
 62
     3
 10
289.908051
 20
114.574554
 11
289.908051
 21
100.574554
  0
LINE
  8
001
 62
     3
 10
289.908051
 20
114.574554
 11
359.908051
 21
114.574554
  0
POLYLINE
  8
001
 62
     3
 66
     1
  0
VERTEX
  8
001
 62
     3
 10
292.908051
 20
112.359554
  0
VERTEX
  8
001
 62
     3
 10
292.911399
 20
112.186314
  0
VERTEX
  8
001
 62
     3
 10
292.918064
 20
112.013225
  0
VERTEX
  8
001
 62
     3
 10
292.925774
 20
111.897407
  0
VERTEX
  8
001
 62
     3
 10
292.935886
 20
111.781759
  0
VERTEX
  8
001
 62
     3
 10
292.941564
 20
111.724645
  0
VERTEX
  8
001
 62
     3
 10
292.947427
 20
111.667552
  0
VERTEX
  8
001
 62
     3
 10
292.950085
 20
111.641048
  0
VERTEX
  8
001
 62
     3
 10
292.952383
 20
111.614507
  0
VERTEX
  8
001
 62
     3
 10
292.953528
 20
111.596533
  0
VERTEX
  8
001
 62
     3
 10
292.954067
 20
111.57854
  0
VERTEX
  8
001
 62
     3
 10
292.953795
 20
111.560124
  0
VERTEX
  8
001
 62
     3
 10
292.952891
 20
111.541719
  0
VERTEX
  8
001
 62
     3
 10
292.947782
 20
111.481489
  0
VERTEX
  8
001
 62
     3
 10
292.94122
 20
111.421385
  0
VERTEX
  8
001
 62
     3
 10
292.921013
 20
111.191649
  0
VERTEX
  8
001
 62
     3
 10
292.91051
 20
110.961291
  0
VERTEX
  8
001
 62
     3
 10
292.908947
 20
110.875427
  0
VERTEX
  8
001
 62
     3
 10
292.908051
 20
110.789554
  0
SEQEND
  8
001
 62
     3
  0
LINE
  8
001
 62
     3
 10
293.176
 20
112.537987
 11
293.009075
 21
112.353027
  0
LINE
  8
001
 62
     3
 10
293.009075
 20
110.796082
 11
293.176
 21
110.611121
  0
POLYLINE
  8
001
 62
     3
 66
     1
  0
VERTEX
  8
001
 62
     3
 10
356.908051
 20
110.789554
  0
VERTEX
  8
001
 62
     3
 10
356.904702
 20
110.962795
  0
VERTEX
  8
001
 62
     3
 10
356.898037
 20
111.135884
  0
VERTEX
  8
001
 62
     3
 10
356.890327
 20
111.251702
  0
VERTEX
  8
001
 62
     3
 10
356.880215
 20
111.36735
  0
VERTEX
  8
001
 62
     3
 10
356.874537
 20
111.424464
  0
VERTEX
  8
001
 62
     3
 10
356.868674
 20
111.481557
  0
VERTEX
  8
001
 62
     3
 10
356.866016
 20
111.508061
  0
VERTEX
  8
001
 62
     3
 10
356.863718
 20
111.534602
  0
VERTEX
  8
001
 62
     3
 10
356.862573
 20
111.552576
  0
VERTEX
  8
001
 62
     3
 10
356.862034
 20
111.570569
  0
VERTEX
  8
001
 62
     3
 10
356.862306
 20
111.588985
  0
VERTEX
  8
001
 62
     3
 10
356.86321
 20
111.607389
  0
VERTEX
  8
001
 62
     3
 10
356.868319
 20
111.66762
  0
VERTEX
  8
001
 62
     3
 10
356.874881
 20
111.727724
  0
VERTEX
  8
001
 62
     3
 10
356.895088
 20
111.95746
  0
VERTEX
  8
001
 62
     3
 10
356.905591
 20
112.187818
  0
VERTEX
  8
001
 62
     3
 10
356.907154
 20
112.273682
  0
VERTEX
  8
001
 62
     3
 10
356.908051
 20
112.359554
  0
SEQEND
  8
001
 62
     3
  0
LINE
  8
001
 62
     3
 10
356.640101
 20
110.611121
 11
356.807026
 21
110.796082
  0
LINE
  8
001
 62
     3
 10
356.807026
 20
112.353027
 11
356.640101
 21
112.537987
  0
LINE
  8
001
 62
     3
 10
263.408051
 20
113.074554
 11
263.408051
 21
101.324554
  0
LINE
  8
001
 62
     3
 10
263.408051
 20
101.324554
 11
263.408051
 21
100.574554
  0
LINE
  8
001
 62
     3
 10
249.408051
 20
100.574554
 11
263.408051
 21
100.574554
  0
LINE
  8
001
 62
     3
 10
249.408051
 20
100.574554
 11
249.408051
 21
100.074554
  0
LINE
  8
001
 62
     3
 10
240.408051
 20
94.574554
 11
249.408051
 21
94.574554
  0
LINE
  8
001
 62
     3
 10
240.408051
 20
111.074554
 11
240.408051
 21
94.574554
  0
LINE
  8
001
 62
     3
 10
242.408051
 20
113.074554
 11
240.408051
 21
111.074554
  0
LINE
  8
001
 62
     3
 10
242.408051
 20
113.074554
 11
263.408051
 21
113.074554
  0
LINE
  8
001
 62
     3
 10
252.392486
 20
103.574635
 11
252.221934
 21
103.858717
  0
POLYLINE
  8
001
 62
     3
 66
     1
  0
VERTEX
  8
001
 62
     3
 10
252.214309
 20
103.859909
  0
VERTEX
  8
001
 62
     3
 10
252.258172
 20
104.131551
  0
VERTEX
  8
001
 62
     3
 10
252.311751
 20
104.401034
  0
VERTEX
  8
001
 62
     3
 10
252.357589
 20
104.582791
  0
VERTEX
  8
001
 62
     3
 10
252.407949
 20
104.763543
  0
SEQEND
  8
001
 62
     3
  0
POLYLINE
  8
001
 62
     3
 66
     1
  0
VERTEX
  8
001
 62
     3
 10
252.403499
 20
105.40057
  0
VERTEX
  8
001
 62
     3
 10
252.333433
 20
105.664619
  0
VERTEX
  8
001
 62
     3
 10
252.272933
 20
105.930625
  0
VERTEX
  8
001
 62
     3
 10
252.241502
 20
106.109479
  0
VERTEX
  8
001
 62
     3
 10
252.214309
 20
106.2892
  0
SEQEND
  8
001
 62
     3
  0
LINE
  8
001
 62
     3
 10
252.221934
 20
106.290392
 11
252.392486
 21
106.574474
  0
LINE
  8
001
 62
     3
 10
249.408051
 20
93.574554
 11
249.408051
 21
91.074554
  0
LINE
  8
001
 62
     3
 10
249.408051
 20
117.574554
 11
240.408051
 21
117.574554
  0
LINE
  8
001
 62
     3
 10
249.408051
 20
113.074554
 11
249.408051
 21
117.574554
  0
LINE
  8
001
 62
     3
 10
249.408051
 20
89.574554
 11
240.408051
 21
89.574554
  0
LINE
  8
001
 62
     3
 10
249.408051
 20
91.074554
 11
249.408051
 21
89.574554
  0
LINE
  8
001
 62
     3
 10
259.408051
 20
93.574554
 11
259.408051
 21
94.074554
  0
LINE
  8
001
 62
     3
 10
249.408051
 20
93.574554
 11
259.408051
 21
93.574554
  0
LINE
  8
001
 62
     3
 10
359.908051
 20
100.074554
 11
359.908051
 21
93.574554
  0
LINE
  8
001
 62
     3
 10
349.908051
 20
93.574554
 11
359.908051
 21
93.574554
  0
LINE
  8
001
 62
     3
 10
349.908051
 20
94.074554
 11
349.908051
 21
93.574554
  0
LINE
  8
001
 62
     3
 10
349.908051
 20
94.074554
 11
299.908051
 21
94.074554
  0
LINE
  8
001
 62
     3
 10
299.908051
 20
93.574554
 11
299.908051
 21
94.074554
  0
LINE
  8
001
 62
     3
 10
289.908051
 20
93.574554
 11
299.908051
 21
93.574554
  0
LINE
  8
001
 62
     3
 10
289.908051
 20
94.074554
 11
289.908051
 21
93.574554
  0
LINE
  8
001
 62
     3
 10
289.908051
 20
94.074554
 11
259.408051
 21
94.074554
  0
LINE
  8
001
 62
     3
 10
249.408051
 20
100.074554
 11
359.908051
 21
100.074554
  0
LINE
  8
001
 62
     3
 10
249.408051
 20
100.074554
 11
249.408051
 21
93.574554
  0
LINE
  8
001
 62
     3
 10
263.408051
 20
100.074554
 11
263.408051
 21
100.574554
  0
LINE
  8
001
 62
     3
 10
289.908051
 20
100.574554
 11
289.908051
 21
100.074554
  0
LINE
  8
001
 62
     3
 10
359.908051
 20
100.574554
 11
359.908051
 21
100.074554
  0
CIRCLE
  8
001
 62
     3
 10
232.408051
 20
96.574554
 40
1.5
  0
CIRCLE
  8
001
 62
     3
 10
232.408051
 20
96.574554
 40
1.23
  0
LINE
  8
001
  6
CENTER
 10
230.608051
 20
96.574554
 11
234.208051
 21
96.574554
  0
LINE
  8
001
  6
CENTER
 10
232.408051
 20
98.374554
 11
232.408051
 21
94.774554
  0
CIRCLE
  8
001
 62
     3
 10
232.408051
 20
110.574554
 40
1.5
  0
CIRCLE
  8
001
 62
     3
 10
232.408051
 20
110.574554
 40
1.23
  0
LINE
  8
001
  6
CENTER
 10
230.608051
 20
110.574554
 11
234.208051
 21
110.574554
  0
LINE
  8
001
  6
CENTER
 10
232.408051
 20
112.374554
 11
232.408051
 21
108.774554
  0
CIRCLE
  8
001
 62
     3
 10
236.908051
 20
103.574554
 40
1.5
  0
CIRCLE
  8
001
 62
     3
 10
236.908051
 20
103.574554
 40
1.23
  0
LINE
  8
001
  6
CENTER
 10
235.108051
 20
103.574554
 11
238.708051
 21
103.574554
  0
LINE
  8
001
  6
CENTER
 10
236.908051
 20
105.374554
 11
236.908051
 21
101.774554
  0
CIRCLE
  8
001
 62
     3
 10
347.408051
 20
111.574554
 40
1.0
  0
CIRCLE
  8
001
 62
     3
 10
347.408051
 20
111.574554
 40
0.785
  0
LINE
  8
001
  6
CENTER
 10
346.208051
 20
111.574554
 11
348.608051
 21
111.574554
  0
LINE
  8
001
  6
CENTER
 10
347.408051
 20
112.774554
 11
347.408051
 21
110.374554
  0
CIRCLE
  8
001
 62
     3
 10
302.408051
 20
111.574554
 40
1.0
  0
CIRCLE
  8
001
 62
     3
 10
302.408051
 20
111.574554
 40
0.785
  0
LINE
  8
001
  6
CENTER
 10
301.208051
 20
111.574554
 11
303.608051
 21
111.574554
  0
LINE
  8
001
  6
CENTER
 10
302.408051
 20
112.774554
 11
302.408051
 21
110.374554
  0
CIRCLE
  8
001
 62
     3
 10
356.908051
 20
111.574554
 40
1.0
  0
CIRCLE
  8
001
 62
     3
 10
356.908051
 20
111.574554
 40
0.785
  0
LINE
  8
001
  6
CENTER
 10
355.708051
 20
111.574554
 11
358.108051
 21
111.574554
  0
LINE
  8
001
  6
CENTER
 10
356.908051
 20
112.774554
 11
356.908051
 21
110.374554
  0
CIRCLE
  8
001
 62
     3
 10
292.908051
 20
111.574554
 40
1.0
  0
CIRCLE
  8
001
 62
     3
 10
292.908051
 20
111.574554
 40
0.785
  0
LINE
  8
001
  6
CENTER
 10
291.708051
 20
111.574554
 11
294.108051
 21
111.574554
  0
LINE
  8
001
  6
CENTER
 10
292.908051
 20
112.774554
 11
292.908051
 21
110.374554
  0
CIRCLE
  8
001
 62
     3
 10
252.408051
 20
105.074554
 40
1.5
  0
CIRCLE
  8
001
 62
     3
 10
252.408051
 20
105.074554
 40
1.23
  0
LINE
  8
001
  6
CENTER
 10
250.608051
 20
105.074554
 11
254.208051
 21
105.074554
  0
LINE
  8
001
  6
CENTER
 10
252.408051
 20
106.874554
 11
252.408051
 21
103.274554
  0
CIRCLE
  8
001
 62
     3
 10
252.408051
 20
110.574554
 40
1.5
  0
CIRCLE
  8
001
 62
     3
 10
252.408051
 20
110.574554
 40
1.23
  0
LINE
  8
001
  6
CENTER
 10
250.608051
 20
110.574554
 11
254.208051
 21
110.574554
  0
LINE
  8
001
  6
CENTER
 10
252.408051
 20
112.374554
 11
252.408051
 21
108.774554
  0
CIRCLE
  8
001
 62
     3
 10
347.908051
 20
97.574554
 40
1.0
  0
CIRCLE
  8
001
 62
     3
 10
347.908051
 20
97.574554
 40
0.785
  0
LINE
  8
001
  6
CENTER
 10
346.708051
 20
97.574554
 11
349.108051
 21
97.574554
  0
LINE
  8
001
  6
CENTER
 10
347.908051
 20
98.774554
 11
347.908051
 21
96.374554
  0
CIRCLE
  8
001
 62
     3
 10
301.908051
 20
97.574554
 40
1.0
  0
ARC
  8
001
 62
    15
 10
187.108041
 20
103.574572
 40
5.25000000000206
 50
89.999984
 51
179.999984
  0
ARC
  8
001
 62
    15
 10
187.108041
 20
103.574572
 40
5.25000000000206
 50
179.999984
 51
269.999984
  0
ARC
  8
001
 62
    15
 10
187.108041
 20
103.574572
 40
5.25000000000206
 50
269.999984
 51
89.999984
  0
ARC
  8
001
 62
    15
 10
187.108041
 20
103.574572
 40
5.25000000000206
 50
270.000643
 51
359.999984
  0
ARC
  8
001
 62
    15
 10
187.108041
 20
103.574572
 40
5.25000000000206
 50
359.999984
 51
90.000636
  0
ARC
  8
001
 62
    15
 10
167.408041
 20
103.574578
 40
5.000000000000004
 50
179.999984
 51
269.999984
  0
ARC
  8
001
 62
    15
 10
167.408041
 20
103.574578
 40
5.000000000000004
 50
269.999984
 51
89.999984
  0
ARC
  8
001
 62
    15
 10
167.408041
 20
103.574578
 40
5.000000000000004
 50
270.000637
 51
359.999984
  0
ARC
  8
001
 62
    15
 10
167.408041
 20
103.574578
 40
5.000000000000004
 50
89.999984
 51
179.999984
  0
ARC
  8
001
 62
    15
 10
167.408041
 20
103.574578
 40
5.000000000000004
 50
359.999984
 51
90.00063
  0
LINE
  8
001
 62
    15
 10
194.308038
 20
90.07457
 11
178.108038
 21
90.074575
  0
LINE
  8
001
 62
    15
 10
178.108038
 20
90.074575
 11
178.108046
 21
117.074575
  0
LINE
  8
001
 62
    15
 10
178.108046
 20
117.074575
 11
194.308046
 21
117.07457
  0
LINE
  8
001
 62
    15
 10
194.308046
 20
117.07457
 11
194.308038
 21
90.07457
  0
LINE
  8
001
 62
    15
 10
173.408038
 20
90.574576
 11
161.408038
 21
90.57458
  0
LINE
  8
001
 62
    15
 10
161.408038
 20
90.57458
 11
161.408046
 21
116.57458
  0
LINE
  8
001
 62
    15
 10
161.408046
 20
116.57458
 11
173.408046
 21
116.574576
  0
LINE
  8
001
 62
    15
 10
173.408038
 20
90.574576
 11
173.408046
 21
116.574576
  0
LINE
  8
001
 62
    15
 10
202.608047
 20
117.074568
 11
194.308046
 21
117.07457
  0
ARC
  8
001
 62
    15
 10
202.608046
 20
113.074568
 40
4.0
 50
359.999984
 51
89.999995
  0
LINE
  8
001
 62
    15
 10
206.608046
 20
113.074567
 11
206.608041
 21
94.074567
  0
ARC
  8
001
 62
    15
 10
202.608041
 20
94.074568
 40
4.0
 50
269.999973
 51
359.999984
  0
LINE
  8
001
 62
    15
 10
202.608039
 20
90.074568
 11
194.308038
 21
90.07457
  0
LINE
  8
001
 62
    15
 10
173.408048
 20
116.574576
 11
173.408041
 21
90.574576
  0
LINE
  8
001
 62
    15
 10
186.608047
 20
117.074572
 11
186.608048
 21
120.774572
  0
LINE
  8
001
 62
    15
 10
179.608048
 20
120.774574
 11
179.608047
 21
117.074574
  0
LINE
  8
001
 62
    15
 10
185.399823
 20
120.774573
 11
185.753376
 21
120.774573
  0
ARC
  8
001
 62
    15
 10
180.908048
 20
120.774574
 40
1.3
 50
89.999984
 51
179.999984
  0
LINE
  8
001
 62
    15
 10
180.908048
 20
122.074574
 11
184.476829
 21
122.074573
  0
POLYLINE
  8
001
 62
    15
 66
     1
  0
VERTEX
  8
001
 62
    15
 10
184.476829
 20
122.074573
  0
VERTEX
  8
001
 62
    15
 10
184.554077
 20
122.068315
  0
VERTEX
  8
001
 62
    15
 10
184.630283
 20
122.056547
  0
VERTEX
  8
001
 62
    15
 10
184.70859
 20
122.033537
  0
VERTEX
  8
001
 62
    15
 10
184.783737
 20
122.000806
  0
VERTEX
  8
001
 62
    15
 10
184.85627
 20
121.959779
  0
VERTEX
  8
001
 62
    15
 10
184.924313
 20
121.911911
  0
VERTEX
  8
001
 62
    15
 10
184.99306
 20
121.852664
  0
VERTEX
  8
001
 62
    15
 10
185.056013
 20
121.7872
  0
VERTEX
  8
001
 62
    15
 10
185.114563
 20
121.7148
  0
VERTEX
  8
001
 62
    15
 10
185.167149
 20
121.63797
  0
VERTEX
  8
001
 62
    15
 10
185.217704
 20
121.550402
  0
VERTEX
  8
001
 62
    15
 10
185.261594
 20
121.459319
  0
VERTEX
  8
001
 62
    15
 10
185.299437
 20
121.364329
  0
VERTEX
  8
001
 62
    15
 10
185.331127
 20
121.267056
  0
VERTEX
  8
001
 62
    15
 10
185.358344
 20
121.161777
  0
VERTEX
  8
001
 62
    15
 10
185.378127
 20
121.05499
  0
VERTEX
  8
001
 62
    15
 10
185.392536
 20
120.915217
  0
VERTEX
  8
001
 62
    15
 10
185.399823
 20
120.774573
  0
SEQEND
  8
001
 62
    15
  0
ARC
  8
001
 62
    15
 10
185.308048
 20
120.774573
 40
1.3
 50
359.999984
 51
89.999984
  0
POLYLINE
  8
001
 62
    15
 66
     1
  0
VERTEX
  8
001
 62
    15
 10
185.753376
 20
120.774573
  0
VERTEX
  8
001
 62
    15
 10
185.749065
 20
120.882107
  0
VERTEX
  8
001
 62
    15
 10
185.740721
 20
120.98927
  0
VERTEX
  8
001
 62
    15
 10
185.724854
 20
121.097231
  0
VERTEX
  8
001
 62
    15
 10
185.701649
 20
121.203967
  0
VERTEX
  8
001
 62
    15
 10
185.673629
 20
121.303298
  0
VERTEX
  8
001
 62
    15
 10
185.639453
 20
121.400634
  0
VERTEX
  8
001
 62
    15
 10
185.599221
 20
121.494355
  0
VERTEX
  8
001
 62
    15
 10
185.55236
 20
121.584947
  0
VERTEX
  8
001
 62
    15
 10
185.502982
 20
121.665281
  0
VERTEX
  8
001
 62
    15
 10
185.447591
 20
121.74161
  0
VERTEX
  8
001
 62
    15
 10
185.387868
 20
121.811131
  0
VERTEX
  8
001
 62
    15
 10
185.322234
 20
121.87499
  0
VERTEX
  8
001
 62
    15
 10
185.256727
 20
121.927726
  0
VERTEX
  8
001
 62
    15
 10
185.186435
 20
121.974206
  0
VERTEX
  8
001
 62
    15
 10
185.113412
 20
122.012714
  0
VERTEX
  8
001
 62
    15
 10
185.03663
 20
122.041812
  0
VERTEX
  8
001
 62
    15
 10
184.934789
 20
122.063198
  0
VERTEX
  8
001
 62
    15
 10
184.830383
 20
122.074573
  0
SEQEND
  8
001
 62
    15
  0
LINE
  8
001
 62
    15
 10
184.830383
 20
122.074573
 11
185.308048
 21
122.074573
  0
LINE
  8
001
 62
    15
 10
184.476829
 20
122.074573
 11
184.830383
 21
122.074573
  0
LINE
  8
001
 62
    15
 10
190.208047
 20
117.374571
 11
196.008047
 21
117.37457
  0
LINE
  8
001
 62
    15
 10
196.008047
 20
117.07457
 11
196.008047
 21
117.37457
  0
LINE
  8
001
 62
    15
 10
190.208047
 20
117.374571
 11
190.208047
 21
117.074571
  0
LINE
  8
001
 62
    15
 10
206.608047
 20
113.074567
 11
206.608042
 21
94.074567
  0
ARC
  8
001
 62
    15
 10
202.608042
 20
94.074568
 40
4.0
 50
269.999984
 51
359.999984
  0
ARC
  8
001
 62
    15
 10
202.608047
 20
113.074568
 40
4.0
 50
359.999984
 51
89.999984
  0
LINE
  8
001
 62
    15
 10
176.20804
 20
89.074575
 11
160.996335
 21
89.07458
  0
ARC
  8
001
 62
    15
 10
257.685274
 20
103.574552
 40
97.77013859047152
 50
170.004175
 51
188.528814
  0
LINE
  8
001
 62
    15
 10
228.408049
 20
120.545123
 11
186.608048
 21
120.545135
  0
LINE
  8
001
 62
    15
 10
179.608048
 20
120.545137
 11
161.399246
 21
120.545142
  0
LINE
  8
001
 62
    15
 10
176.20804
 20
86.604013
 11
228.40804
 21
86.603998
  0
LINE
  8
001
 62
    15
 10
176.20804
 20
89.074575
 11
176.20804
 21
86.604013
  0
LINE
  8
001
 62
    15
 10
176.20804
 20
82.574575
 11
228.40804
 21
82.57456
  0
CIRCLE
  8
001
 62
     3
 10
301.908051
 20
97.574554
 40
0.785
  0
LINE
  8
001
  6
CENTER
 10
300.708051
 20
97.574554
 11
303.108051
 21
97.574554
  0
LINE
  8
001
  6
CENTER
 10
301.908051
 20
98.774554
 11
301.908051
 21
96.374554
  0
CIRCLE
  8
001
 62
     3
 10
334.908051
 20
97.574554
 40
1.0
  0
CIRCLE
  8
001
 62
     3
 10
334.908051
 20
97.574554
 40
0.785
  0
LINE
  8
001
  6
CENTER
 10
333.708051
 20
97.574554
 11
336.108051
 21
97.574554
  0
LINE
  8
001
  6
CENTER
 10
334.908051
 20
98.774554
 11
334.908051
 21
96.374554
  0
CIRCLE
  8
001
 62
     3
 10
314.908051
 20
97.574554
 40
1.0
  0
CIRCLE
  8
001
 62
     3
 10
314.908051
 20
97.574554
 40
0.785
  0
LINE
  8
001
  6
CENTER
 10
313.708051
 20
97.574554
 11
316.108051
 21
97.574554
  0
LINE
  8
001
  6
CENTER
 10
314.908051
 20
98.774554
 11
314.908051
 21
96.374554
  0
LINE
  8
001
 62
    15
 10
176.20804
 20
82.574575
 11
176.20804
 21
86.604013
  0
LINE
  8
001
 62
    15
 10
161.399249
 20
124.57458
 11
161.399246
 21
120.545142
  0
LINE
  8
001
  6
CENTER
 10
156.086105
 20
103.574554
 11
291.908051
 21
103.574554
  0
LINE
  8
001
  6
HIDDEN
 10
297.158051
 20
93.574554
 11
297.158051
 21
96.074554
  0
LINE
  8
001
  6
HIDDEN
 10
352.658051
 20
96.074554
 11
352.658051
 21
93.574554
  0
LINE
  8
001
  6
HIDDEN
 10
292.658051
 20
96.074554
 11
292.658051
 21
93.574554
  0
LINE
  8
001
  6
HIDDEN
 10
351.158051
 20
96.074554
 11
358.658051
 21
96.074554
  0
LINE
  8
001
  6
HIDDEN
 10
358.658051
 20
96.074554
 11
358.658051
 21
100.074554
  0
LINE
  8
001
  6
HIDDEN
 10
298.658051
 20
96.074554
 11
298.658051
 21
100.074554
  0
LINE
  8
001
  6
HIDDEN
 10
351.158051
 20
100.074554
 11
351.158051
 21
96.074554
  0
LINE
  8
001
  6
HIDDEN
 10
291.158051
 20
96.074554
 11
298.658051
 21
96.074554
  0
LINE
  8
001
  6
HIDDEN
 10
291.158051
 20
100.074554
 11
291.158051
 21
96.074554
  0
LINE
  8
001
  6
HIDDEN
 10
357.158051
 20
93.574554
 11
357.158051
 21
96.074554
  0
LINE
  8
001
  6
CENTER
 10
354.908051
 20
91.574554
 11
354.908051
 21
102.074554
  0
LINE
  8
001
  6
CENTER
 10
294.908051
 20
91.574554
 11
294.908051
 21
102.074554
  0
LINE
  8
001
  6
CENTER
 10
493.083801
 20
222.783763
 11
493.083801
 21
227.243763
  0
LINE
  8
001
  6
CENTER
 10
559.183801
 20
207.013763
 11
563.983801
 21
207.013763
  0
LINE
  8
001
  6
CENTER
 10
561.583801
 20
209.413763
 11
561.583801
 21
204.613763
  0
LINE
  8
001
  6
CENTER
 10
559.183801
 20
243.013763
 11
563.983801
 21
243.013763
  0
LINE
  8
001
  6
CENTER
 10
561.583801
 20
245.413763
 11
561.583801
 21
240.613763
  0
LINE
  8
001
 62
    15
 10
565.883801
 20
232.013762
 11
565.883801
 21
230.513762
  0
LINE
  8
001
 62
    15
 10
565.883801
 20
229.013762
 11
566.033801
 21
229.013762
  0
LINE
  8
001
 62
    15
 10
566.433801
 20
229.013762
 11
566.583801
 21
229.013762
  0
LINE
  8
001
 62
    15
 10
566.583801
 20
232.013762
 11
566.433801
 21
232.013762
  0
LINE
  8
001
 62
    15
 10
566.033801
 20
232.013762
 11
565.883801
 21
232.013762
  0
LINE
  8
001
 62
    15
 10
565.883801
 20
230.513762
 11
565.883801
 21
229.013762
  0
LINE
  8
001
 62
    15
 10
565.883801
 20
221.013762
 11
565.883801
 21
219.513762
  0
LINE
  8
001
 62
    15
 10
566.583801
 20
221.013762
 11
566.433801
 21
221.013762
  0
LINE
  8
001
 62
    15
 10
566.033801
 20
221.013762
 11
565.883801
 21
221.013762
  0
LINE
  8
001
 62
    15
 10
565.883801
 20
219.513762
 11
565.883801
 21
218.013762
  0
LINE
  8
001
 62
    15
 10
566.433801
 20
232.213762
 11
566.033801
 21
232.213762
  0
LINE
  8
001
 62
    15
 10
566.033801
 20
225.013762
 11
566.033801
 21
232.213762
  0
LINE
  8
001
 62
    15
 10
566.433801
 20
225.013762
 11
566.433801
 21
232.213762
  0
LINE
  8
001
 62
    15
 10
565.583801
 20
232.513762
 11
565.583801
 21
225.013762
  0
LINE
  8
001
 62
    15
 10
562.833801
 20
228.513762
 11
562.833801
 21
217.513762
  0
LINE
  8
001
 62
    15
 10
562.833801
 20
217.513762
 11
565.583801
 21
217.513762
  0
LINE
  8
001
 62
    15
 10
565.583801
 20
232.513762
 11
559.333801
 21
232.513762
  0
CIRCLE
  8
001
 62
    15
 10
560.433801
 20
220.013762
 40
1.0
  0
LINE
  8
001
 62
    15
 10
565.583801
 20
225.013762
 11
565.583801
 21
217.513762
  0
ARC
  8
001
 62
    15
 10
562.733801
 20
228.513762
 40
0.1
 50
0.0
 51
180.0
  0
LINE
  8
001
 62
    15
 10
559.333801
 20
217.51793
 11
562.633801
 21
217.51793
  0
LINE
  8
001
 62
    15
 10
562.633801
 20
228.513762
 11
562.633801
 21
217.51793
  0
LINE
  8
001
 62
    15
 10
565.833801
 20
232.263762
 11
565.833801
 21
225.013762
  0
LINE
  8
001
 62
    15
 10
565.583801
 20
217.513762
 11
565.833801
 21
217.763762
  0
LINE
  8
001
 62
    15
 10
565.833801
 20
232.263762
 11
565.583801
 21
232.513762
  0
LINE
  8
001
 62
    15
 10
565.833801
 20
225.013762
 11
565.833801
 21
217.763762
  0
ARC
  8
001
 62
    15
 10
559.333801
 20
231.513762
 40
1.0
 50
90.0
 51
180.0
  0
LINE
  8
001
 62
    15
 10
558.333801
 20
218.518572
 11
558.333801
 21
231.513762
  0
POLYLINE
  8
001
 62
    15
 66
     1
  0
VERTEX
  8
001
 62
    15
 10
558.333801
 20
218.518572
  0
VERTEX
  8
001
 62
    15
 10
558.353301
 20
218.350524
  0
VERTEX
  8
001
 62
    15
 10
558.390226
 20
218.18718
  0
VERTEX
  8
001
 62
    15
 10
558.457895
 20
218.033208
  0
VERTEX
  8
001
 62
    15
 10
558.553178
 20
217.893148
  0
VERTEX
  8
001
 62
    15
 10
558.669622
 20
217.771163
  0
VERTEX
  8
001
 62
    15
 10
558.80421
 20
217.669763
  0
VERTEX
  8
001
 62
    15
 10
558.954143
 20
217.591762
  0
VERTEX
  8
001
 62
    15
 10
559.114866
 20
217.542204
  0
VERTEX
  8
001
 62
    15
 10
559.223724
 20
217.526394
  0
VERTEX
  8
001
 62
    15
 10
559.333801
 20
217.51793
  0
SEQEND
  8
001
 62
    15
  0
LINE
  8
001
 62
    15
 10
565.833801
 20
223.513762
 11
566.033801
 21
223.513762
  0
LINE
  8
001
 62
    15
 10
566.433801
 20
223.513762
 11
566.583801
 21
223.513762
  0
LINE
  8
001
 62
    15
 10
566.583801
 20
226.513762
 11
566.433801
 21
226.513762
  0
LINE
  8
001
 62
    15
 10
566.033801
 20
226.513762
 11
565.833801
 21
226.513762
  0
CIRCLE
  8
001
 62
    15
 10
560.433801
 20
220.013762
 40
0.7545
  0
LINE
  8
001
 10
562.633801
 20
222.513763
 11
562.833801
 21
222.513763
  0
LINE
  8
001
 10
562.833801
 20
227.513763
 11
562.633801
 21
227.513763
  0
LINE
  8
001
 62
     3
 10
566.583801
 20
235.513763
 11
566.583801
 21
233.713766
  0
LINE
  8
001
 62
     3
 10
567.884908
 20
233.713766
 11
566.583801
 21
233.713766
  0
LINE
  8
001
 62
     3
 10
566.583801
 20
219.774494
 11
566.583801
 21
233.713766
  0
LINE
  8
001
 62
    15
 10
566.433801
 20
219.39623
 11
566.433801
 21
225.013762
  0
LINE
  8
001
 62
    15
 10
566.033801
 20
218.327061
 11
566.033801
 21
225.013762
  0
LINE
  8
001
 62
    15
 10
565.883801
 20
218.013762
 11
565.925322
 21
218.013762
  0
LINE
  8
001
  6
CENTER
 10
80.83604
 20
225.013763
 11
34.83604
 21
225.013763
  0
LINE
  8
001
  6
CENTER
 10
57.83604
 20
248.013763
 11
57.83604
 21
188.933449
  0
LINE
  8
001
  6
HIDDEN
 10
50.336067
 20
258.76379
 11
50.336067
 21
251.26379
  0
LINE
  8
001
  6
HIDDEN
 10
50.336067
 20
251.26379
 11
54.336067
 21
251.26379
  0
LINE
  8
001
  6
HIDDEN
 10
54.336067
 20
258.76379
 11
50.336067
 21
258.76379
  0
LINE
  8
001
  6
HIDDEN
 10
47.836067
 20
252.76379
 11
50.336067
 21
252.76379
  0
LINE
  8
001
  6
HIDDEN
 10
50.336067
 20
257.26379
 11
47.836067
 21
257.26379
  0
LINE
  8
001
  6
CENTER
 10
45.836067
 20
255.01379
 11
56.336067
 21
255.01379
  0
ARC
  8
001
 62
    15
 10
405.747268
 20
253.013779
 40
60.0
 50
279.594083
 51
283.002878
  0
POLYLINE
  8
001
 62
    15
 66
     1
  0
VERTEX
  8
001
 62
    15
 10
419.247271
 20
198.601031
  0
VERTEX
  8
001
 62
    15
 10
419.238374
 20
198.709802
  0
VERTEX
  8
001
 62
    15
 10
419.22103
 20
198.816915
  0
VERTEX
  8
001
 62
    15
 10
419.188442
 20
198.921449
  0
VERTEX
  8
001
 62
    15
 10
419.141901
 20
199.021105
  0
VERTEX
  8
001
 62
    15
 10
419.080932
 20
199.119232
  0
VERTEX
  8
001
 62
    15
 10
419.009276
 20
199.209589
  0
VERTEX
  8
001
 62
    15
 10
418.919251
 20
199.299921
  0
VERTEX
  8
001
 62
    15
 10
418.820353
 20
199.380676
  0
VERTEX
  8
001
 62
    15
 10
418.701379
 20
199.461089
  0
VERTEX
  8
001
 62
    15
 10
418.576244
 20
199.53148
  0
VERTEX
  8
001
 62
    15
 10
418.430488
 20
199.599848
  0
VERTEX
  8
001
 62
    15
 10
418.280422
 20
199.658194
  0
VERTEX
  8
001
 62
    15
 10
418.125335
 20
199.708224
  0
VERTEX
  8
001
 62
    15
 10
417.967917
 20
199.750357
  0
VERTEX
  8
001
 62
    15
 10
417.793013
 20
199.788866
  0
VERTEX
  8
001
 62
    15
 10
417.616663
 20
199.820105
  0
VERTEX
  8
001
 62
    15
 10
417.425673
 20
199.846463
  0
VERTEX
  8
001
 62
    15
 10
417.233856
 20
199.8659
  0
VERTEX
  8
001
 62
    15
 10
416.949728
 20
199.883172
  0
VERTEX
  8
001
 62
    15
 10
416.665059
 20
199.88859
  0
VERTEX
  8
001
 62
    15
 10
416.363023
 20
199.883137
  0
VERTEX
  8
001
 62
    15
 10
416.061496
 20
199.866098
  0
VERTEX
  8
001
 62
    15
 10
415.904471
 20
199.852726
  0
VERTEX
  8
001
 62
    15
 10
415.747582
 20
199.837707
  0
SEQEND
  8
001
 62
    15
  0
LINE
  8
001
 62
    15
 10
419.247271
 20
198.601031
 11
419.247268
 21
194.552253
  0
LINE
  8
001
 62
    15
 10
419.247271
 20
200.013763
 11
419.247271
 21
198.601031
  0
POLYLINE
  8
001
 62
    15
 66
     1
  0
VERTEX
  8
001
 62
    15
 10
408.747553
 20
199.088837
  0
VERTEX
  8
001
 62
    15
 10
408.945031
 20
199.099132
  0
VERTEX
  8
001
 62
    15
 10
409.142483
 20
199.109915
  0
VERTEX
  8
001
 62
    15
 10
409.194934
 20
199.112916
  0
VERTEX
  8
001
 62
    15
 10
409.247383
 20
199.115952
  0
SEQEND
  8
001
 62
    15
  0
ARC
  8
001
 62
    15
 10
405.747268
 20
253.013779
 40
60.0
 50
272.865999
 51
273.344167
  0
LINE
  8
001
 62
    15
 10
408.747284
 20
191.01378
 11
409.247284
 21
191.01378
  0
ARC
  8
001
 62
    15
 10
405.747268
 20
253.013779
 40
60.0
 50
256.997122
 51
259.436038
  0
LINE
  8
001
 62
    15
 10
392.247271
 20
198.601031
 11
392.247268
 21
194.552253
  0
POLYLINE
  8
001
 62
    15
 66
     1
  0
VERTEX
  8
001
 62
    15
 10
394.742633
 20
199.888285
  0
VERTEX
  8
001
 62
    15
 10
394.601009
 20
199.884601
  0
VERTEX
  8
001
 62
    15
 10
394.459445
 20
199.8792
  0
VERTEX
  8
001
 62
    15
 10
394.194012
 20
199.860171
  0
VERTEX
  8
001
 62
    15
 10
393.929777
 20
199.828209
  0
VERTEX
  8
001
 62
    15
 10
393.69567
 20
199.787858
  0
VERTEX
  8
001
 62
    15
 10
393.464174
 20
199.734565
  0
VERTEX
  8
001
 62
    15
 10
393.262877
 20
199.674915
  0
VERTEX
  8
001
 62
    15
 10
393.066435
 20
199.600988
  0
VERTEX
  8
001
 62
    15
 10
392.896362
 20
199.520353
  0
VERTEX
  8
001
 62
    15
 10
392.734703
 20
199.42378
  0
VERTEX
  8
001
 62
    15
 10
392.604594
 20
199.325735
  0
VERTEX
  8
001
 62
    15
 10
392.487915
 20
199.212554
  0
VERTEX
  8
001
 62
    15
 10
392.415497
 20
199.121837
  0
VERTEX
  8
001
 62
    15
 10
392.353816
 20
199.023267
  0
VERTEX
  8
001
 62
    15
 10
392.306758
 20
198.923149
  0
VERTEX
  8
001
 62
    15
 10
392.273805
 20
198.818066
  0
VERTEX
  8
001
 62
    15
 10
392.25627
 20
198.71039
  0
VERTEX
  8
001
 62
    15
 10
392.247271
 20
198.601031
  0
SEQEND
  8
001
 62
    15
  0
LINE
  8
001
 62
    15
 10
392.247271
 20
198.601031
 11
392.247271
 21
200.013763
  0
LINE
  8
001
 62
    15
 10
392.247264
 20
194.552258
 11
392.247264
 21
195.713782
  0
LINE
  8
001
 62
    15
 10
392.247264
 20
195.713782
 11
392.247264
 21
197.113779
  0
LINE
  8
001
 62
    15
 10
392.247264
 20
197.113779
 11
392.247264
 21
197.413779
  0
LINE
  8
001
 62
    15
 10
391.947268
 20
197.113779
 11
391.947269
 21
200.013779
  0
LINE
  8
001
 62
    15
 10
391.947267
 20
199.213779
 11
391.947267
 21
198.86378
  0
LINE
  8
001
 62
    15
 10
391.947267
 20
198.563779
 11
391.947267
 21
198.21378
  0
LINE
  8
001
 62
    15
 10
391.947267
 20
197.913779
 11
391.947268
 21
197.113779
  0
LINE
  8
001
 62
    15
 10
392.247268
 20
197.113779
 11
392.247269
 21
200.013779
  0
LINE
  8
001
 62
    15
 10
391.947268
 20
197.113779
 11
392.247268
 21
197.113779
  0
LINE
  8
001
 62
    15
 10
391.947267
 20
199.213779
 11
391.947267
 21
198.86378
  0
LINE
  8
001
 62
    15
 10
391.947267
 20
198.563779
 11
391.947267
 21
198.21378
  0
LINE
  8
001
 62
    15
 10
391.947267
 20
197.913779
 11
391.947268
 21
197.413779
  0
LINE
  8
001
 62
    15
 10
391.947268
 20
197.413779
 11
391.947269
 21
200.013763
  0
POLYLINE
  8
001
 62
    15
 66
     1
  0
VERTEX
  8
001
 62
    15
 10
388.547266
 20
196.922006
  0
VERTEX
  8
001
 62
    15
 10
388.439731
 20
196.926317
  0
VERTEX
  8
001
 62
    15
 10
388.332568
 20
196.934661
  0
VERTEX
  8
001
 62
    15
 10
388.224607
 20
196.950529
  0
VERTEX
  8
001
 62
    15
 10
388.117871
 20
196.973734
  0
VERTEX
  8
001
 62
    15
 10
388.018541
 20
197.001754
  0
VERTEX
  8
001
 62
    15
 10
387.921204
 20
197.03593
  0
VERTEX
  8
001
 62
    15
 10
387.827483
 20
197.076161
  0
VERTEX
  8
001
 62
    15
 10
387.736891
 20
197.123023
  0
VERTEX
  8
001
 62
    15
 10
387.656558
 20
197.1724
  0
VERTEX
  8
001
 62
    15
 10
387.580228
 20
197.227792
  0
VERTEX
  8
001
 62
    15
 10
387.510707
 20
197.287515
  0
VERTEX
  8
001
 62
    15
 10
387.446848
 20
197.353149
  0
VERTEX
  8
001
 62
    15
 10
387.394113
 20
197.418656
  0
VERTEX
  8
001
 62
    15
 10
387.347632
 20
197.488948
  0
VERTEX
  8
001
 62
    15
 10
387.309125
 20
197.561972
  0
VERTEX
  8
001
 62
    15
 10
387.280026
 20
197.638753
  0
VERTEX
  8
001
 62
    15
 10
387.258641
 20
197.740594
  0
VERTEX
  8
001
 62
    15
 10
387.247266
 20
197.845
  0
SEQEND
  8
001
 62
    15
  0
LINE
  8
001
 62
    15
 10
387.247266
 20
197.845
 11
387.247266
 21
200.013763
  0
LINE
  8
001
 62
    15
 10
392.247265
 20
195.713782
 11
392.247266
 21
197.113779
  0
LINE
  8
001
 62
    15
 10
388.547265
 20
195.713782
 11
392.247265
 21
195.713782
  0
LINE
  8
001
 62
    15
 10
388.547266
 20
196.568453
 11
388.547266
 21
196.922006
  0
LINE
  8
001
 62
    15
 10
388.547266
 20
196.922006
 11
388.547266
 21
196.568453
  0
POLYLINE
  8
001
 62
    15
 66
     1
  0
VERTEX
  8
001
 62
    15
 10
387.247265
 20
197.491447
  0
VERTEX
  8
001
 62
    15
 10
387.253798
 20
197.41309
  0
VERTEX
  8
001
 62
    15
 10
387.265948
 20
197.335803
  0
VERTEX
  8
001
 62
    15
 10
387.288757
 20
197.258621
  0
VERTEX
  8
001
 62
    15
 10
387.321032
 20
197.184539
  0
VERTEX
  8
001
 62
    15
 10
387.362789
 20
197.110974
  0
VERTEX
  8
001
 62
    15
 10
387.411595
 20
197.042029
  0
VERTEX
  8
001
 62
    15
 10
387.470112
 20
196.974326
  0
VERTEX
  8
001
 62
    15
 10
387.534638
 20
196.912263
  0
VERTEX
  8
001
 62
    15
 10
387.608199
 20
196.852911
  0
VERTEX
  8
001
 62
    15
 10
387.686332
 20
196.799704
  0
VERTEX
  8
001
 62
    15
 10
387.772732
 20
196.749958
  0
VERTEX
  8
001
 62
    15
 10
387.862519
 20
196.706681
  0
VERTEX
  8
001
 62
    15
 10
387.958957
 20
196.668362
  0
VERTEX
  8
001
 62
    15
 10
388.057753
 20
196.636391
  0
VERTEX
  8
001
 62
    15
 10
388.161579
 20
196.609671
  0
VERTEX
  8
001
 62
    15
 10
388.266849
 20
196.590149
  0
VERTEX
  8
001
 62
    15
 10
388.406613
 20
196.575711
  0
VERTEX
  8
001
 62
    15
 10
388.547266
 20
196.568453
  0
SEQEND
  8
001
 62
    15
  0
LINE
  8
001
 62
    15
 10
387.247265
 20
197.845
 11
387.247265
 21
197.799829
  0
LINE
  8
001
 62
    15
 10
387.247265
 20
197.799829
 11
387.247265
 21
197.491447
  0
ARC
  8
001
 62
    15
 10
388.547265
 20
197.013782
 40
1.3
 50
180.0
 51
270.0
  0
LINE
  8
001
 62
    15
 10
387.247265
 20
197.013782
 11
387.247265
 21
197.491447
  0
LINE
  8
001
 62
    15
 10
387.247264
 20
199.920889
 11
387.247264
 21
199.774605
  0
LINE
  8
001
 62
    15
 10
387.247264
 20
199.774605
 11
387.247264
 21
199.251209
  0
LINE
  8
001
 62
    15
 10
387.247264
 20
199.251209
 11
387.247264
 21
199.087569
  0
LINE
  8
001
 62
    15
 10
387.247264
 20
199.087569
 11
387.247264
 21
198.516009
  0
LINE
  8
001
 62
    15
 10
387.247264
 20
198.516009
 11
387.247264
 21
198.446015
  0
LINE
  8
001
 62
    15
 10
387.247264
 20
198.446015
 11
387.247265
 21
197.745091
  0
LINE
  8
001
 62
    15
 10
387.247265
 20
197.745091
 11
387.247265
 21
197.013782
  0
LINE
  8
001
 62
    15
 10
387.247265
 20
199.920889
 11
387.247265
 21
198.506675
  0
LINE
  8
001
 62
    15
 10
387.247265
 20
198.506675
 11
387.247266
 21
197.845
  0
LINE
  8
001
 62
    15
 10
387.247265
 20
198.506676
 11
387.247265
 21
199.920889
  0
LINE
  8
001
 62
    15
 10
387.247265
 20
197.905635
 11
387.247265
 21
198.446015
  0
LINE
  8
001
 62
    15
 10
387.247265
 20
198.446015
 11
387.247265
 21
198.506676
  0
LINE
  8
001
 62
    15
 10
387.247265
 20
197.845
 11
387.247265
 21
197.799831
  0
LINE
  8
001
 62
    15
 10
387.247265
 20
197.799831
 11
387.247265
 21
197.552082
  0
LINE
  8
001
 62
    15
 10
387.247265
 20
197.552082
 11
387.247265
 21
197.799831
  0
LINE
  8
001
 62
    15
 10
387.247265
 20
197.799831
 11
387.247265
 21
198.153122
  0
LINE
  8
001
 62
     4
 10
295.27751
 20
294.728294
 11
293.112446
 21
293.478294
  0
LINE
  8
001
 62
     4
 10
295.27751
 20
292.228294
 11
293.112446
 21
293.478294
  0
LINE
  8
001
 62
     4
 10
350.947383
 20
294.728294
 11
353.112446
 21
293.478294
  0
LINE
  8
001
 62
     4
 10
350.947383
 20
292.228294
 11
353.112446
 21
293.478294
  0
LINE
  8
001
 62
     4
 10
353.112446
 20
293.478294
 11
333.722052
 21
293.478294
  0
LINE
  8
001
 62
     4
 10
293.112446
 20
293.478294
 11
316.038452
 21
293.478294
  0
TEXT
  8
001
 10
337.385355
 20
296.912869
 40
4.0
  1
ＣＷ
 41
0.666667
  0
POLYLINE
  8
001
 66
     1
  0
VERTEX
  8
001
 10
336.385355
 20
295.912869
  0
VERTEX
  8
001
 10
345.585355
 20
295.912869
  0
VERTEX
  8
001
 10
345.585355
 20
301.912869
  0
VERTEX
  8
001
 10
336.385355
 20
301.912869
  0
VERTEX
  8
001
 10
336.385355
 20
295.912869
  0
SEQEND
  8
001
  0
TEXT
  8
001
 10
301.179761
 20
296.912869
 40
4.0
  1
ＣＣＷ
 41
0.666667
  0
POLYLINE
  8
001
 66
     1
  0
VERTEX
  8
001
 10
300.179761
 20
295.912869
  0
VERTEX
  8
001
 10
312.579761
 20
295.912869
  0
VERTEX
  8
001
 10
312.579761
 20
301.912869
  0
VERTEX
  8
001
 10
300.179761
 20
301.912869
  0
VERTEX
  8
001
 10
300.179761
 20
295.912869
  0
SEQEND
  8
001
  0
LINE
  8
001
 62
     3
 10
249.408051
 20
190.013763
 11
289.908051
 21
190.013763
  0
LINE
  8
001
 62
     3
 10
249.408051
 20
200.013765
 11
249.408051
 21
190.013763
  0
LINE
  8
001
  6
CENTER
 10
361.908051
 20
225.013763
 11
154.946976
 21
225.013763
  0
LINE
  8
001
  6
CENTER
 10
324.908051
 20
262.013763
 11
324.908051
 21
186.342762
  0
LINE
  8
001
 62
    15
 10
250.108051
 20
229.013762
 11
250.108051
 21
232.013762
  0
LINE
  8
001
 62
    15
 10
250.108051
 20
232.013762
 11
249.958051
 21
232.013762
  0
LINE
  8
001
 62
    15
 10
249.558051
 20
232.013762
 11
249.408051
 21
232.013762
  0
LINE
  8
001
 62
    15
 10
249.408051
 20
229.013762
 11
249.558051
 21
229.013762
  0
LINE
  8
001
 62
    15
 10
249.958051
 20
229.013762
 11
250.108051
 21
229.013762
  0
LINE
  8
001
 62
    15
 10
250.108051
 20
218.013762
 11
250.108051
 21
221.013762
  0
LINE
  8
001
 62
    15
 10
250.108051
 20
221.013762
 11
249.958051
 21
221.013762
  0
LINE
  8
001
 62
    15
 10
249.558051
 20
221.013762
 11
249.408051
 21
221.013762
  0
LINE
  8
001
 62
    15
 10
249.408051
 20
218.013762
 11
249.558051
 21
218.013762
  0
LINE
  8
001
 62
    15
 10
249.958051
 20
218.013762
 11
250.108051
 21
218.013762
  0
LINE
  8
001
 62
    15
 10
249.558051
 20
217.813762
 11
249.558051
 21
232.213762
  0
LINE
  8
001
 62
    15
 10
249.958051
 20
217.813762
 11
249.958051
 21
232.213762
  0
LINE
  8
001
 62
    15
 10
249.958051
 20
232.213762
 11
249.558051
 21
232.213762
  0
LINE
  8
001
 62
    15
 10
249.558051
 20
217.813762
 11
249.958051
 21
217.813762
  0
LINE
  8
001
 62
    15
 10
250.408051
 20
217.513762
 11
250.408051
 21
232.513762
  0
LINE
  8
001
 62
    15
 10
256.658051
 20
232.513762
 11
250.408051
 21
232.513762
  0
LINE
  8
001
 62
    15
 10
250.408051
 20
217.513762
 11
253.158051
 21
217.513762
  0
ARC
  8
001
 62
    15
 10
255.558051
 20
220.013762
 40
1.8
 50
52.330113
 51
307.669887
  0
LINE
  8
001
 62
    15
 10
256.658051
 20
217.51793
 11
253.358051
 21
217.51793
  0
ARC
  8
001
 62
    15
 10
253.258051
 20
228.513762
 40
0.1
 50
0.0
 51
180.0
  0
LINE
  8
001
 62
    15
 10
253.158051
 20
228.513762
 11
253.158051
 21
217.513762
  0
LINE
  8
001
 62
    15
 10
253.358051
 20
217.51793
 11
253.358051
 21
228.513762
  0
LINE
  8
001
 62
    15
 10
250.158051
 20
217.763762
 11
250.158051
 21
232.263762
  0
LINE
  8
001
 62
    15
 10
250.408051
 20
232.513762
 11
250.158051
 21
232.263762
  0
LINE
  8
001
 62
    15
 10
250.158051
 20
217.763762
 11
250.408051
 21
217.513762
  0
ARC
  8
001
 62
    15
 10
256.658051
 20
231.513762
 40
1.0
 50
0.0
 51
90.0
  0
LINE
  8
001
 62
    15
 10
257.658051
 20
218.518572
 11
257.658051
 21
231.513762
  0
POLYLINE
  8
001
 62
    15
 66
     1
  0
VERTEX
  8
001
 62
    15
 10
256.658051
 20
217.51793
  0
VERTEX
  8
001
 62
    15
 10
256.825831
 20
217.537407
  0
VERTEX
  8
001
 62
    15
 10
256.988913
 20
217.574283
  0
VERTEX
  8
001
 62
    15
 10
257.142633
 20
217.641848
  0
VERTEX
  8
001
 62
    15
 10
257.282473
 20
217.736968
  0
VERTEX
  8
001
 62
    15
 10
257.404362
 20
217.85327
  0
VERTEX
  8
001
 62
    15
 10
257.505719
 20
217.987681
  0
VERTEX
  8
001
 62
    15
 10
257.583829
 20
218.137589
  0
VERTEX
  8
001
 62
    15
 10
257.633524
 20
218.298298
  0
VERTEX
  8
001
 62
    15
 10
257.6495
 20
218.407816
  0
VERTEX
  8
001
 62
    15
 10
257.658051
 20
218.518572
  0
SEQEND
  8
001
 62
    15
  0
ARC
  8
001
 62
    15
 10
255.558051
 20
220.013762
 40
1.8
 50
307.669887
 51
52.330113
  0
LINE
  8
001
 62
    15
 10
250.158051
 20
226.513762
 11
249.958051
 21
226.513762
  0
LINE
  8
001
 62
    15
 10
249.558051
 20
226.513762
 11
249.408051
 21
226.513762
  0
LINE
  8
001
 62
    15
 10
249.408051
 20
223.513762
 11
249.558051
 21
223.513762
  0
LINE
  8
001
 62
    15
 10
249.958051
 20
223.513762
 11
250.158051
 21
223.513762
  0
LINE
  8
001
 62
    15
 10
255.558051
 20
220.879788
 11
254.808051
 21
220.446775
  0
LINE
  8
001
 62
    15
 10
254.808051
 20
220.446775
 11
254.808051
 21
219.58075
  0
LINE
  8
001
 62
    15
 10
256.308051
 20
220.446775
 11
255.558051
 21
220.879788
  0
CIRCLE
  8
001
 62
    15
 10
255.558051
 20
220.013762
 40
1.25
  0
LINE
  8
001
 62
    15
 10
254.808051
 20
219.58075
 11
255.558051
 21
219.147737
  0
LINE
  8
001
 62
    15
 10
255.558051
 20
219.147737
 11
256.308051
 21
219.58075
  0
LINE
  8
001
 62
    15
 10
256.308051
 20
220.446775
 11
256.308051
 21
219.58075
  0
CIRCLE
  8
001
 62
    15
 10
255.558051
 20
220.013762
 40
1.55
  0
LINE
  8
001
 10
253.358051
 20
227.513763
 11
253.158051
 21
227.513763
  0
LINE
  8
001
 10
253.158051
 20
222.513763
 11
253.358051
 21
222.513763
  0
LINE
  8
001
 62
    15
 10
243.308051
 20
227.766623
 11
243.308051
 21
231.260904
  0
LINE
  8
001
 62
    15
 10
243.558051
 20
227.770204
 11
243.558051
 21
231.257323
  0
LINE
  8
001
 62
    15
 10
243.758051
 20
231.228406
 11
243.758051
 21
227.799121
  0
LINE
  8
001
 62
    15
 10
244.158051
 20
231.094902
 11
244.158051
 21
227.932625
  0
LINE
  8
001
 62
    15
 10
244.808051
 20
228.463763
 11
244.808051
 21
230.563763
  0
LINE
  8
001
 62
    15
 10
244.308051
 20
228.01293
 11
244.308051
 21
231.014597
  0
LINE
  8
001
 62
    15
 10
243.608051
 20
229.013762
 11
243.608051
 21
231.252297
  0
LINE
  8
001
 62
    15
 10
243.608051
 20
229.013762
 11
243.758051
 21
229.013762
  0
LINE
  8
001
 62
    15
 10
244.158051
 20
229.013762
 11
244.308051
 21
229.013762
  0
ARC
  8
001
 62
    15
 10
238.158051
 20
230.013762
 40
1.8
 50
232.330113
 51
92.442588
  0
LINE
  8
001
 62
    15
 10
237.058051
 20
228.588982
 11
236.937448
 21
228.690838
  0
LINE
  8
001
 62
    15
 10
238.158051
 20
229.436412
 11
238.658051
 21
229.725087
  0
LINE
  8
001
 62
    15
 10
238.658051
 20
229.725087
 11
238.658051
 21
230.302437
  0
ARC
  8
001
 62
    15
 10
238.158051
 20
230.013762
 40
1.25
 50
196.590081
 51
123.44375
  0
LINE
  8
001
 62
    15
 10
237.658051
 20
229.725087
 11
237.658051
 21
230.302437
  0
LINE
  8
001
 62
    15
 10
238.158051
 20
230.591113
 11
237.658051
 21
230.302437
  0
LINE
  8
001
 62
    15
 10
238.658051
 20
230.302437
 11
238.158051
 21
230.591113
  0
LINE
  8
001
 62
    15
 10
237.658051
 20
229.725087
 11
238.158051
 21
229.436412
  0
ARC
  8
001
 62
    15
 10
238.158051
 20
230.013762
 40
1.55
 50
216.302259
 51
103.731571
  0
LINE
  8
001
 62
    15
 10
240.358051
 20
232.509594
 11
238.964043
 21
232.509594
  0
LINE
  8
001
 62
    15
 10
240.358051
 20
232.509594
 11
240.358051
 21
225.051756
  0
LINE
  8
001
 62
    15
 10
240.358051
 20
227.513766
 11
240.408051
 21
227.513766
  0
LINE
  8
001
 62
    15
 10
238.978551
 20
225.727762
 11
238.978551
 21
225.509904
  0
LINE
  8
001
 62
    15
 10
238.978551
 20
225.727762
 11
238.627218
 21
225.727762
  0
LINE
  8
001
 62
    15
 10
240.141051
 20
225.706762
 11
240.141051
 21
225.087988
  0
LINE
  8
001
 62
    15
 10
240.141051
 20
225.706762
 11
239.931051
 21
225.706762
  0
LINE
  8
001
 62
    15
 10
239.931051
 20
225.160762
 11
239.931051
 21
225.706762
  0
POLYLINE
  8
001
 62
    15
 66
     1
  0
VERTEX
  8
001
 62
    15
 10
239.446558
 20
225.645255
  0
VERTEX
  8
001
 62
    15
 10
239.582119
 20
225.509693
  0
VERTEX
  8
001
 62
    15
 10
239.717681
 20
225.374132
  0
VERTEX
  8
001
 62
    15
 10
239.824366
 20
225.267447
  0
VERTEX
  8
001
 62
    15
 10
239.931051
 20
225.160762
  0
SEQEND
  8
001
 62
    15
  0
ARC
  8
001
 62
    15
 10
239.298066
 20
225.496762
 40
0.21
 50
45.0
 51
90.0
  0
LINE
  8
001
 62
    15
 10
239.298066
 20
225.706762
 11
239.175051
 21
225.706762
  0
LINE
  8
001
 62
    15
 10
239.175051
 20
225.408668
 11
239.175051
 21
225.706762
  0
ENDSEC
  0
EOF
